<?xml version="1.0" standalone="no"?>
<!DOCTYPE svg PUBLIC "-//W3C//DTD SVG 1.1//EN" "http://www.w3.org/Graphics/SVG/1.1/DTD/svg11.dtd" >
<svg xmlns="http://www.w3.org/2000/svg" xmlns:xlink="http://www.w3.org/1999/xlink" version="1.1">
<metadata></metadata>
<defs>
<font id="nowaythin_italic" horiz-adv-x="1085" >
<font-face units-per-em="2048" ascent="1536" descent="-512" />
<missing-glyph horiz-adv-x="585" />
<glyph unicode="&#x2e;&#x2e;&#x2e;" horiz-adv-x="1331" d="M158 0l14 74h61l-14 -74h-61zM635 0l14 74h62l-15 -74h-61zM1112 0l14 74h62l-14 -74h-62z" />
<glyph unicode="&#xd;" horiz-adv-x="534" />
<glyph unicode=" "  horiz-adv-x="585" />
<glyph unicode="&#x09;" horiz-adv-x="585" />
<glyph unicode="&#xa0;" horiz-adv-x="585" />
<glyph unicode="!" horiz-adv-x="399" d="M170 0l14 74h62l-15 -74h-61zM244 291l215 1143h39l-228 -1143h-26z" />
<glyph unicode="&#x22;" horiz-adv-x="573" d="M358 950l88 484h39l-100 -484h-27zM555 950l88 484h39l-100 -484h-27z" />
<glyph unicode="#" horiz-adv-x="999" d="M137 528l13 33h233l121 320h-236l15 32h235l125 336h35l-127 -336h323l125 336h35l-127 -336h236l-15 -32h-235l-121 -320h238l-13 -33h-237l-127 -340h-35l129 340h-324l-127 -340h-34l129 340h-234zM416 561h323l121 320h-323z" />
<glyph unicode="$" horiz-adv-x="999" d="M129 117l23 26q127 -127 358 -127q84 0 153.5 14.5t118 39t85 58.5t58 70t35.5 78.5t18.5 78t4.5 73.5q0 63 -27.5 113.5t-72 82t-101.5 60.5t-116.5 50.5t-116.5 51t-101.5 62t-72 84.5t-27.5 117q0 392 440 401l27 141h35l-27 -141q204 -5 332 -133l-20 -27 q-59 61 -137 94t-201 33q-199 0 -307.5 -92t-108.5 -272q0 -70 35 -122.5t91.5 -85.5t124 -61t135.5 -57t124.5 -64.5t91.5 -93t35 -133.5q0 -42 -5.5 -82.5t-20 -85t-38 -83.5t-61 -75t-86.5 -62.5t-118 -43.5t-152 -20l-35 -179h-35l35 179q-250 0 -373 133z" />
<glyph unicode="%" horiz-adv-x="1509" d="M301 979l37 192q28 146 97.5 212.5t195.5 66.5q124 0 169.5 -67t16.5 -212l-39 -192q-29 -147 -98 -213t-195 -66q-123 0 -167.5 66.5t-16.5 212.5zM334 987q-27 -135 8.5 -195.5t149.5 -60.5q111 0 170 61t86 195l34 176q27 135 -8.5 195.5t-148.5 60.5q-111 0 -170 -61 t-86 -195zM434 -59l875 1552h37l-873 -1552h-39zM969 262l39 193q29 147 97.5 212.5t194.5 65.5q124 0 170 -66.5t17 -211.5l-39 -193q-29 -147 -98 -212.5t-195 -65.5q-124 0 -169.5 66.5t-16.5 211.5zM1004 270q-27 -135 8.5 -195.5t148.5 -60.5q111 0 170 61t86 195 l35 176q27 135 -8.5 195.5t-149.5 60.5q-111 0 -170 -61t-86 -195z" />
<glyph unicode="&#x26;" horiz-adv-x="1202" d="M164 283q0 190 90 301t293 164l-45 65q-99 141 -99 272q0 175 116.5 270t291.5 95q75 0 138.5 -18t97.5 -37.5t77 -51.5l-22 -26q-124 100 -295 100q-154 0 -261.5 -86.5t-107.5 -238.5q0 -125 90 -256l418 -605q96 102 163 236.5t99 277.5h31q-33 -148 -102 -290.5 t-170 -251.5l141 -203h-41l-125 178q-201 -194 -463 -194q-147 0 -231 77t-84 222zM197 293q0 -138 76 -207.5t210 -69.5q245 0 439 191l-355 512q-189 -43 -279.5 -146t-90.5 -280z" />
<glyph unicode="'" horiz-adv-x="374" d="M358 950l88 484h39l-100 -484h-27z" />
<glyph unicode="(" horiz-adv-x="575" d="M199 406q0 137 27.5 273.5t86.5 283.5t165.5 295t252.5 280l25 -22q-183 -168 -303 -363t-170 -376.5t-50 -366.5q0 -175 45 -352t136 -300l-27 -22q-96 131 -142 310.5t-46 359.5z" />
<glyph unicode=")" horiz-adv-x="575" d="M61 -242q266 251 397.5 539t131.5 567q0 175 -44.5 352.5t-135.5 299.5l26 22q96 -131 142.5 -311t46.5 -359q0 -135 -30 -276t-91.5 -288.5t-168.5 -295t-249 -272.5z" />
<glyph unicode="*" horiz-adv-x="806" d="M326 1272l22 39l273 -113l61 338h41l-70 -338l318 113l6 -39l-320 -107l160 -270l-37 -25l-153 277l-256 -281l-33 29l268 274z" />
<glyph unicode="+" horiz-adv-x="940" d="M135 588l6 35h432l89 448h34l-88 -448h432l-6 -35h-432l-86 -447h-35l86 447h-432z" />
<glyph unicode="," horiz-adv-x="376" d="M78 -201q88 92 110 201h-30l14 74h61l-14 -74q-23 -126 -121 -219z" />
<glyph unicode="-" horiz-adv-x="710" d="M217 631l6 31h522l-6 -31h-522z" />
<glyph unicode="." horiz-adv-x="376" d="M158 0l14 74h61l-14 -74h-61z" />
<glyph unicode="/" horiz-adv-x="530" d="M-45 -162l862 1757h37l-862 -1757h-37z" />
<glyph unicode="0" horiz-adv-x="1064" d="M198.5 270q-8.5 88 14.5 193l98 508q21 109 57.5 192.5t94.5 150t146 101.5t202 35q106 0 180 -36t108.5 -100t44 -152t-13.5 -191l-98 -508q-21 -110 -58.5 -194t-96.5 -150t-146 -100.5t-199 -34.5q-107 0 -181 35.5t-109 99t-43.5 151.5zM250 473q-87 -457 285 -457 q377 0 464 457l95 488q22 101 16.5 184.5t-35.5 144t-97.5 94t-170.5 33.5q-376 0 -463 -456z" />
<glyph unicode="1" horiz-adv-x="931" d="M143 0l7 35h397l264 1358l-489 -197l-11 31l514 207h29l-272 -1399h299l-7 -35h-731z" />
<glyph unicode="2" horiz-adv-x="985" d="M113 0l18 94q15 75 74 153t141 147t178.5 140.5t190 145t170 148t123.5 160.5t47 173q0 130 -86.5 193t-227.5 63q-165 0 -340 -100l-16 26q189 107 365 107q159 0 249.5 -74.5t90.5 -210.5q0 -80 -37 -160.5t-97.5 -148t-139.5 -137t-162 -129.5t-165 -124.5t-149 -122 t-114.5 -123t-59.5 -126.5l-12 -59h725l-7 -35h-759z" />
<glyph unicode="3" horiz-adv-x="989" d="M115 98l18 27q60 -45 149.5 -77t188.5 -32q117 0 205.5 31.5t138.5 78t81 110.5t40.5 118.5t9.5 112.5q0 124 -77 195t-228 71h-137l6 33h137q177 0 279 102t102 277q0 125 -73 198.5t-226 73.5q-156 0 -330 -100l-16 26q180 107 354 107q164 0 245 -83t81 -218 q0 -158 -75.5 -263.5t-221.5 -137.5q95 -14 153 -87.5t58 -189.5q0 -40 -4 -78.5t-17.5 -88.5t-35 -93t-61 -86t-91.5 -73t-129.5 -49t-171.5 -19q-206 0 -352 114z" />
<glyph unicode="4" d="M172 381l6 29l649 1024h43l-645 -1018h582l94 477h35l-94 -477h225l-6 -35h-225l-74 -381h-35l74 381h-629z" />
<glyph unicode="5" horiz-adv-x="1019" d="M129 94l23 27q59 -44 147 -74.5t188 -30.5q111 0 199 35.5t140 89t86 124t46.5 133t12.5 122.5q0 142 -83 230t-241 88q-70 0 -134 -15.5t-102 -33t-92 -48.5l-24 7l174 686h643l-6 -33h-610l-160 -619q150 88 313 88q171 0 261.5 -94t90.5 -246q0 -45 -6 -91.5 t-22 -101.5t-40.5 -104t-65.5 -95.5t-93.5 -80t-128 -53.5t-164.5 -20q-109 0 -201 32t-151 78z" />
<glyph unicode="6" horiz-adv-x="1071" d="M198 256.5q-9 84.5 13 185.5l90 463q28 141 82 247t126.5 170.5t156 96t178.5 31.5q181 0 313 -102l-20 -27q-130 96 -297 96q-87 0 -164 -29.5t-144.5 -89t-118.5 -160t-77 -233.5l-41 -207q38 40 72.5 69t86.5 62.5t117 51.5t138 18q88 0 154 -26.5t105 -74.5 t57.5 -109t18.5 -136q0 -89 -15.5 -169t-53.5 -154.5t-95.5 -128t-147 -85.5t-202.5 -32q-106 0 -179 33.5t-108.5 94t-44.5 145zM231.5 306.5q-1.5 -63.5 17 -117t53 -92t94.5 -60t141 -21.5q106 0 189.5 31.5t135.5 82.5t85.5 122.5t47 144.5t13.5 154q0 69 -17 124.5 t-52 99t-95.5 67.5t-141.5 24q-232 0 -415 -217l-41 -207q-13 -72 -14.5 -135.5z" />
<glyph unicode="7" horiz-adv-x="1034" d="M291 0l878 1401h-802l6 33h846l-5 -23l-882 -1411h-41z" />
<glyph unicode="8" horiz-adv-x="1069" d="M152 287q0 368 485 471q-10 5 -51 23t-65.5 30t-62.5 38.5t-60 53t-39 67.5t-17 89q0 175 120.5 283t350.5 108q170 0 260 -73t90 -201q0 -54 -14 -101.5t-35.5 -82t-55.5 -66.5t-64.5 -52t-73.5 -41t-71 -31.5t-67.5 -25t-54.5 -20.5q175 -50 253.5 -127t78.5 -203 q0 -207 -139 -324.5t-388 -117.5q-186 0 -283 77.5t-97 225.5zM186 293q0 -136 92 -206.5t261 -70.5q226 0 354.5 105.5t128.5 298.5q0 239 -344 315q-251 -53 -371.5 -161t-120.5 -281zM377 1067q0 -28 7.5 -54t18 -46.5t30 -41.5t35 -35.5t42.5 -30.5t44 -25.5t47 -22.5 t43.5 -18.5t41.5 -16.5q46 15 74.5 25t80 31.5t85 41.5t75.5 52t66.5 65.5t41.5 79t17 96.5q0 115 -78.5 182.5t-236.5 67.5q-109 0 -193.5 -28.5t-136 -77.5t-78 -111t-26.5 -133z" />
<glyph unicode="9" horiz-adv-x="1071" d="M193 86l20 27q128 -97 295 -97q87 0 164.5 29.5t145.5 89t119 160t77 233.5l41 207q-181 -200 -414 -200q-172 0 -254 94.5t-82 251.5q0 89 15.5 168.5t52 154.5t93 128.5t144.5 85.5t199 32q87 0 153 -23t106 -64.5t62.5 -98.5t22.5 -126t-14 -147l-90 -463 q-55 -277 -199.5 -410.5t-345.5 -133.5q-179 0 -311 102zM340 883q0 -69 17 -125t52.5 -99.5t96 -67.5t141.5 -24q233 0 416 217l41 207q13 72 14.5 135.5t-17.5 117t-54 92t-95 60t-141 21.5q-106 0 -189.5 -31.5t-135.5 -82.5t-85.5 -122t-47 -144t-13.5 -154z" />
<glyph unicode=":" horiz-adv-x="376" d="M158 0l14 74h61l-14 -74h-61zM348 983l14 74h62l-14 -74h-62z" />
<glyph unicode=";" horiz-adv-x="376" d="M78 -201q88 92 110 201h-30l14 74h61l-14 -74q-23 -126 -121 -219zM348 983l14 74h62l-14 -74h-62z" />
<glyph unicode="&#x3c;" horiz-adv-x="946" d="M201 588l6 33l858 438l-8 -41l-813 -416l651 -412l-6 -38z" />
<glyph unicode="=" horiz-adv-x="940" d="M98 395l6 35h900l-7 -35h-899zM178 803l6 35h899l-6 -35h-899z" />
<glyph unicode="&#x3e;" horiz-adv-x="946" d="M115 152l8 41l813 415l-655 416l10 33l688 -436l-8 -33z" />
<glyph unicode="?" horiz-adv-x="931" d="M338 1333q90 53 185.5 85t219.5 32q157 0 244.5 -68t87.5 -190q0 -78 -18 -141t-49.5 -106t-72.5 -78t-87.5 -62t-94 -52t-93.5 -54t-84 -63t-66.5 -83.5t-40.5 -110.5l-29 -145h-34l28 145q17 83 59.5 146.5t97 103.5t116.5 74t120.5 69t106.5 78t77 111.5t29 159.5 q0 114 -79.5 173.5t-223.5 59.5q-201 0 -383 -110zM340 0l14 74h62l-15 -74h-61z" />
<glyph unicode="@" horiz-adv-x="1499" d="M213 389q0 100 11 192.5t37.5 186.5t67 174t103 150t142.5 119t189 77.5t238 28.5q266 0 393.5 -125.5t127.5 -370.5q0 -164 -27.5 -284t-76.5 -186t-107 -96t-129 -30q-72 0 -111 27.5t-51 83.5q-37 -44 -104 -77.5t-148 -33.5q-120 0 -158 71.5t-12 205.5l35 186 q27 136 90.5 206.5t187.5 70.5q73 0 125.5 -30t75.5 -71l21 90h30l-104 -536q-18 -93 19 -126.5t110 -33.5q49 0 91 16t81.5 56t67.5 101.5t44.5 159t16.5 222.5q0 471 -485 471q-126 0 -232 -28.5t-182 -77t-136 -117.5t-97.5 -146t-62 -166.5t-34.5 -174.5t-10 -175 q0 -258 126.5 -378.5t403.5 -120.5q229 0 467 120l13 -28q-244 -125 -486 -125q-290 0 -425.5 129t-135.5 393zM633 508q-25 -127 3.5 -188.5t137.5 -61.5q71 0 137 31.5t105 81.5l88 448q-21 51 -73 82t-126 31q-109 0 -160.5 -61t-76.5 -189z" />
<glyph unicode="A" horiz-adv-x="1138" d="M72 0l757 1434h33l205 -1434h-39l-65 479h-598l-250 -479h-43zM385 514h573l-120 862z" />
<glyph unicode="B" horiz-adv-x="1128" d="M231 0l279 1434h391q81 0 139.5 -21t90.5 -58.5t46.5 -81.5t14.5 -99q0 -91 -26.5 -165.5t-72 -123.5t-98.5 -80.5t-114 -46.5q99 -19 162 -89t63 -196q0 -27 -3 -58t-14.5 -79t-31 -91.5t-56.5 -89.5t-85.5 -79t-123.5 -54.5t-167 -21.5h-394zM272 33h355 q201 0 322.5 114t121.5 322q0 134 -82 202t-241 68h-338zM416 772h336q75 0 145 24t129.5 71t95 126.5t35.5 180.5q0 227 -264 227h-354z" />
<glyph unicode="C" horiz-adv-x="1120" d="M242 453l102 528q92 469 514 469q56 0 103 -10.5t79.5 -25t60 -40.5t42.5 -45.5t30 -52t20.5 -49t14.5 -45.5l-30 -15q-13 45 -24 73.5t-36 65.5t-57 58.5t-85.5 37t-123.5 15.5q-390 0 -475 -446l-98 -508q-16 -77 -16 -143q-1 -20 1 -40q6 -82 38.5 -141t102.5 -91 t175 -32q68 0 127.5 15.5t101.5 38t80 57t62 65t48 68.5l29 -14q-19 -30 -27.5 -42.5t-35 -46t-47.5 -51.5t-59 -45t-77 -41t-93.5 -25t-115.5 -11q-347 0 -347 316q0 69 16 153z" />
<glyph unicode="D" horiz-adv-x="1204" d="M205 0l278 1434h344q213 0 320.5 -125.5t107.5 -366.5q0 -148 -25 -283.5t-80 -256.5t-135 -209.5t-197 -140.5t-259 -52h-354zM246 33h309q135 0 247 50.5t188 136.5t128.5 202t76.5 244.5t24 267.5q0 467 -398 467h-309z" />
<glyph unicode="E" horiz-adv-x="1007" d="M205 0l278 1434h682l-6 -33h-647l-123 -633h615l-7 -33h-614l-137 -702h647l-6 -33h-682z" />
<glyph unicode="F" horiz-adv-x="997" d="M205 0l278 1434h682l-6 -33h-647l-127 -653h614l-6 -33h-614l-139 -715h-35z" />
<glyph unicode="G" horiz-adv-x="1138" d="M242 453l102 528q92 469 514 469q56 0 102.5 -10t79 -24.5t59.5 -38t42.5 -44.5t29.5 -50.5t20.5 -48t14.5 -45.5q1 -2 1.5 -3.5t0.5 -3.5l-30 -15q-12 42 -24 73t-37 66.5t-58 58t-86 37.5t-121 15q-390 0 -475 -446l-98 -508q-16 -77 -16 -143q0 -21 1 -40 q7 -82 39 -141t102 -91t175 -32q88 0 162.5 20t125 53t82.5 64.5t54 65.5l92 465h-334l6 33h369l-101 -508q-153 -225 -463 -225q-347 0 -347 316q0 69 16 153z" />
<glyph unicode="H" horiz-adv-x="1269" d="M205 0l278 1434h35l-129 -668h793l129 668h32l-278 -1434h-33l144 733h-793l-143 -733h-35z" />
<glyph unicode="I" horiz-adv-x="444" d="M205 0l278 1434h35l-278 -1434h-35z" />
<glyph unicode="J" horiz-adv-x="679" d="M84 8l16 31q58 -23 113 -23q63 0 111 21t78 52t53.5 86.5t35.5 103t27 122.5l201 1033h35l-203 -1043q-12 -64 -23.5 -109t-30 -96t-42.5 -84t-58 -62t-81 -42.5t-107 -13.5q-71 0 -125 24z" />
<glyph unicode="K" horiz-adv-x="1062" d="M205 0l278 1434h35l-129 -668h262l543 668h41l-555 -684l285 -750h-39l-275 733h-268l-143 -733h-35z" />
<glyph unicode="L" horiz-adv-x="956" d="M205 0l278 1434h35l-272 -1401h647l-6 -33h-682z" />
<glyph unicode="M" horiz-adv-x="1439" d="M195 0l278 1434h29l293 -1031l694 1031h33l-279 -1434h-33l263 1350l-672 -994h-25l-287 994l-262 -1350h-32z" />
<glyph unicode="N" horiz-adv-x="1269" d="M195 0l278 1434h25l555 -1362l264 1362h37l-279 -1434h-31l-552 1354l-263 -1354h-34z" />
<glyph unicode="O" horiz-adv-x="1167" d="M231 263q-3 26 -3 54q0 64 16 138l102 526q21 109 60 192.5t100.5 147t152 96.5t207.5 33q219 0 301 -124q54 -82 54 -205q0 -64 -15 -140l-102 -526q-92 -471 -522 -471q-111 0 -188 34t-115 96t-48 149zM281 465q-15 -80 -15 -146q0 -303 322 -303q394 0 483 449 l98 506q15 79 15 144q0 302 -324 302q-396 0 -481 -446z" />
<glyph unicode="P" horiz-adv-x="1079" d="M205 0l278 1434h318q205 0 299 -82.5t94 -227.5q0 -263 -136.5 -391.5t-418.5 -128.5h-283l-116 -604h-35zM362 637h283q260 0 387 122.5t127 356.5q0 63 -17.5 112.5t-57.5 89.5t-113 61.5t-176 21.5h-283z" />
<glyph unicode="Q" horiz-adv-x="1167" d="M231 263q-3 26 -3 54q0 65 16 138l102 526q21 109 60 192.5t100.5 147t152 96.5t207.5 33q219 0 301 -124q54 -82 54 -205q0 -64 -15 -140l-102 -526q-46 -221 -160 -338l129 -150l-24 -22l-129 149q-125 -110 -338 -110q-111 0 -188 34t-115 96t-48 149zM281 465 q-15 -80 -15 -146q0 -303 322 -303q192 0 309 105l-168 196l27 23l166 -195q105 108 149 320l98 506q15 79 15 144q0 302 -324 302q-396 0 -481 -446z" />
<glyph unicode="R" horiz-adv-x="1128" d="M205 0l278 1434h318q397 0 397 -299q0 -424 -387 -494l207 -641h-39l-207 635q-58 -6 -127 -6h-283l-122 -629h-35zM369 662h282q261 0 385.5 116t124.5 348q0 62 -17.5 110t-58 86.5t-113.5 58.5t-177 20h-283z" />
<glyph unicode="S" horiz-adv-x="1048" d="M129 117l23 26q127 -127 358 -127q84 0 153.5 14.5t118 39t85 58.5t58 70t35.5 78.5t18.5 78t4.5 73.5q0 63 -27.5 113.5t-72 82t-101.5 60.5t-116.5 50.5t-116.5 51t-101.5 62t-72 84.5t-27.5 117q0 196 113.5 298.5t343.5 102.5q217 0 350 -133l-20 -27q-59 61 -137 94 t-201 33q-199 0 -307.5 -92t-108.5 -272q0 -70 35 -122.5t91.5 -85.5t124 -61t135.5 -57t124.5 -64.5t91.5 -93t35 -133.5q0 -62 -12 -119.5t-46.5 -120t-89 -108t-149 -75t-217.5 -29.5q-135 0 -228.5 38t-146.5 95z" />
<glyph unicode="T" horiz-adv-x="1017" d="M350 1401l6 33h861l-7 -33h-411l-273 -1401h-34l272 1401h-414z" />
<glyph unicode="U" horiz-adv-x="1159" d="M238 428l194 1006h35l-193 -996q-15 -76 -15 -139q-1 -109 45 -177q72 -106 280 -106q209 0 320 106t153 316l192 996h35l-194 -1006q-21 -110 -57.5 -189t-95.5 -138t-148 -88t-209 -29q-357 0 -357 307q0 62 15 137z" />
<glyph unicode="V" horiz-adv-x="1089" d="M342 1434h37l174 -1385l711 1385h41l-740 -1434h-41z" />
<glyph unicode="W" horiz-adv-x="1626" d="M338 1434h39l72 -1381l622 1381h39l86 -1381l606 1381h43l-635 -1434h-47l-86 1360l-614 -1360h-47z" />
<glyph unicode="X" horiz-adv-x="974" d="M61 0l549 739l-245 695h38l232 -656l487 656h45l-518 -695l262 -739h-39l-245 700l-521 -700h-45z" />
<glyph unicode="Y" horiz-adv-x="1087" d="M340 1434h39l285 -799l598 799h43l-629 -838l-115 -596h-35l115 596z" />
<glyph unicode="Z" horiz-adv-x="1003" d="M109 0l4 25l1015 1376h-716l6 33h764l-4 -23l-1014 -1378h745l-6 -33h-794z" />
<glyph unicode="[" horiz-adv-x="583" d="M119 -238l340 1749h299l-6 -32h-265l-327 -1684h264l-6 -33h-299z" />
<glyph unicode="\" horiz-adv-x="530" d="M295 1595h37l178 -1757h-37z" />
<glyph unicode="]" horiz-adv-x="583" d="M72 -238l6 33h264l328 1684h-264l6 32h299l-340 -1749h-299z" />
<glyph unicode="^" horiz-adv-x="948" d="M182 750l574 786h32l267 -786h-39l-248 745l-543 -745h-43z" />
<glyph unicode="_" horiz-adv-x="1005" d="M39 -113l6 31h883l-6 -31h-883z" />
<glyph unicode="`" horiz-adv-x="757" d="M610 1599h43l60 -325h-27z" />
<glyph unicode="a" d="M199 389l67 340q40 203 138 304.5t278 101.5q215 0 334 -177l39 160h26l-161 -835q-7 -33 -11 -55.5t-8 -50t-4.5 -45.5t0.5 -38t6.5 -32t14 -22.5t22 -15t31.5 -4.5q31 0 84 21l2 -31q-53 -22 -90 -22q-105 0 -105 129q0 17 2 37q-70 -68 -169 -119t-220 -51 q-177 0 -246 105q-44 67 -44 171q0 59 14 129zM236 397q-15 -75 -14 -135q0 -92 34 -150q57 -96 229 -96q202 0 385 187l138 712q-41 74 -126.5 130.5t-197.5 56.5q-166 0 -257 -95.5t-128 -285.5z" />
<glyph unicode="b" horiz-adv-x="1048" d="M184 0l299 1536h35l-112 -578q172 177 397 177q169 1 235 -105q42 -67 43 -172q0 -59 -14 -129l-66 -340q-78 -405 -423 -405q-67 0 -124 17t-96 45.5t-64.5 56t-43.5 57.5l-37 -160h-29zM258 203q48 -82 126.5 -134.5t186.5 -52.5q172 0 267 96t131 285l61 324 q14 71 14 129q0 96 -37 156q-59 96 -225 96q-100 0 -204.5 -54t-180.5 -133z" />
<glyph unicode="c" horiz-adv-x="874" d="M205 416l55 286q20 103 54 180t87.5 135t132 88t181.5 30q59 0 105 -14t78 -39.5t51.5 -51t37.5 -59.5l-26 -17q-36 72 -95 110t-157 38q-94 0 -166 -29t-121 -84.5t-80 -127.5t-49 -167l-51 -270q-17 -77 -16 -142v-25q4 -75 30.5 -128.5t88 -83t155.5 -29.5 q93 0 165 31.5t144 106.5l22 -19q-71 -78 -150 -114.5t-187 -36.5q-304 0 -304 288q0 65 15 144z" />
<glyph unicode="d" d="M199 389l67 340q39 201 142 303.5t284 102.5q67 0 123.5 -17t95 -45.5t63.5 -56.5t42 -58l112 578h35l-243 -1253q-7 -33 -11 -55.5t-8 -50t-4.5 -45.5t0.5 -38t6.5 -32t14 -22.5t22 -15t31.5 -4.5q31 0 84 21l2 -31q-53 -22 -90 -22q-105 0 -105 132q0 18 2 38 q-169 -174 -389 -174q-177 0 -246 105q-44 67 -44 171q0 59 14 129zM236 397q-15 -75 -14 -135q0 -92 34 -150q57 -96 229 -96q109 0 210 53.5t175 135.5l138 710q-105 187 -314 187q-168 0 -263.5 -96.5t-131.5 -284.5z" />
<glyph unicode="e" horiz-adv-x="974" d="M190 242q-1 16 -2 34q0 65 17 140l55 286q20 105 52.5 181.5t85.5 134.5t131.5 87.5t183.5 29.5q101 0 167.5 -31t97 -87.5t36.5 -136.5l2 -36q0 -65 -17 -142l-30 -161h-705l-22 -117q-17 -77 -17 -142q0 -13 1 -25q4 -75 30.5 -128.5t88 -83t155.5 -29.5q85 0 177 27 t167 70l16 -29q-180 -100 -366 -100q-104 0 -172 32t-97 89t-35 137zM270 573h672l23 121q16 76 16 140q0 14 -1 27q-4 75 -29.5 128.5t-87 83t-156.5 29.5q-185 0 -280 -104.5t-134 -307.5z" />
<glyph unicode="f" horiz-adv-x="669" d="M184 -414l293 1499h-201l7 27l200 6l25 125q57 295 289 295q65 0 121 -27l-17 -28q-51 22 -110 22q-108 0 -165.5 -66t-80.5 -190l-25 -131h297l-6 -33h-299l-293 -1499h-35z" />
<glyph unicode="g" horiz-adv-x="1028" d="M100 -344l19 29q144 -82 317 -82q144 0 244.5 74t128.5 219l51 264q-171 -176 -389 -176q-177 0 -243 104q-43 67 -43 171q0 59 14 130l65 340q78 406 422 406q67 0 124.5 -17t97 -45.5t65 -56.5t43.5 -58l37 160h28l-237 -1218q-64 -330 -414 -330q-187 0 -330 86z M233 397q-14 -74 -14 -134q0 -93 35 -151q57 -96 229 -96q108 0 207 52.5t178 134.5l140 712q-48 82 -127 134.5t-187 52.5q-172 0 -266 -95.5t-131 -285.5z" />
<glyph unicode="h" horiz-adv-x="1099" d="M184 0l299 1536h35l-115 -584q42 34 74.5 56.5t93 56.5t131.5 52t146 18q149 -1 207 -83q40 -57 40 -138q0 -37 -8 -78l-161 -836h-35l158 807q10 50 10 92q0 77 -33 127q-51 76 -201 76q-62 0 -127.5 -18.5t-122.5 -49.5t-99 -59.5t-79 -59.5l-178 -915h-35z" />
<glyph unicode="i" horiz-adv-x="516" d="M256 1085l8 33h236l-162 -835q-7 -33 -11 -55.5t-8 -50t-4.5 -45.5t0.5 -38t6.5 -32t14 -22.5t22 -15t31.5 -4.5q31 0 84 21l2 -31q-53 -22 -90 -22q-105 0 -105 127q0 38 9 88l170 882h-203zM504 1389l12 69h66l-13 -69h-65z" />
<glyph unicode="j" horiz-adv-x="471" d="M-147 -395l14 30q67 -24 119 -24q104 0 158 65t79 191l238 1218h-203l8 33h236l-242 -1245q-15 -75 -32 -124t-47.5 -90.5t-79 -61t-119.5 -19.5q-33 0 -65 7t-48 13zM506 1389l14 69h66l-15 -69h-65z" />
<glyph unicode="k" horiz-adv-x="954" d="M184 0l299 1536h35l-178 -915h276l431 497h43l-445 -516l141 -418q15 -44 24.5 -67.5t25 -50t33.5 -37.5t42 -11q27 0 58 17l8 -25q-26 -22 -68 -22q-61 0 -88.5 37t-64.5 141l-144 420h-278l-115 -586h-35z" />
<glyph unicode="l" horiz-adv-x="452" d="M223 203l260 1333h35l-244 -1253q-12 -67 -18 -107q-4 -28 -4 -56v-24q2 -40 20.5 -58t53.5 -18q32 0 84 21l2 -31q-53 -22 -90 -22q-108 0 -108 129q0 37 9 86z" />
<glyph unicode="m" horiz-adv-x="1740" d="M184 0l217 1118h29l-27 -166q41 33 74.5 56t92.5 56.5t128 52t140 18.5q201 0 235 -162q211 162 416 162q150 -1 208 -83q40 -57 40 -138q0 -37 -8 -78l-162 -836h-35l158 807q10 50 10 92q0 76 -33 126q-51 77 -199 77q-188 0 -391 -158q1 -12 0 -23q0 -42 -8 -85 l-162 -836h-37l158 807q10 58 10 105q0 26 -3 50q-9 66 -64 103t-156 37q-194 0 -418 -187l-178 -915h-35z" />
<glyph unicode="n" horiz-adv-x="1097" d="M184 0l217 1118h29l-27 -166q45 36 74 56.5t90 55.5t131.5 53t147.5 18q146 0 206 -83q41 -58 41 -140q0 -36 -8 -76l-161 -836h-35l158 807q10 50 10 92q0 77 -33 127q-51 76 -201 76q-202 0 -426 -187l-178 -915h-35z" />
<glyph unicode="o" horiz-adv-x="987" d="M205 416l55 286q41 211 146.5 322t308.5 111q302 0 302 -288q0 -65 -16 -145l-55 -286q-20 -103 -52.5 -179t-85.5 -134.5t-132 -88.5t-184 -30q-303 0 -303 287q0 65 16 145zM226 257q4 -75 30.5 -128.5t87 -83t154.5 -29.5q97 0 169.5 28.5t120 84.5t77 127.5 t48.5 167.5l52 270q17 77 17 142q0 13 -1 25q-4 75 -30 128.5t-87 83t-155 29.5q-97 0 -169.5 -28.5t-120.5 -84.5t-77.5 -127.5t-48.5 -167.5l-51 -270q-17 -77 -17 -142q0 -13 1 -25z" />
<glyph unicode="p" horiz-adv-x="1048" d="M104 -414l297 1532h29l-24 -160q41 42 91.5 78t134.5 67.5t171 31.5q172 0 237 -105q41 -66 41 -169q0 -60 -14 -132l-66 -340q-78 -405 -421 -405q-67 0 -124.5 17t-97 45.5t-65 56t-43.5 57.5l-111 -574h-35zM260 203q46 -82 124.5 -134.5t186.5 -52.5q172 0 267 96 t131 285l63 324q14 74 14 134q0 93 -34 151q-58 96 -230 96q-108 0 -207 -52.5t-178 -134.5z" />
<glyph unicode="q" horiz-adv-x="1048" d="M199 389l67 340q81 406 422 406q67 0 124.5 -17t96.5 -45.5t64.5 -56.5t42.5 -58l37 160h28l-297 -1532h-34l112 574q-171 -176 -387 -176q-177 0 -246 105q-44 67 -44 171q0 59 14 129zM236 397q-15 -75 -15 -135q0 -93 35 -150q57 -96 229 -96q202 0 385 187l138 712 q-46 82 -125 134.5t-187 52.5q-172 0 -266 -95.5t-131 -285.5z" />
<glyph unicode="r" horiz-adv-x="720" d="M184 0l217 1118h29l-39 -231q29 37 66 73t94 79t132 69.5t153 26.5q40 0 75 -9l-12 -32q-36 8 -84 8q-119 0 -237 -81t-195 -181l-164 -840h-35z" />
<glyph unicode="s" horiz-adv-x="854" d="M111 86l22 27q132 -97 289 -97q103 0 179 25t119 69t63 98t20 118q0 66 -29 114.5t-75.5 77t-102.5 51t-112.5 44t-103 47.5t-75.5 70t-29 104q0 139 94.5 220t284.5 81q158 0 269 -84l-23 -27q-99 80 -246 80q-82 0 -145 -18t-99 -45.5t-59 -64.5t-31 -70t-8 -68 q0 -54 29 -94t75.5 -64.5t102.5 -45.5t112.5 -44.5t103 -53.5t75.5 -80.5t29 -117.5q0 -354 -424 -354q-88 0 -170.5 26.5t-134.5 75.5z" />
<glyph unicode="t" horiz-adv-x="741" d="M274 1085l7 27l202 6l47 238l35 6l-47 -244h299l-6 -33h-299l-156 -802q-9 -44 -13 -73t-4 -61.5t8.5 -52t25.5 -37t47.5 -25t73.5 -7.5q68 0 129 22l2 -29q-63 -26 -140 -26q-128 0 -161 68q-18 37 -18 96q0 51 13 118l158 809h-203z" />
<glyph unicode="u" horiz-adv-x="1089" d="M229 283l162 835h37l-158 -807q-10 -52 -11 -94q0 -77 34 -125q52 -76 203 -76q200 0 424 187l178 915h35l-218 -1118h-28l26 166q-43 -34 -74.5 -56t-91 -56t-129.5 -52t-145 -18q-147 0 -209 84q-43 59 -43 141q0 35 8 74z" />
<glyph unicode="v" horiz-adv-x="927" d="M281 1118h36l156 -1069l569 1069h41l-600 -1118h-37z" />
<glyph unicode="w" horiz-adv-x="1409" d="M281 1118h36l95 -1069l489 1069h35l74 -1069l508 1069h41l-539 -1118h-39l-76 1047l-481 -1047h-39z" />
<glyph unicode="x" horiz-adv-x="886" d="M72 0l456 580l-223 538h39l211 -516l412 516h45l-437 -547l236 -571h-39l-223 549l-432 -549h-45z" />
<glyph unicode="y" horiz-adv-x="1089" d="M152 -344l18 29q144 -82 317 -82q144 0 244.5 74t128.5 219l53 270q-43 -34 -74.5 -56t-91 -56t-129.5 -52t-145 -18q-147 0 -209 84q-43 58 -43 141q0 35 8 74l162 835h37l-158 -807q-10 -52 -10 -94q0 -77 33 -125q52 -76 203 -76q200 0 424 187l178 915h35l-238 -1218 q-64 -330 -414 -330q-186 0 -329 86z" />
<glyph unicode="z" horiz-adv-x="927" d="M92 0l4 25l897 1060h-671l6 33h723l-4 -24l-895 -1061h688l-6 -33h-742z" />
<glyph unicode="{" horiz-adv-x="643" d="M209 623l6 32h39q76 0 118.5 60.5t69.5 195.5l78 396q40 206 225 206h74l-8 -32h-74q-145 0 -182 -178l-78 -392q-25 -124 -60 -188t-98 -82l-2 -8q57 -24 69 -94.5t-13 -173.5l-78 -392q-20 -103 12.5 -140.5t102.5 -37.5h73l-6 -33h-74q-183 0 -143 207l78 396 q28 131 7 194.5t-97 63.5h-39z" />
<glyph unicode="|" horiz-adv-x="409" d="M139 -238l353 1809h34l-352 -1809h-35z" />
<glyph unicode="}" horiz-adv-x="643" d="M72 -238l6 33h74q70 0 117 37.5t67 140.5l76 392q24 122 59 186t96 84l2 8q-50 25 -62 88t11 180l76 392q20 103 -12.5 140.5t-102.5 37.5h-73l6 32h73q186 0 146 -206l-78 -396q-28 -131 -7.5 -193.5t97.5 -62.5h39l-6 -32h-39q-76 0 -121 -62.5t-70 -195.5l-75 -396 q-40 -207 -226 -207h-73z" />
<glyph unicode="&#xa1;" horiz-adv-x="399" d="M117 -324l227 1143h27l-215 -1143h-39zM371 1036l14 74h61l-14 -74h-61z" />
<glyph unicode="&#xa2;" horiz-adv-x="839" d="M203 537l67 348q39 202 140.5 301t291.5 100l29 148h35l-29 -150q150 -7 277 -113l-21 -26q-130 108 -291 108q-179 0 -270.5 -92.5t-128.5 -283.5l-63 -332q-37 -192 18 -284.5t234 -92.5q156 0 325 106l19 -24q-166 -105 -322 -115l-27 -135h-34l26 135 q-185 0 -250 100.5t-26 301.5z" />
<glyph unicode="&#xa3;" horiz-adv-x="1058" d="M115 0q0 4 6 31q46 19 94 59t95.5 101t77.5 152t30 194q0 81 -10 194h-183l6 27l177 6q-13 143 -13 199q0 127 40.5 223t110 150.5t152.5 81t179 26.5q108 0 183.5 -27t143.5 -74l-18 -28q-138 96 -316 96q-84 0 -158 -23t-140 -73t-105 -142t-39 -217q0 -73 14 -192h467 l-8 -33h-459q7 -96 7 -188q0 -97 -24.5 -184t-65.5 -149.5t-85.5 -106t-91.5 -70.5h789l-6 -33h-850z" />
<glyph unicode="&#xa4;" horiz-adv-x="1175" d="M166 225l213 181q-53 80 -53 192q0 215 153 356l-137 172l31 25l137 -172q119 90 283 90q153 0 241 -94l215 176l23 -25l-219 -180q57 -80 57 -196q0 -102 -40 -194.5t-112 -160.5l138 -170l-31 -24l-139 168q-110 -86 -285 -86q-152 0 -240 98l-213 -180zM360 604 q0 -133 79 -210t210 -77q177 0 301.5 120t124.5 311q0 133 -78 209.5t-209 76.5q-177 0 -302.5 -119.5t-125.5 -310.5z" />
<glyph unicode="&#xa5;" horiz-adv-x="1087" d="M242 360l6 33h354l37 193h-354l6 32h342l-293 816h41l283 -797l598 797h43l-613 -816h340l-6 -32h-352l-37 -193h352l-6 -33h-352l-70 -360h-35l70 360h-354z" />
<glyph unicode="&#xa6;" horiz-adv-x="407" d="M139 -238l162 828h35l-162 -828h-35zM330 743l162 828h34l-161 -828h-35z" />
<glyph unicode="&#xa7;" horiz-adv-x="966" d="M55 -317l21 26q60 -48 135.5 -74t191.5 -26q196 0 305 90.5t109 263.5q0 68 -34 117t-88 77t-119.5 50.5t-131 45.5t-119.5 53.5t-88 84.5t-34 129q0 224 203 344q-93 66 -93 191q0 188 117 291.5t338 103.5q123 0 201 -29t141 -78l-20 -26q-64 49 -136 74.5t-192 25.5 q-196 0 -305 -90.5t-109 -263.5q0 -68 34 -117t88 -77t119 -50.5t130.5 -45.5t119.5 -53.5t88 -84.5t34 -129q0 -40 -7 -80t-26 -89.5t-61 -96.5t-103 -82q86 -69 86 -189q0 -188 -113.5 -290.5t-339.5 -102.5q-219 0 -342 107zM240 528q0 -71 33 -121t90.5 -79.5t117.5 -50 t133.5 -46t118.5 -53.5q57 31 97.5 74t60 88t27.5 83t8 75q0 70 -32 120t-89 79.5t-116 49.5t-132.5 45t-118.5 50q-101 -54 -149.5 -136.5t-48.5 -177.5z" />
<glyph unicode="&#xa8;" horiz-adv-x="792" d="M473 1368l14 70h66l-14 -70h-66zM786 1368l15 70h65l-14 -70h-66z" />
<glyph unicode="&#xa9;" horiz-adv-x="1624" d="M174 608q0 212 66.5 391.5t187 308t298 201t392.5 72.5q306 0 470.5 -167t164.5 -458q0 -211 -66.5 -390.5t-187 -308t-298 -201t-392.5 -72.5q-306 0 -470.5 166.5t-164.5 457.5zM209 614q0 -278 157 -438t449 -160q205 0 375 70t285.5 193.5t179 296t63.5 374.5 q0 278 -157 438t-449 160q-205 0 -375 -70t-285.5 -193.5t-179 -296t-63.5 -374.5zM643 662l43 219q33 167 118.5 255.5t244.5 88.5q150 0 215 -133l-29 -19q-54 117 -195 117q-142 0 -216.5 -81.5t-104.5 -234.5l-39 -206q-17 -96 -9 -166.5t60 -110t148 -39.5 q76 0 131.5 29t107.5 86l23 -21q-113 -129 -269 -129q-149 0 -205 91.5t-24 253.5z" />
<glyph unicode="&#xaa;" horiz-adv-x="854" d="M270 958l45 220q27 136 94.5 203t188.5 67q140 0 221 -117l27 107h24l-108 -557q-10 -45 -14 -70.5t-3 -50.5t13.5 -36t36.5 -11q29 0 57 14l2 -27q-40 -16 -61 -16q-84 0 -74 111q-118 -113 -258 -113q-119 0 -168.5 73t-22.5 203zM301 965q-51 -254 166 -254 q70 0 136.5 35t117.5 88l90 456q-70 129 -213 129q-110 0 -168 -58t-86 -190z" />
<glyph unicode="&#xab;" horiz-adv-x="1019" d="M203 598l6 29l522 352l-8 -45l-469 -324l342 -325l-6 -39zM596 598l6 29l522 352l-8 -45l-469 -324l342 -325l-6 -39z" />
<glyph unicode="&#xac;" horiz-adv-x="1026" d="M150 664l6 34h985l-99 -512h-36l92 478h-948z" />
<glyph unicode="&#xad;" horiz-adv-x="710" d="M217 631l6 31h522l-6 -31h-522z" />
<glyph unicode="&#xae;" horiz-adv-x="1019" d="M252 915q0 237 147.5 386t388.5 149q173 0 272 -95.5t99 -258.5q0 -236 -148 -385.5t-388 -149.5q-173 0 -272 95.5t-99 258.5zM287 920q0 -152 88 -240t250 -88q225 0 362 140.5t137 359.5q0 152 -88 239.5t-250 87.5q-226 0 -362.5 -139.5t-136.5 -359.5zM510 737 l104 541h148q69 0 103 -36t34 -91q0 -98 -50 -146t-118 -55l72 -213h-37l-68 211h-114l-41 -211h-33zM590 977h115q72 0 116.5 46t44.5 128q0 98 -112 98h-111z" />
<glyph unicode="&#xaf;" horiz-adv-x="677" d="M379 1436l6 32h477l-6 -32h-477z" />
<glyph unicode="&#xb0;" horiz-adv-x="593" d="M274 1200q0 122 87 209.5t223 87.5q100 0 159.5 -60.5t59.5 -150.5q0 -122 -86.5 -209.5t-222.5 -87.5q-100 0 -160 60.5t-60 150.5zM309 1204q0 -81 50.5 -132.5t136.5 -51.5q115 0 193.5 77t78.5 185q0 81 -50 132.5t-136 51.5q-116 0 -194.5 -77t-78.5 -185z" />
<glyph unicode="&#xb1;" horiz-adv-x="940" d="M27 29l6 34h899l-6 -34h-899zM135 588l6 35h432l89 448h34l-88 -448h432l-6 -35h-432l-86 -447h-35l86 447h-432z" />
<glyph unicode="&#xb2;" horiz-adv-x="837" d="M262 502l14 78q12 66 52 126t94.5 104.5t117.5 86.5t124 81.5t110.5 79.5t80 89t30.5 102q0 76 -51.5 119t-159.5 43q-119 0 -238 -82l-14 29q138 86 260 86q112 0 174 -51.5t62 -132.5q0 -62 -30.5 -117.5t-80.5 -98.5t-111 -84t-124.5 -82.5t-117.5 -84t-94 -97.5 t-51 -116l-8 -45h485l-6 -33h-518z" />
<glyph unicode="&#xb3;" horiz-adv-x="837" d="M248 575l24 27q95 -80 211 -80q81 0 141 19.5t92 47.5t51.5 67.5t24.5 71t5 67.5q0 93 -59.5 132.5t-168.5 39.5h-84l7 32h83q60 0 108.5 15.5t78.5 40t50 57t28 65t8 66.5q0 86 -52 127t-141 41q-102 0 -225 -78l-18 27q122 84 252 84q99 0 159 -48.5t60 -148.5 q0 -99 -52.5 -170t-150.5 -94q27 -4 50.5 -14.5t47 -30t37.5 -55t14 -82.5q0 -28 -1.5 -50t-9 -56t-21 -60t-40 -55t-62 -47.5t-91.5 -31t-125 -12.5q-139 0 -231 86z" />
<glyph unicode="&#xb4;" horiz-adv-x="757" d="M545 1274l186 325h45l-203 -325h-28z" />
<glyph unicode="&#xb5;" horiz-adv-x="1089" d="M94 -414l297 1532h35l-160 -821q-26 -131 30 -206t200 -75q196 0 426 187l176 915h35l-218 -1118h-28l26 166q-41 -33 -74.5 -56t-93 -56.5t-129.5 -51.5t-143 -18q-95 0 -156 37t-81 110l-107 -545h-35z" />
<glyph unicode="&#xb6;" horiz-adv-x="1028" d="M250 956q0 96 34.5 182t97.5 152t158.5 105t209.5 39h499l-8 -33h-115l-352 -1815h-35l353 1815h-230l-352 -1815h-35l205 1057h-113q-148 0 -232.5 84.5t-84.5 228.5z" />
<glyph unicode="&#xb7;" horiz-adv-x="376" d="M274 598l15 74h61l-14 -74h-62z" />
<glyph unicode="&#xb8;" horiz-adv-x="770" d="M164 -379l14 29q62 -21 119 -21q88 0 118.5 30.5t30.5 96.5q0 70 -102 70q-40 0 -78 -10l-18 14l76 195h32l-69 -177q30 9 65 9q131 0 131 -99q0 -75 -41 -118t-149 -43q-69 0 -129 24z" />
<glyph unicode="&#xb9;" horiz-adv-x="837" d="M311 502l6 33h242l168 862l-311 -123l-6 29l329 131h27l-174 -899h186l-6 -33h-461z" />
<glyph unicode="&#xba;" horiz-adv-x="688" d="M285 971l37 188q28 140 98.5 214.5t200.5 74.5q253 0 196 -289l-37 -188q-28 -140 -99.5 -214.5t-201.5 -74.5q-251 0 -194 289zM305.5 839.5q4.5 -58.5 48 -92.5t127.5 -34q119 0 181.5 68.5t87.5 195.5l34 176q14 79 9.5 137.5t-48 92.5t-127.5 34q-119 0 -181 -68.5 t-87 -195.5l-35 -176q-14 -79 -9.5 -137.5z" />
<glyph unicode="&#xbb;" horiz-adv-x="1019" d="M133 246l8 45l469 325l-342 324l6 39l388 -352l-7 -29zM526 246l9 45l469 325l-342 324l6 39l387 -352l-6 -29z" />
<glyph unicode="&#xbc;" horiz-adv-x="1947" d="M311 502l6 33h242l168 862l-311 -123l-6 29l329 131h27l-174 -899h186l-6 -33h-461zM707 -162l860 1757h35l-861 -1757h-34zM1231 219l6 25l432 688h39l-424 -680h391l66 338h33l-66 -338h129l-6 -33h-129l-43 -219h-33l43 219h-438z" />
<glyph unicode="&#xbd;" horiz-adv-x="1947" d="M311 502l6 33h242l168 862l-311 -123l-6 29l329 131h27l-174 -899h186l-6 -33h-461zM707 -162l860 1757h35l-861 -1757h-34zM1266 0l14 78q12 66 52 126t94.5 105t117.5 87t123.5 81.5t110 79t80 89t30.5 102.5q0 76 -51.5 118.5t-159.5 42.5q-118 0 -237 -82l-15 29 q138 86 261 86q112 0 173.5 -51.5t61.5 -132.5q0 -62 -30.5 -117.5t-80.5 -98.5t-111 -84t-124 -82.5t-117 -84t-94 -97.5t-51 -116l-8 -45h485l-6 -33h-518z" />
<glyph unicode="&#xbe;" horiz-adv-x="1947" d="M248 575l24 27q95 -80 211 -80q81 0 141 19.5t92 47.5t51.5 67.5t24.5 71t5 67.5q0 93 -59.5 132.5t-168.5 39.5h-84l7 32h83q60 0 108.5 15.5t78.5 40t50 57t28 65t8 66.5q0 86 -52 127t-141 41q-102 0 -225 -78l-18 27q122 84 252 84q99 0 159 -48.5t60 -148.5 q0 -99 -52.5 -170t-150.5 -94q27 -4 50.5 -14.5t47 -30t37.5 -55t14 -82.5q0 -28 -1.5 -50t-9 -56t-21 -60t-40 -55t-62 -47.5t-91.5 -31t-125 -12.5q-139 0 -231 86zM707 -162l860 1757h35l-861 -1757h-34zM1231 219l6 25l432 688h39l-424 -680h391l66 338h33l-66 -338h129 l-6 -33h-129l-43 -219h-33l43 219h-438z" />
<glyph unicode="&#xbf;" horiz-adv-x="931" d="M72 -82q0 78 18 141t49.5 106t72.5 78t87.5 62t94 52t93.5 54t84 63t66.5 83.5t40.5 110.5l29 145h34l-28 -145q-13 -66 -42.5 -119t-67.5 -89.5t-84 -67.5t-93 -56.5t-93.5 -52t-87.5 -59t-72 -72t-49 -97.5t-18 -129q0 -114 79.5 -173.5t224.5 -59.5q201 0 383 110 l16 -26q-197 -117 -406 -117q-157 0 -244 68t-87 190zM731 1036l14 74h62l-14 -74h-62z" />
<glyph unicode="&#xc0;" horiz-adv-x="1138" d="M72 0l757 1434h33l205 -1434h-39l-65 479h-598l-250 -479h-43zM385 514h573l-120 862zM784 1907h43l60 -326h-27z" />
<glyph unicode="&#xc1;" horiz-adv-x="1138" d="M72 0l757 1434h33l205 -1434h-39l-65 479h-598l-250 -479h-43zM385 514h573l-120 862zM844 1581l186 326h45l-203 -326h-28z" />
<glyph unicode="&#xc2;" horiz-adv-x="1138" d="M72 0l757 1434h33l205 -1434h-39l-65 479h-598l-250 -479h-43zM385 514h573l-120 862zM614 1581l312 326h28l185 -326h-33l-170 283l-283 -283h-39z" />
<glyph unicode="&#xc3;" horiz-adv-x="1138" d="M72 0l757 1434h33l205 -1434h-39l-65 479h-598l-250 -479h-43zM385 514h573l-120 862zM598 1667q52 67 91.5 94t88.5 27q37 0 71 -18.5t56 -41t56 -41t71 -18.5q44 0 77.5 27t74.5 80l22 -21q-47 -66 -88.5 -93.5t-91.5 -27.5q-35 0 -65 12.5t-51.5 30t-41.5 34.5 t-44 29.5t-50 12.5q-45 0 -77 -25.5t-76 -80.5z" />
<glyph unicode="&#xc4;" horiz-adv-x="1138" d="M72 0l757 1434h33l205 -1434h-39l-65 479h-598l-250 -479h-43zM385 514h573l-120 862zM705 1675l14 70h65l-14 -70h-65zM1018 1675l14 70h66l-15 -70h-65z" />
<glyph unicode="&#xc5;" horiz-adv-x="1138" d="M72 0l757 1434h33l205 -1434h-39l-65 479h-598l-250 -479h-43zM385 514h573l-120 862zM709 1702q0 105 63 167t168 62q76 0 121 -40.5t45 -112.5q0 -106 -64 -167t-168 -61q-76 0 -120.5 40.5t-44.5 111.5zM737 1706q0 -61 36 -94t104 -33q94 0 147 53.5t53 143.5 q0 61 -35.5 94t-103.5 33q-93 0 -147 -53.5t-54 -143.5z" />
<glyph unicode="&#xc6;" horiz-adv-x="1583" d="M72 0l755 1434h914l-6 -33h-869l88 -633h625l-6 -33h-612l96 -702h411l-6 -33h-438l-68 479h-594l-249 -479h-41zM383 512h571l-118 864z" />
<glyph unicode="&#xc7;" horiz-adv-x="1120" d="M242 453l102 528q92 469 514 469q56 0 103 -10.5t79.5 -25t60 -40.5t42.5 -45.5t30 -52t20.5 -49t14.5 -45.5l-30 -15q-13 45 -24 73.5t-36 65.5t-57 58.5t-85.5 37t-123.5 15.5q-390 0 -475 -446l-98 -508q-21 -101 -14.5 -183t38.5 -141t102 -91t175 -32 q68 0 127.5 15.5t101.5 38t80 57t62 65t48 68.5l29 -14q-19 -30 -27.5 -42.5t-34 -45.5t-46 -50.5t-57.5 -44t-74.5 -41t-90.5 -26t-112 -12.5l-54 -136q30 9 66 9q131 0 131 -99q0 -75 -41 -118t-149 -43q-69 0 -129 24l14 29q61 -21 119 -21q88 0 118.5 30.5t30.5 96.5 q0 70 -102 70q-40 0 -78 -10l-18 14l59 154q-403 11 -311 469z" />
<glyph unicode="&#xc8;" horiz-adv-x="1007" d="M205 0l278 1434h682l-6 -33h-647l-123 -633h615l-7 -33h-614l-137 -702h647l-6 -33h-682zM803 1907h43l59 -326h-26z" />
<glyph unicode="&#xc9;" horiz-adv-x="1007" d="M205 0l278 1434h682l-6 -33h-647l-123 -633h615l-7 -33h-614l-137 -702h647l-6 -33h-682zM819 1581l187 326h45l-203 -326h-29z" />
<glyph unicode="&#xca;" horiz-adv-x="1007" d="M205 0l278 1434h682l-6 -33h-647l-123 -633h615l-7 -33h-614l-137 -702h647l-6 -33h-682zM596 1581l311 326h29l184 -326h-33l-169 283l-283 -283h-39z" />
<glyph unicode="&#xcb;" horiz-adv-x="1007" d="M205 0l278 1434h682l-6 -33h-647l-123 -633h615l-7 -33h-614l-137 -702h647l-6 -33h-682zM680 1675l14 70h66l-15 -70h-65zM993 1675l15 70h65l-14 -70h-66z" />
<glyph unicode="&#xcc;" horiz-adv-x="444" d="M205 0l278 1434h35l-278 -1434h-35zM465 1907h43l59 -326h-26z" />
<glyph unicode="&#xcd;" horiz-adv-x="444" d="M205 0l278 1434h35l-278 -1434h-35zM496 1581l186 326h45l-203 -326h-28z" />
<glyph unicode="&#xce;" horiz-adv-x="444" d="M205 0l278 1434h35l-278 -1434h-35zM270 1581l312 326h28l185 -326h-33l-170 283l-283 -283h-39z" />
<glyph unicode="&#xcf;" horiz-adv-x="444" d="M205 0l278 1434h35l-278 -1434h-35zM360 1675l15 70h65l-14 -70h-66zM674 1675l14 70h66l-15 -70h-65z" />
<glyph unicode="&#xd0;" horiz-adv-x="1204" d="M205 0l137 713h-123l6 30h123l135 691h344q213 0 320.5 -125.5t107.5 -366.5q0 -148 -25 -283.5t-80 -256.5t-135 -209.5t-197 -140.5t-259 -52h-354zM246 33h309q135 0 247 50.5t188 136.5t128.5 202t76.5 244.5t24 267.5q0 467 -398 467h-309l-129 -658h405l-6 -30 h-405z" />
<glyph unicode="&#xd1;" horiz-adv-x="1269" d="M195 0l278 1434h25l555 -1362l264 1362h37l-279 -1434h-31l-552 1354l-263 -1354h-34zM664 1667q52 67 91.5 94t88.5 27q37 0 71 -18.5t56 -41t56 -41t71 -18.5q24 0 44.5 8t40.5 26t32.5 32.5t33.5 40.5l23 -21q-47 -66 -88.5 -93.5t-91.5 -27.5q-35 0 -65 12.5 t-51.5 30t-41.5 34.5t-44 29.5t-50 12.5q-45 0 -78 -26t-76 -80z" />
<glyph unicode="&#xd2;" horiz-adv-x="1167" d="M231 263q-10 87 13 192l102 526q21 109 60 192.5t100.5 147t152 96.5t207.5 33q219 0 301 -124.5t39 -344.5l-102 -526q-92 -471 -522 -471q-111 0 -188 34t-115 96t-48 149zM281 465q-85 -449 307 -449q394 0 483 449l98 506q85 446 -309 446q-396 0 -481 -446z M825 1907h43l60 -326h-27z" />
<glyph unicode="&#xd3;" horiz-adv-x="1167" d="M231 263q-10 87 13 192l102 526q21 109 60 192.5t100.5 147t152 96.5t207.5 33q219 0 301 -124.5t39 -344.5l-102 -526q-92 -471 -522 -471q-111 0 -188 34t-115 96t-48 149zM281 465q-85 -449 307 -449q394 0 483 449l98 506q85 446 -309 446q-396 0 -481 -446z M823 1581l187 326h45l-203 -326h-29z" />
<glyph unicode="&#xd4;" horiz-adv-x="1167" d="M231 263q-10 87 13 192l102 526q21 109 60 192.5t100.5 147t152 96.5t207.5 33q219 0 301 -124.5t39 -344.5l-102 -526q-92 -471 -522 -471q-111 0 -188 34t-115 96t-48 149zM281 465q-85 -449 307 -449q394 0 483 449l98 506q85 446 -309 446q-396 0 -481 -446z M633 1581l311 326h29l184 -326h-33l-170 283l-282 -283h-39z" />
<glyph unicode="&#xd5;" horiz-adv-x="1167" d="M231 263q-10 87 13 192l102 526q21 109 60 192.5t100.5 147t152 96.5t207.5 33q219 0 301 -124.5t39 -344.5l-102 -526q-92 -471 -522 -471q-111 0 -188 34t-115 96t-48 149zM281 465q-85 -449 307 -449q394 0 483 449l98 506q85 446 -309 446q-396 0 -481 -446z M612 1667q52 67 92 94t89 27q37 0 71 -18.5t56 -41t56 -41t71 -18.5q24 0 44.5 8t40.5 26t32.5 32.5t33.5 40.5l23 -21q-47 -65 -89 -93t-92 -28q-35 0 -65 12.5t-51.5 30t-41.5 34.5t-44 29.5t-50 12.5q-45 0 -77 -25.5t-76 -80.5z" />
<glyph unicode="&#xd6;" horiz-adv-x="1167" d="M231 263q-10 87 13 192l102 526q21 109 60 192.5t100.5 147t152 96.5t207.5 33q219 0 301 -124.5t39 -344.5l-102 -526q-92 -471 -522 -471q-111 0 -188 34t-115 96t-48 149zM281 465q-85 -449 307 -449q394 0 483 449l98 506q85 446 -309 446q-396 0 -481 -446z M719 1675l14 70h66l-15 -70h-65zM1032 1675l15 70h65l-14 -70h-66z" />
<glyph unicode="&#xd7;" horiz-adv-x="968" d="M193 295l382 317l-256 314l25 22l256 -315l381 315l20 -24l-380 -316l258 -313l-25 -23l-258 316l-383 -318z" />
<glyph unicode="&#xd8;" horiz-adv-x="1167" d="M238 -74l81 137q-131 119 -75 392l102 526q21 109 60 192.5t100.5 147t152 96.5t207.5 33q147 0 236 -61l69 118h35l-80 -137q133 -115 80 -389l-102 -526q-92 -471 -522 -471q-151 0 -240 61l-70 -119h-34zM281 465q-50 -258 59 -367l743 1260q-80 59 -223 59 q-396 0 -481 -446zM362 78q81 -62 226 -62q394 0 483 449l98 506q49 258 -63 368z" />
<glyph unicode="&#xd9;" horiz-adv-x="1159" d="M238 428l194 1006h35l-193 -996q-41 -209 30.5 -315.5t279.5 -106.5q209 0 320 106t153 316l192 996h35l-194 -1006q-21 -110 -57.5 -189t-95.5 -138t-148 -88t-209 -29q-429 0 -342 444zM821 1907h43l60 -326h-27z" />
<glyph unicode="&#xda;" horiz-adv-x="1159" d="M238 428l194 1006h35l-193 -996q-41 -209 30.5 -315.5t279.5 -106.5q209 0 320 106t153 316l192 996h35l-194 -1006q-21 -110 -57.5 -189t-95.5 -138t-148 -88t-209 -29q-429 0 -342 444zM821 1581l187 326h45l-203 -326h-29z" />
<glyph unicode="&#xdb;" horiz-adv-x="1159" d="M238 428l194 1006h35l-193 -996q-41 -209 30.5 -315.5t279.5 -106.5q209 0 320 106t153 316l192 996h35l-194 -1006q-21 -110 -57.5 -189t-95.5 -138t-148 -88t-209 -29q-429 0 -342 444zM633 1581l311 326h29l184 -326h-33l-170 283l-282 -283h-39z" />
<glyph unicode="&#xdc;" horiz-adv-x="1159" d="M238 428l194 1006h35l-193 -996q-41 -209 30.5 -315.5t279.5 -106.5q209 0 320 106t153 316l192 996h35l-194 -1006q-21 -110 -57.5 -189t-95.5 -138t-148 -88t-209 -29q-429 0 -342 444zM715 1675l14 70h66l-15 -70h-65zM1028 1675l14 70h66l-14 -70h-66z" />
<glyph unicode="&#xdd;" horiz-adv-x="1120" d="M340 1434h39l285 -799l598 799h43l-629 -838l-115 -596h-35l115 596zM827 1581l187 326h45l-203 -326h-29z" />
<glyph unicode="&#xde;" horiz-adv-x="1079" d="M205 0l278 1434h35l-47 -248h283q108 0 186 -23.5t122.5 -67t64.5 -97t20 -121.5q0 -521 -555 -521h-283l-69 -356h-35zM315 389h283q512 0 512 479q0 63 -17.5 112.5t-57.5 89.5t-113 61.5t-177 21.5h-282z" />
<glyph unicode="&#xdf;" horiz-adv-x="1140" d="M104 -414l318 1641q27 142 134.5 226.5t281.5 84.5q156 0 234.5 -66.5t78.5 -181.5q0 -294 -260 -354q248 -58 188 -377l-30 -164q-35 -181 -146 -288t-305 -107h-227l6 33h227q94 0 166.5 27t120.5 78t77.5 116t45.5 149l28 148q72 367 -272 367h-149l6 32h149 q41 0 81.5 7t89 28.5t84.5 57t60.5 98.5t24.5 145q0 219 -285 219q-153 0 -250.5 -75.5t-121.5 -196.5l-320 -1647h-35z" />
<glyph unicode="&#xe0;" d="M199 389l67 340q40 203 138 304.5t278 101.5q215 0 334 -177l39 160h26l-161 -835q-7 -33 -11 -55.5t-8 -50t-4.5 -45.5t0.5 -38t6.5 -32t14 -22.5t22 -15t31.5 -4.5q31 0 84 21l2 -31q-53 -22 -90 -22q-119 0 -103 166q-70 -68 -169 -119t-220 -51q-177 0 -246 105 t-30 300zM236 397q-37 -190 20 -285.5t229 -95.5q202 0 385 187l138 712q-41 74 -126.5 130.5t-197.5 56.5q-166 0 -257 -95.5t-128 -285.5zM709 1599h43l59 -325h-27z" />
<glyph unicode="&#xe1;" d="M199 389l67 340q40 203 138 304.5t278 101.5q215 0 334 -177l39 160h26l-161 -835q-7 -33 -11 -55.5t-8 -50t-4.5 -45.5t0.5 -38t6.5 -32t14 -22.5t22 -15t31.5 -4.5q31 0 84 21l2 -31q-53 -22 -90 -22q-119 0 -103 166q-70 -68 -169 -119t-220 -51q-177 0 -246 105 t-30 300zM236 397q-37 -190 20 -285.5t229 -95.5q202 0 385 187l138 712q-41 74 -126.5 130.5t-197.5 56.5q-166 0 -257 -95.5t-128 -285.5zM721 1274l186 325h45l-202 -325h-29z" />
<glyph unicode="&#xe2;" d="M199 389l67 340q40 203 138 304.5t278 101.5q215 0 334 -177l39 160h26l-161 -835q-7 -33 -11 -55.5t-8 -50t-4.5 -45.5t0.5 -38t6.5 -32t14 -22.5t22 -15t31.5 -4.5q31 0 84 21l2 -31q-53 -22 -90 -22q-119 0 -103 166q-70 -68 -169 -119t-220 -51q-177 0 -246 105 t-30 300zM236 397q-37 -190 20 -285.5t229 -95.5q202 0 385 187l138 712q-41 74 -126.5 130.5t-197.5 56.5q-166 0 -257 -95.5t-128 -285.5zM504 1274l311 325h29l184 -325h-33l-170 282l-282 -282h-39z" />
<glyph unicode="&#xe3;" d="M199 389l67 340q40 203 138 304.5t278 101.5q215 0 334 -177l39 160h26l-161 -835q-7 -33 -11 -55.5t-8 -50t-4.5 -45.5t0.5 -38t6.5 -32t14 -22.5t22 -15t31.5 -4.5q31 0 84 21l2 -31q-53 -22 -90 -22q-119 0 -103 166q-70 -68 -169 -119t-220 -51q-177 0 -246 105 t-30 300zM236 397q-37 -190 20 -285.5t229 -95.5q202 0 385 187l138 712q-41 74 -126.5 130.5t-197.5 56.5q-166 0 -257 -95.5t-128 -285.5zM481 1360q52 67 92 94t89 27q31 0 58 -12.5t47.5 -29.5t41.5 -34.5t48 -30t58 -12.5q44 0 77.5 27t74.5 79l23 -20q-47 -65 -89 -93 t-92 -28q-35 0 -65 12.5t-51.5 29.5t-41.5 34.5t-44 30t-50 12.5q-45 0 -77 -26t-76 -81z" />
<glyph unicode="&#xe4;" d="M199 389l67 340q40 203 138 304.5t278 101.5q215 0 334 -177l39 160h26l-161 -835q-7 -33 -11 -55.5t-8 -50t-4.5 -45.5t0.5 -38t6.5 -32t14 -22.5t22 -15t31.5 -4.5q31 0 84 21l2 -31q-53 -22 -90 -22q-119 0 -103 166q-70 -68 -169 -119t-220 -51q-177 0 -246 105 t-30 300zM236 397q-37 -190 20 -285.5t229 -95.5q202 0 385 187l138 712q-41 74 -126.5 130.5t-197.5 56.5q-166 0 -257 -95.5t-128 -285.5zM612 1368l15 70h65l-14 -70h-66zM926 1368l14 70h66l-15 -70h-65z" />
<glyph unicode="&#xe5;" d="M199 389l67 340q40 203 138 304.5t278 101.5q215 0 334 -177l39 160h26l-161 -835q-7 -33 -11 -55.5t-8 -50t-4.5 -45.5t0.5 -38t6.5 -32t14 -22.5t22 -15t31.5 -4.5q31 0 84 21l2 -31q-53 -22 -90 -22q-119 0 -103 166q-70 -68 -169 -119t-220 -51q-177 0 -246 105 t-30 300zM236 397q-37 -190 20 -285.5t229 -95.5q202 0 385 187l138 712q-41 74 -126.5 130.5t-197.5 56.5q-166 0 -257 -95.5t-128 -285.5zM608 1395q0 105 63.5 167t168.5 62q76 0 121 -40.5t45 -113.5q0 -106 -64 -166.5t-168 -60.5q-76 0 -121 40.5t-45 111.5zM637 1399 q0 -61 35.5 -94t103.5 -33q94 0 147.5 53t53.5 143q0 61 -35.5 94t-103.5 33q-93 0 -147 -53t-54 -143z" />
<glyph unicode="&#xe6;" horiz-adv-x="1677" d="M174 236q0 122 60 213.5t169 146t248.5 80.5t311.5 26l20 107q29 148 -39 220.5t-219 72.5q-156 0 -334 -90l-12 30q186 93 352 93q292 0 295 -234q116 234 385 234q101 0 168 -31t98.5 -87.5t38 -136.5t-13.5 -178l-31 -161h-706l-23 -117q-20 -92 -15.5 -167t31 -128.5 t88.5 -83t156 -29.5q177 0 346 97l13 -29q-184 -100 -365 -100q-149 0 -221.5 67t-81.5 197q-58 -116 -167.5 -190t-254.5 -74q-142 0 -219.5 69t-77.5 183zM209 240q0 -103 72.5 -163.5t203.5 -60.5q153 0 267.5 99.5t140.5 234.5l61 320q-161 0 -294 -25t-235.5 -76 t-159 -134.5t-56.5 -194.5zM971 573h674l22 121q19 92 15 167t-29.5 128.5t-87 83t-156.5 29.5q-181 0 -278.5 -106t-135.5 -302z" />
<glyph unicode="&#xe7;" horiz-adv-x="874" d="M205 416l55 286q20 103 54 180t87.5 135t132 88t181.5 30q59 0 105 -14t78 -39.5t51.5 -51t37.5 -59.5l-26 -17q-36 72 -95 110t-157 38q-94 0 -166 -29t-121 -84.5t-80 -127.5t-49 -167l-51 -270q-20 -92 -16 -167t30.5 -128.5t88 -83t155.5 -29.5q93 0 165 31.5 t144 106.5l22 -19q-71 -78 -150.5 -114.5t-191.5 -36.5l-53 -136q30 9 66 9q131 0 131 -99q0 -75 -41.5 -118t-149.5 -43q-69 0 -129 24l15 29q61 -21 118 -21q88 0 119 30.5t31 96.5q0 70 -102 70q-40 0 -78 -10l-19 14l60 156q-332 20 -252 430z" />
<glyph unicode="&#xe8;" horiz-adv-x="974" d="M189.5 242.5q-5.5 79.5 15.5 173.5l55 286q20 105 52.5 181.5t85.5 134.5t131.5 87.5t183.5 29.5q101 0 167.5 -31t97 -87.5t36.5 -136.5t-15 -178l-30 -161h-705l-22 -117q-20 -92 -16 -167t30.5 -128.5t88 -83t155.5 -29.5q85 0 177 27t167 70l16 -29 q-180 -100 -366 -100q-104 0 -172 32t-97.5 89.5t-35 137zM270 573h672l23 121q19 92 15 167t-29.5 128.5t-87 83t-156.5 29.5q-185 0 -280 -104.5t-134 -307.5zM680 1599h43l59 -325h-26z" />
<glyph unicode="&#xe9;" horiz-adv-x="974" d="M189.5 242.5q-5.5 79.5 15.5 173.5l55 286q20 105 52.5 181.5t85.5 134.5t131.5 87.5t183.5 29.5q101 0 167.5 -31t97 -87.5t36.5 -136.5t-15 -178l-30 -161h-705l-22 -117q-20 -92 -16 -167t30.5 -128.5t88 -83t155.5 -29.5q85 0 177 27t167 70l16 -29 q-180 -100 -366 -100q-104 0 -172 32t-97.5 89.5t-35 137zM270 573h672l23 121q19 92 15 167t-29.5 128.5t-87 83t-156.5 29.5q-185 0 -280 -104.5t-134 -307.5zM686 1274l186 325h46l-203 -325h-29z" />
<glyph unicode="&#xea;" horiz-adv-x="974" d="M189.5 242.5q-5.5 79.5 15.5 173.5l55 286q20 105 52.5 181.5t85.5 134.5t131.5 87.5t183.5 29.5q101 0 167.5 -31t97 -87.5t36.5 -136.5t-15 -178l-30 -161h-705l-22 -117q-20 -92 -16 -167t30.5 -128.5t88 -83t155.5 -29.5q85 0 177 27t167 70l16 -29 q-180 -100 -366 -100q-104 0 -172 32t-97.5 89.5t-35 137zM270 573h672l23 121q19 92 15 167t-29.5 128.5t-87 83t-156.5 29.5q-185 0 -280 -104.5t-134 -307.5zM489 1274l312 325h28l185 -325h-33l-170 282l-283 -282h-39z" />
<glyph unicode="&#xeb;" horiz-adv-x="974" d="M189.5 242.5q-5.5 79.5 15.5 173.5l55 286q20 105 52.5 181.5t85.5 134.5t131.5 87.5t183.5 29.5q101 0 167.5 -31t97 -87.5t36.5 -136.5t-15 -178l-30 -161h-705l-22 -117q-20 -92 -16 -167t30.5 -128.5t88 -83t155.5 -29.5q85 0 177 27t167 70l16 -29 q-180 -100 -366 -100q-104 0 -172 32t-97.5 89.5t-35 137zM270 573h672l23 121q19 92 15 167t-29.5 128.5t-87 83t-156.5 29.5q-185 0 -280 -104.5t-134 -307.5zM578 1368l14 70h65l-14 -70h-65zM891 1368l14 70h66l-15 -70h-65z" />
<glyph unicode="&#xec;" horiz-adv-x="516" d="M256 1085l8 33h236l-162 -835q-7 -33 -11 -55.5t-8 -50t-4.5 -45.5t0.5 -38t6.5 -32t14 -22.5t22 -15t31.5 -4.5q31 0 84 21l2 -31q-53 -22 -90 -22q-137 0 -96 215l170 882h-203zM408 1599h43l59 -325h-27z" />
<glyph unicode="&#xed;" horiz-adv-x="516" d="M256 1085l8 33h236l-162 -835q-7 -33 -11 -55.5t-8 -50t-4.5 -45.5t0.5 -38t6.5 -32t14 -22.5t22 -15t31.5 -4.5q31 0 84 21l2 -31q-53 -22 -90 -22q-137 0 -96 215l170 882h-203zM463 1274l186 325h45l-202 -325h-29z" />
<glyph unicode="&#xee;" horiz-adv-x="516" d="M209 1274l311 325h29l184 -325h-33l-170 282l-282 -282h-39zM256 1085l8 33h236l-162 -835q-7 -33 -11 -55.5t-8 -50t-4.5 -45.5t0.5 -38t6.5 -32t14 -22.5t22 -15t31.5 -4.5q31 0 84 21l2 -31q-53 -22 -90 -22q-137 0 -96 215l170 882h-203z" />
<glyph unicode="&#xef;" horiz-adv-x="516" d="M256 1085l8 33h236l-162 -835q-7 -33 -11 -55.5t-8 -50t-4.5 -45.5t0.5 -38t6.5 -32t14 -22.5t22 -15t31.5 -4.5q31 0 84 21l2 -31q-53 -22 -90 -22q-137 0 -96 215l170 882h-203zM303 1368l14 70h66l-14 -70h-66zM616 1368l15 70h65l-14 -70h-66z" />
<glyph unicode="&#xf0;" horiz-adv-x="987" d="M205 416l31 164q39 210 145 321t309 111q134 0 208.5 -57t86.5 -162l39 204q44 221 -61 326l-215 -178l-19 22l211 176q-80 64 -213 64q-101 0 -209 -47l-12 29q119 51 227 51q148 0 236 -72l151 127l19 -25q-7 -5 -150 -124q116 -119 70 -355l-113 -575 q-20 -103 -52 -178.5t-84.5 -134.5t-131.5 -89t-186 -30q-195 0 -260.5 112t-26.5 320zM226 257q4 -75 30.5 -128.5t87 -83t154.5 -29.5q183 0 280 105.5t135 302.5l29 147q20 91 16 166.5t-30.5 129t-88 83t-155.5 29.5q-182 0 -279 -105.5t-135 -302.5l-28 -147 q-20 -92 -16 -167z" />
<glyph unicode="&#xf1;" horiz-adv-x="1097" d="M184 0l217 1118h29l-27 -166q45 36 74 56.5t90 55.5t131.5 53t147.5 18q146 0 205.5 -83t33.5 -216l-161 -836h-35l158 807q28 142 -23 218.5t-201 76.5q-202 0 -426 -187l-178 -915h-35zM524 1360q52 67 92 94t89 27q31 0 58 -12.5t48 -29.5t41.5 -34.5t47.5 -30 t58 -12.5q44 0 77.5 27t74.5 79l23 -20q-47 -65 -89 -93t-92 -28q-35 0 -65 12.5t-51.5 29.5t-41.5 34.5t-44 30t-50 12.5q-45 0 -77 -26t-76 -81z" />
<glyph unicode="&#xf2;" horiz-adv-x="987" d="M205 416l55 286q41 211 146.5 322t308.5 111q370 0 286 -433l-55 -286q-20 -103 -52.5 -179t-85.5 -134.5t-132 -88.5t-184 -30q-371 0 -287 432zM226 257q4 -75 30.5 -128.5t87 -83t154.5 -29.5q97 0 169.5 28.5t120 84.5t77 127.5t48.5 167.5l52 270q20 92 16 167 t-30 128.5t-87 83t-155 29.5q-97 0 -169.5 -28.5t-120.5 -84.5t-77.5 -127.5t-48.5 -167.5l-51 -270q-20 -92 -16 -167zM676 1599h43l59 -325h-26z" />
<glyph unicode="&#xf3;" horiz-adv-x="987" d="M205 416l55 286q41 211 146.5 322t308.5 111q370 0 286 -433l-55 -286q-20 -103 -52.5 -179t-85.5 -134.5t-132 -88.5t-184 -30q-371 0 -287 432zM226 257q4 -75 30.5 -128.5t87 -83t154.5 -29.5q97 0 169.5 28.5t120 84.5t77 127.5t48.5 167.5l52 270q20 92 16 167 t-30 128.5t-87 83t-155 29.5q-97 0 -169.5 -28.5t-120.5 -84.5t-77.5 -127.5t-48.5 -167.5l-51 -270q-20 -92 -16 -167zM692 1274l187 325h45l-203 -325h-29z" />
<glyph unicode="&#xf4;" horiz-adv-x="987" d="M205 416l55 286q41 211 146.5 322t308.5 111q370 0 286 -433l-55 -286q-20 -103 -52.5 -179t-85.5 -134.5t-132 -88.5t-184 -30q-371 0 -287 432zM226 257q4 -75 30.5 -128.5t87 -83t154.5 -29.5q97 0 169.5 28.5t120 84.5t77 127.5t48.5 167.5l52 270q20 92 16 167 t-30 128.5t-87 83t-155 29.5q-97 0 -169.5 -28.5t-120.5 -84.5t-77.5 -127.5t-48.5 -167.5l-51 -270q-20 -92 -16 -167zM485 1274l312 325h28l185 -325h-33l-170 282l-283 -282h-39z" />
<glyph unicode="&#xf5;" horiz-adv-x="987" d="M205 416l55 286q41 211 146.5 322t308.5 111q370 0 286 -433l-55 -286q-20 -103 -52.5 -179t-85.5 -134.5t-132 -88.5t-184 -30q-371 0 -287 432zM226 257q4 -75 30.5 -128.5t87 -83t154.5 -29.5q97 0 169.5 28.5t120 84.5t77 127.5t48.5 167.5l52 270q20 92 16 167 t-30 128.5t-87 83t-155 29.5q-97 0 -169.5 -28.5t-120.5 -84.5t-77.5 -127.5t-48.5 -167.5l-51 -270q-20 -92 -16 -167zM463 1360q52 67 91.5 94t88.5 27q37 0 71 -18.5t56 -41t56 -41t71 -18.5q44 0 77.5 27t74.5 79l22 -20q-47 -66 -88.5 -93.5t-91.5 -27.5 q-35 0 -65 12.5t-51.5 29.5t-41.5 34.5t-44 30t-50 12.5q-31 0 -60 -16t-47 -35.5t-47 -55.5z" />
<glyph unicode="&#xf6;" horiz-adv-x="987" d="M205 416l55 286q41 211 146.5 322t308.5 111q370 0 286 -433l-55 -286q-20 -103 -52.5 -179t-85.5 -134.5t-132 -88.5t-184 -30q-371 0 -287 432zM226 257q4 -75 30.5 -128.5t87 -83t154.5 -29.5q97 0 169.5 28.5t120 84.5t77 127.5t48.5 167.5l52 270q20 92 16 167 t-30 128.5t-87 83t-155 29.5q-97 0 -169.5 -28.5t-120.5 -84.5t-77.5 -127.5t-48.5 -167.5l-51 -270q-20 -92 -16 -167zM575 1368l15 70h65l-14 -70h-66zM889 1368l14 70h66l-15 -70h-65z" />
<glyph unicode="&#xf7;" horiz-adv-x="940" d="M135 588l6 35h899l-6 -35h-899zM489 295q0 49 48 49q30 0 30 -29q0 -49 -47 -49q-31 0 -31 29zM606 895q0 49 47 49q31 0 31 -29q0 -49 -47 -49q-31 0 -31 29z" />
<glyph unicode="&#xf8;" horiz-adv-x="987" d="M205 416l55 286q41 211 146.5 322t308.5 111q108 0 178 -39l61 104h37l-71 -121q134 -98 81 -377l-55 -286q-20 -103 -52.5 -179t-85.5 -134.5t-132 -88.5t-184 -30q-114 0 -189 43l-57 -101h-37l70 119q-126 103 -74 371zM242 424q-50 -253 55 -348l577 989 q-66 37 -165 37q-97 0 -169.5 -28.5t-120.5 -84.5t-77.5 -127.5t-48.5 -167.5zM322 57q65 -41 176 -41q97 0 169.5 28.5t120 84.5t77 127.5t48.5 167.5l52 270q51 262 -64 355z" />
<glyph unicode="&#xf9;" horiz-adv-x="1089" d="M229 283l162 835h37l-158 -807q-29 -144 23 -219.5t203 -75.5q200 0 424 187l178 915h35l-218 -1118h-28l26 166q-43 -34 -74.5 -56t-91 -56t-129.5 -52t-145 -18q-147 0 -208.5 83.5t-35.5 215.5zM737 1599h43l60 -325h-27z" />
<glyph unicode="&#xfa;" horiz-adv-x="1089" d="M229 283l162 835h37l-158 -807q-29 -144 23 -219.5t203 -75.5q200 0 424 187l178 915h35l-218 -1118h-28l26 166q-43 -34 -74.5 -56t-91 -56t-129.5 -52t-145 -18q-147 0 -208.5 83.5t-35.5 215.5zM743 1274l187 325h45l-203 -325h-29z" />
<glyph unicode="&#xfb;" horiz-adv-x="1089" d="M229 283l162 835h37l-158 -807q-29 -144 23 -219.5t203 -75.5q200 0 424 187l178 915h35l-218 -1118h-28l26 166q-43 -34 -74.5 -56t-91 -56t-129.5 -52t-145 -18q-147 0 -208.5 83.5t-35.5 215.5zM541 1274l311 325h29l184 -325h-33l-170 282l-282 -282h-39z" />
<glyph unicode="&#xfc;" horiz-adv-x="1089" d="M229 283l162 835h37l-158 -807q-29 -144 23 -219.5t203 -75.5q200 0 424 187l178 915h35l-218 -1118h-28l26 166q-43 -34 -74.5 -56t-91 -56t-129.5 -52t-145 -18q-147 0 -208.5 83.5t-35.5 215.5zM629 1368l14 70h66l-15 -70h-65zM942 1368l14 70h66l-14 -70h-66z" />
<glyph unicode="&#xfd;" horiz-adv-x="1089" d="M152 -344l18 29q144 -82 317 -82q144 0 244.5 74t128.5 219l53 270q-43 -34 -74.5 -56t-91 -56t-129.5 -52t-145 -18q-147 0 -208.5 83.5t-35.5 215.5l162 835h37l-158 -807q-29 -144 23 -219.5t203 -75.5q200 0 424 187l178 915h35l-238 -1218q-64 -330 -414 -330 q-186 0 -329 86zM741 1274l187 325h45l-203 -325h-29z" />
<glyph unicode="&#xfe;" horiz-adv-x="1048" d="M104 -414l379 1950h35l-112 -578q172 177 391 177q175 0 241.5 -105t28.5 -301l-66 -340q-38 -200 -139 -302.5t-282 -102.5q-67 0 -124.5 17t-97 45.5t-65 56t-43.5 57.5l-111 -574h-35zM260 203q46 -82 124.5 -134.5t186.5 -52.5q172 0 267 96t131 285l63 324 q36 188 -23 284.5t-227 96.5q-108 0 -207 -52.5t-178 -134.5z" />
<glyph unicode="&#xff;" horiz-adv-x="1089" d="M152 -344l18 29q144 -82 317 -82q144 0 244.5 74t128.5 219l53 270q-43 -34 -74.5 -56t-91 -56t-129.5 -52t-145 -18q-147 0 -208.5 83.5t-35.5 215.5l162 835h37l-158 -807q-29 -144 23 -219.5t203 -75.5q200 0 424 187l178 915h35l-238 -1218q-64 -330 -414 -330 q-186 0 -329 86zM616 1368l15 70h65l-14 -70h-66zM930 1368l14 70h66l-15 -70h-65z" />
<glyph unicode="&#x100;" horiz-adv-x="1136" d="M72 0l757 1434h33l205 -1434h-39l-65 479h-598l-250 -479h-43zM385 514h573l-120 862zM672 1743l6 33h477l-6 -33h-477z" />
<glyph unicode="&#x101;" d="M199 389l67 340q40 203 138 304.5t278 101.5q215 0 334 -177l39 160h26l-161 -835q-7 -33 -11 -55.5t-8 -50t-4.5 -45.5t0.5 -38t6.5 -32t14 -22.5t22 -15t31.5 -4.5q31 0 84 21l2 -31q-53 -22 -90 -22q-119 0 -103 166q-70 -68 -169 -119t-220 -51q-177 0 -246 105 t-30 300zM236 397q-37 -190 20 -285.5t229 -95.5q202 0 385 187l138 712q-41 74 -126.5 130.5t-197.5 56.5q-166 0 -257 -95.5t-128 -285.5zM600 1436l6 32h477l-6 -32h-477z" />
<glyph unicode="&#x102;" horiz-adv-x="1136" d="M72 0l757 1434h33l205 -1434h-39l-65 479h-598l-250 -479h-43zM385 514h573l-120 862zM684 1858l4 24h31l-4 -24q-18 -99 32 -140t150 -41q62 0 111 15t89 57t52 109l4 24h31l-4 -24q-35 -213 -289 -213q-50 0 -89.5 11t-71 34.5t-44 66.5t-2.5 101z" />
<glyph unicode="&#x103;" d="M199 389l67 340q40 203 138 304.5t278 101.5q215 0 334 -177l39 160h26l-161 -835q-7 -33 -11 -55.5t-8 -50t-4.5 -45.5t0.5 -38t6.5 -32t14 -22.5t22 -15t31.5 -4.5q31 0 84 21l2 -31q-53 -22 -90 -22q-119 0 -103 166q-70 -68 -169 -119t-220 -51q-177 0 -246 105 t-30 300zM236 397q-37 -190 20 -285.5t229 -95.5q202 0 385 187l138 712q-41 74 -126.5 130.5t-197.5 56.5q-166 0 -257 -95.5t-128 -285.5zM573 1550l5 25h30l-4 -25q-18 -99 32 -139.5t150 -40.5q220 0 252 180l4 25h31l-4 -25q-35 -213 -289 -213q-50 0 -89.5 11 t-71 34.5t-44 66.5t-2.5 101z" />
<glyph unicode="&#x104;" horiz-adv-x="1138" d="M72 0l757 1434h33l205 -1434q-121 -47 -202 -124t-81 -161q0 -86 101 -86q49 0 106 23l6 -27q-58 -28 -120 -28q-56 0 -91.5 26t-35.5 86q0 94 79.5 174.5t196.5 128.5l-63 467h-598l-250 -479h-43zM385 514h573l-120 862z" />
<glyph unicode="&#x105;" d="M199 389l67 340q40 203 138 304.5t278 101.5q215 0 334 -177l39 160h26l-161 -835q-7 -33 -11 -55.5t-8 -50t-4.5 -45.5t0.5 -38t6.5 -32t14 -22.5t22 -15t31.5 -4.5q31 0 84 21l2 -31q-45 -15 -92.5 -39.5t-99 -61.5t-84.5 -88t-33 -106q0 -86 100 -86q48 0 106 23 l7 -27q-58 -28 -121 -28q-56 0 -91.5 26t-35.5 86q0 87 66 160t165 121q-96 14 -80 164q-70 -68 -169 -119t-220 -51q-177 0 -246 105t-30 300zM236 397q-37 -190 20 -285.5t229 -95.5q202 0 385 187l138 712q-41 74 -126.5 130.5t-197.5 56.5q-166 0 -257 -95.5 t-128 -285.5z" />
<glyph unicode="&#x106;" horiz-adv-x="1099" d="M242 453l102 528q92 469 514 469q56 0 103 -10.5t79.5 -25t60 -40.5t42.5 -45.5t30 -52t20.5 -49t14.5 -45.5l-30 -15q-13 45 -24 73.5t-36 65.5t-57 58.5t-85.5 37t-123.5 15.5q-390 0 -475 -446l-98 -508q-21 -101 -14.5 -183t38.5 -141t102 -91t175 -32 q68 0 127.5 15.5t101.5 38t80 57t62 65t48 68.5l29 -14q-19 -30 -27.5 -42.5t-35 -46t-47.5 -51.5t-59 -45t-77 -41t-93.5 -25t-115.5 -11q-423 0 -331 469zM840 1581l186 326h45l-203 -326h-28z" />
<glyph unicode="&#x107;" horiz-adv-x="874" d="M205 416l55 286q20 103 54 180t87.5 135t132 88t181.5 30q59 0 105 -14t78 -39.5t51.5 -51t37.5 -59.5l-26 -17q-36 72 -95 110t-157 38q-94 0 -166 -29t-121 -84.5t-80 -127.5t-49 -167l-51 -270q-20 -92 -16 -167t30.5 -128.5t88 -83t155.5 -29.5q93 0 165 31.5 t144 106.5l22 -19q-71 -78 -150 -114.5t-187 -36.5q-373 0 -289 432zM700 1274l187 325h45l-203 -325h-29z" />
<glyph unicode="&#x108;" horiz-adv-x="1099" d="M242 453l102 528q92 469 514 469q56 0 103 -10.5t79.5 -25t60 -40.5t42.5 -45.5t30 -52t20.5 -49t14.5 -45.5l-30 -15q-13 45 -24 73.5t-36 65.5t-57 58.5t-85.5 37t-123.5 15.5q-390 0 -475 -446l-98 -508q-21 -101 -14.5 -183t38.5 -141t102 -91t175 -32 q68 0 127.5 15.5t101.5 38t80 57t62 65t48 68.5l29 -14q-19 -30 -27.5 -42.5t-35 -46t-47.5 -51.5t-59 -45t-77 -41t-93.5 -25t-115.5 -11q-423 0 -331 469zM633 1581l311 326h29l184 -326h-33l-170 283l-282 -283h-39z" />
<glyph unicode="&#x109;" horiz-adv-x="874" d="M205 416l55 286q20 103 54 180t87.5 135t132 88t181.5 30q59 0 105 -14t78 -39.5t51.5 -51t37.5 -59.5l-26 -17q-36 72 -95 110t-157 38q-94 0 -166 -29t-121 -84.5t-80 -127.5t-49 -167l-51 -270q-20 -92 -16 -167t30.5 -128.5t88 -83t155.5 -29.5q93 0 165 31.5 t144 106.5l22 -19q-71 -78 -150 -114.5t-187 -36.5q-373 0 -289 432zM487 1274l312 325h28l185 -325h-33l-170 282l-283 -282h-39z" />
<glyph unicode="&#x10a;" horiz-adv-x="1099" d="M242 453l102 528q92 469 514 469q56 0 103 -10.5t79.5 -25t60 -40.5t42.5 -45.5t30 -52t20.5 -49t14.5 -45.5l-30 -15q-13 45 -24 73.5t-36 65.5t-57 58.5t-85.5 37t-123.5 15.5q-390 0 -475 -446l-98 -508q-21 -101 -14.5 -183t38.5 -141t102 -91t175 -32 q68 0 127.5 15.5t101.5 38t80 57t62 65t48 68.5l29 -14q-19 -30 -27.5 -42.5t-35 -46t-47.5 -51.5t-59 -45t-77 -41t-93.5 -25t-115.5 -11q-423 0 -331 469zM881 1696l14 69h66l-15 -69h-65z" />
<glyph unicode="&#x10b;" horiz-adv-x="872" d="M205 416l55 286q20 103 54 180t87.5 135t132 88t181.5 30q59 0 105 -14t78 -39.5t51.5 -51t37.5 -59.5l-26 -17q-36 72 -95 110t-157 38q-94 0 -166 -29t-121 -84.5t-80 -127.5t-49 -167l-51 -270q-20 -92 -16 -167t30.5 -128.5t88 -83t155.5 -29.5q93 0 165 31.5 t144 106.5l22 -19q-71 -78 -150 -114.5t-187 -36.5q-373 0 -289 432zM735 1389l15 69h65l-14 -69h-66z" />
<glyph unicode="&#x10c;" horiz-adv-x="1099" d="M242 453l102 528q92 469 514 469q56 0 103 -10.5t79.5 -25t60 -40.5t42.5 -45.5t30 -52t20.5 -49t14.5 -45.5l-30 -15q-13 45 -24 73.5t-36 65.5t-57 58.5t-85.5 37t-123.5 15.5q-390 0 -475 -446l-98 -508q-21 -101 -14.5 -183t38.5 -141t102 -91t175 -32 q68 0 127.5 15.5t101.5 38t80 57t62 65t48 68.5l29 -14q-19 -30 -27.5 -42.5t-35 -46t-47.5 -51.5t-59 -45t-77 -41t-93.5 -25t-115.5 -11q-423 0 -331 469zM694 1907h35l168 -283l281 283h41l-312 -326h-28z" />
<glyph unicode="&#x10d;" horiz-adv-x="874" d="M205 416l55 286q20 103 54 180t87.5 135t132 88t181.5 30q59 0 105 -14t78 -39.5t51.5 -51t37.5 -59.5l-26 -17q-36 72 -95 110t-157 38q-94 0 -166 -29t-121 -84.5t-80 -127.5t-49 -167l-51 -270q-20 -92 -16 -167t30.5 -128.5t88 -83t155.5 -29.5q93 0 165 31.5 t144 106.5l22 -19q-71 -78 -150 -114.5t-187 -36.5q-373 0 -289 432zM532 1599h35l168 -282l281 282h41l-312 -325h-28z" />
<glyph unicode="&#x10e;" horiz-adv-x="1204" d="M205 0l278 1434h344q213 0 320.5 -125.5t107.5 -366.5q0 -148 -25 -283.5t-80 -256.5t-135 -209.5t-197 -140.5t-259 -52h-354zM246 33h309q135 0 247 50.5t188 136.5t128.5 202t76.5 244.5t24 267.5q0 467 -398 467h-309zM659 1907h35l168 -283l281 283h41l-312 -326 h-28z" />
<glyph unicode="&#x10f;" horiz-adv-x="1105" d="M199 389l67 340q39 201 142 303.5t284 102.5q67 0 123.5 -17t95 -45.5t63.5 -56.5t42 -58l112 578h35l-243 -1253q-7 -33 -11 -55.5t-8 -50t-4.5 -45.5t0.5 -38t6.5 -32t14 -22.5t22 -15t31.5 -4.5q31 0 84 21l2 -31q-53 -22 -90 -22q-119 0 -103 170 q-169 -174 -389 -174q-177 0 -246 105t-30 300zM236 397q-37 -190 20 -285.5t229 -95.5q109 0 210 53.5t175 135.5l138 710q-105 187 -314 187q-168 0 -263.5 -96.5t-131.5 -284.5zM1186 1214l102 322h43l-117 -322h-28z" />
<glyph unicode="&#x110;" horiz-adv-x="1204" d="M205 0l137 713h-123l6 30h123l135 691h344q213 0 320.5 -125.5t107.5 -366.5q0 -148 -25 -283.5t-80 -256.5t-135 -209.5t-197 -140.5t-259 -52h-354zM246 33h309q135 0 247 50.5t188 136.5t128.5 202t76.5 244.5t24 267.5q0 467 -398 467h-309l-129 -658h405l-6 -30 h-405z" />
<glyph unicode="&#x111;" d="M199 389l67 340q39 201 142 303.5t284 102.5q67 0 123.5 -17t95 -45.5t63.5 -56.5t42 -58l67 353h-317l6 30h318l38 195h35l-39 -195h170l-6 -30h-170l-198 -1028q-7 -33 -11 -55.5t-8 -50t-4.5 -45.5t0.5 -38t6.5 -32t14 -22.5t22 -15t31.5 -4.5q31 0 84 21l2 -31 q-53 -22 -90 -22q-119 0 -103 170q-169 -174 -389 -174q-177 0 -246 105t-30 300zM236 397q-37 -190 20 -285.5t229 -95.5q109 0 210 53.5t175 135.5l138 710q-105 187 -314 187q-168 0 -263.5 -96.5t-131.5 -284.5z" />
<glyph unicode="&#x112;" horiz-adv-x="1007" d="M205 0l278 1434h682l-6 -33h-647l-123 -633h615l-7 -33h-614l-137 -702h647l-6 -33h-682zM666 1743l6 33h477l-6 -33h-477z" />
<glyph unicode="&#x113;" horiz-adv-x="974" d="M189.5 242.5q-5.5 79.5 15.5 173.5l55 286q20 105 52.5 181.5t85.5 134.5t131.5 87.5t183.5 29.5q101 0 167.5 -31t97 -87.5t36.5 -136.5t-15 -178l-30 -161h-705l-22 -117q-20 -92 -16 -167t30.5 -128.5t88 -83t155.5 -29.5q85 0 177 27t167 70l16 -29 q-180 -100 -366 -100q-104 0 -172 32t-97.5 89.5t-35 137zM270 573h672l23 121q19 92 15 167t-29.5 128.5t-87 83t-156.5 29.5q-185 0 -280 -104.5t-134 -307.5zM541 1436l6 32h477l-6 -32h-477z" />
<glyph unicode="&#x114;" horiz-adv-x="1007" d="M205 0l278 1434h682l-6 -33h-647l-123 -633h615l-7 -33h-614l-137 -702h647l-6 -33h-682zM676 1858l4 24h31l-4 -24q-18 -99 32 -140t150 -41q62 0 111 15t89 57t52 109l4 24h31l-5 -24q-35 -213 -288 -213q-50 0 -89.5 11t-71 34.5t-44 66.5t-2.5 101z" />
<glyph unicode="&#x115;" horiz-adv-x="974" d="M189.5 242.5q-5.5 79.5 15.5 173.5l55 286q20 105 52.5 181.5t85.5 134.5t131.5 87.5t183.5 29.5q101 0 167.5 -31t97 -87.5t36.5 -136.5t-15 -178l-30 -161h-705l-22 -117q-20 -92 -16 -167t30.5 -128.5t88 -83t155.5 -29.5q85 0 177 27t167 70l16 -29 q-180 -100 -366 -100q-104 0 -172 32t-97.5 89.5t-35 137zM270 573h672l23 121q19 92 15 167t-29.5 128.5t-87 83t-156.5 29.5q-185 0 -280 -104.5t-134 -307.5zM549 1550l4 25h31l-4 -25q-18 -99 32 -139.5t150 -40.5q220 0 252 180l4 25h31l-5 -25q-35 -213 -288 -213 q-50 0 -89.5 11t-71 34.5t-44 66.5t-2.5 101z" />
<glyph unicode="&#x116;" horiz-adv-x="1007" d="M205 0l278 1434h682l-6 -33h-647l-123 -633h615l-7 -33h-614l-137 -702h647l-6 -33h-682zM858 1696l14 69h66l-14 -69h-66z" />
<glyph unicode="&#x117;" horiz-adv-x="974" d="M189.5 242.5q-5.5 79.5 15.5 173.5l55 286q20 105 52.5 181.5t85.5 134.5t131.5 87.5t183.5 29.5q101 0 167.5 -31t97 -87.5t36.5 -136.5t-15 -178l-30 -161h-705l-22 -117q-20 -92 -16 -167t30.5 -128.5t88 -83t155.5 -29.5q85 0 177 27t167 70l16 -29 q-180 -100 -366 -100q-104 0 -172 32t-97.5 89.5t-35 137zM270 573h672l23 121q19 92 15 167t-29.5 128.5t-87 83t-156.5 29.5q-185 0 -280 -104.5t-134 -307.5zM735 1389l15 69h65l-14 -69h-66z" />
<glyph unicode="&#x118;" horiz-adv-x="1007" d="M205 0l278 1434h682l-6 -33h-647l-123 -633h615l-7 -33h-614l-137 -702h647l-6 -33q-121 -47 -202 -124t-81 -161q0 -86 101 -86q49 0 106 23l6 -27q-58 -28 -121 -28q-56 0 -91.5 26t-35.5 86q0 92 73.5 167t180.5 124h-618z" />
<glyph unicode="&#x119;" horiz-adv-x="974" d="M189.5 242.5q-5.5 79.5 15.5 173.5l55 286q20 105 52.5 181.5t85.5 134.5t131.5 87.5t183.5 29.5q101 0 167.5 -31t97 -87.5t36.5 -136.5t-15 -178l-30 -161h-705l-22 -117q-20 -92 -16 -167t30.5 -128.5t88 -83t155.5 -29.5q85 0 177 27t167 70l16 -29 q-103 -43 -189.5 -99.5t-145 -129t-58.5 -140.5q0 -86 100 -86q49 0 107 23l6 -27q-58 -28 -121 -28q-55 0 -91 28t-36 88q0 78 61.5 154.5t159.5 140.5q-108 -24 -159 -24q-104 0 -172 32t-97.5 89.5t-35 137zM270 573h672l23 121q19 92 15 167t-29.5 128.5t-87 83 t-156.5 29.5q-185 0 -280 -104.5t-134 -307.5z" />
<glyph unicode="&#x11a;" horiz-adv-x="1007" d="M205 0l278 1434h682l-6 -33h-647l-123 -633h615l-7 -33h-614l-137 -702h647l-6 -33h-682zM676 1907h35l168 -283l280 283h41l-311 -326h-29z" />
<glyph unicode="&#x11b;" horiz-adv-x="974" d="M189.5 242.5q-5.5 79.5 15.5 173.5l55 286q20 105 52.5 181.5t85.5 134.5t131.5 87.5t183.5 29.5q101 0 167.5 -31t97 -87.5t36.5 -136.5t-15 -178l-30 -161h-705l-22 -117q-20 -92 -16 -167t30.5 -128.5t88 -83t155.5 -29.5q85 0 177 27t167 70l16 -29 q-180 -100 -366 -100q-104 0 -172 32t-97.5 89.5t-35 137zM270 573h672l23 121q19 92 15 167t-29.5 128.5t-87 83t-156.5 29.5q-185 0 -280 -104.5t-134 -307.5zM553 1599h35l168 -282l280 282h41l-311 -325h-29z" />
<glyph unicode="&#x11c;" horiz-adv-x="1138" d="M242 453l102 528q92 469 514 469q56 0 102.5 -10t79 -24.5t59.5 -38t42.5 -44.5t29.5 -50.5t20.5 -48t14.5 -45.5q1 -2 1.5 -3.5t0.5 -3.5l-30 -15q-12 42 -24 73t-37 66.5t-58 58t-86 37.5t-121 15q-390 0 -475 -446l-98 -508q-21 -101 -14.5 -183t38.5 -141t102 -91 t175 -32q88 0 162.5 20t125 53t82.5 64.5t54 65.5l92 465h-334l6 33h369l-101 -508q-153 -225 -463 -225q-423 0 -331 469zM633 1581l311 326h29l184 -326h-33l-170 283l-282 -283h-39z" />
<glyph unicode="&#x11d;" horiz-adv-x="1028" d="M100 -344l19 29q144 -82 317 -82q144 0 244.5 74t128.5 219l51 264q-171 -176 -389 -176q-177 0 -243.5 104.5t-28.5 300.5l65 340q78 406 422 406q67 0 124.5 -17t97 -45.5t65 -56.5t43.5 -58l37 160h28l-237 -1218q-64 -330 -414 -330q-187 0 -330 86zM233 397 q-37 -190 20.5 -285.5t229.5 -95.5q108 0 207 52.5t178 134.5l140 712q-48 82 -127 134.5t-187 52.5q-172 0 -266 -95.5t-131 -285.5zM496 1274l311 325h29l184 -325h-33l-170 282l-282 -282h-39z" />
<glyph unicode="&#x11e;" horiz-adv-x="1138" d="M242 453l102 528q92 469 514 469q56 0 102.5 -10t79 -24.5t59.5 -38t42.5 -44.5t29.5 -50.5t20.5 -48t14.5 -45.5q1 -2 1.5 -3.5t0.5 -3.5l-30 -15q-12 42 -24 73t-37 66.5t-58 58t-86 37.5t-121 15q-390 0 -475 -446l-98 -508q-21 -101 -14.5 -183t38.5 -141t102 -91 t175 -32q88 0 162.5 20t125 53t82.5 64.5t54 65.5l92 465h-334l6 33h369l-101 -508q-153 -225 -463 -225q-423 0 -331 469zM711 1858l4 24h30l-4 -24q-18 -99 32.5 -140t150.5 -41q62 0 111 15t89 57t52 109l4 24h30l-4 -24q-35 -213 -288 -213q-50 0 -89.5 11t-71 34.5 t-44 66.5t-2.5 101z" />
<glyph unicode="&#x11f;" horiz-adv-x="1028" d="M100 -344l19 29q144 -82 317 -82q144 0 244.5 74t128.5 219l51 264q-171 -176 -389 -176q-177 0 -243.5 104.5t-28.5 300.5l65 340q78 406 422 406q67 0 124.5 -17t97 -45.5t65 -56.5t43.5 -58l37 160h28l-237 -1218q-64 -330 -414 -330q-187 0 -330 86zM233 397 q-37 -190 20.5 -285.5t229.5 -95.5q108 0 207 52.5t178 134.5l140 712q-48 82 -127 134.5t-187 52.5q-172 0 -266 -95.5t-131 -285.5zM563 1550l4 25h31l-4 -25q-18 -99 32 -139.5t150 -40.5q220 0 252 180l4 25h31l-4 -25q-35 -213 -289 -213q-50 0 -89.5 11t-71 34.5 t-44 66.5t-2.5 101z" />
<glyph unicode="&#x120;" horiz-adv-x="1138" d="M242 453l102 528q92 469 514 469q56 0 102.5 -10t79 -24.5t59.5 -38t42.5 -44.5t29.5 -50.5t20.5 -48t14.5 -45.5q1 -2 1.5 -3.5t0.5 -3.5l-30 -15q-12 42 -24 73t-37 66.5t-58 58t-86 37.5t-121 15q-390 0 -475 -446l-98 -508q-21 -101 -14.5 -183t38.5 -141t102 -91 t175 -32q88 0 162.5 20t125 53t82.5 64.5t54 65.5l92 465h-334l6 33h369l-101 -508q-153 -225 -463 -225q-423 0 -331 469zM887 1696l14 69h66l-15 -69h-65z" />
<glyph unicode="&#x121;" horiz-adv-x="1028" d="M100 -344l19 29q144 -82 317 -82q144 0 244.5 74t128.5 219l51 264q-171 -176 -389 -176q-177 0 -243.5 104.5t-28.5 300.5l65 340q78 406 422 406q67 0 124.5 -17t97 -45.5t65 -56.5t43.5 -58l37 160h28l-237 -1218q-64 -330 -414 -330q-187 0 -330 86zM233 397 q-37 -190 20.5 -285.5t229.5 -95.5q108 0 207 52.5t178 134.5l140 712q-48 82 -127 134.5t-187 52.5q-172 0 -266 -95.5t-131 -285.5zM733 1389l15 69h65l-14 -69h-66z" />
<glyph unicode="&#x122;" horiz-adv-x="1138" d="M242 453l102 528q92 469 514 469q56 0 102.5 -10t79 -24.5t59.5 -38t42.5 -44.5t29.5 -50.5t20.5 -48t14.5 -45.5q1 -2 1.5 -3.5t0.5 -3.5l-30 -15q-12 42 -24 73t-37 66.5t-58 58t-86 37.5t-121 15q-390 0 -475 -446l-98 -508q-21 -101 -14.5 -183t38.5 -141t102 -91 t175 -32q88 0 162.5 20t125 53t82.5 64.5t54 65.5l92 465h-334l6 33h369l-101 -508q-153 -225 -463 -225q-423 0 -331 469zM465 -350q81 84 96 184h-29l15 70h61l-14 -70q-23 -119 -109 -203z" />
<glyph unicode="&#x123;" horiz-adv-x="1028" d="M100 -344l19 29q144 -82 317 -82q144 0 244.5 74t128.5 219l51 264q-171 -176 -389 -176q-177 0 -243.5 104.5t-28.5 300.5l65 340q78 406 422 406q67 0 124.5 -17t97 -45.5t65 -56.5t43.5 -58l37 160h28l-237 -1218q-64 -330 -414 -330q-187 0 -330 86zM233 397 q-37 -190 20.5 -285.5t229.5 -95.5q108 0 207 52.5t178 134.5l140 712q-48 82 -127 134.5t-187 52.5q-172 0 -266 -95.5t-131 -285.5zM715 1331l14 70q23 119 109 203l20 -19q-81 -84 -96 -184h29l-15 -70h-61z" />
<glyph unicode="&#x124;" horiz-adv-x="1269" d="M205 0l278 1434h35l-129 -668h793l129 668h32l-278 -1434h-33l144 733h-793l-143 -733h-35zM684 1581l311 326h29l184 -326h-32l-170 283l-283 -283h-39z" />
<glyph unicode="&#x125;" horiz-adv-x="1099" d="M184 0l299 1536h35l-115 -584q42 34 74.5 56.5t93 56.5t131.5 52t146 18q149 0 207 -82.5t32 -216.5l-161 -836h-35l158 807q28 142 -23 218.5t-201 76.5q-62 0 -127.5 -18.5t-122.5 -49.5t-99 -59.5t-79 -59.5l-178 -915h-35zM272 1651l312 325h28l185 -325h-33 l-170 282l-283 -282h-39z" />
<glyph unicode="&#x126;" horiz-adv-x="1269" d="M205 0l221 1139h-115l6 32h115l51 263h35l-51 -263h793l51 263h32l-51 -263h113l-6 -32h-113l-221 -1139h-33l144 733h-793l-143 -733h-35zM389 766h793l71 373h-792z" />
<glyph unicode="&#x127;" horiz-adv-x="1099" d="M184 0l254 1309h-125l6 32h125l39 195h35l-39 -195h379l-6 -32h-379l-70 -357q228 183 445 183q149 0 207 -82.5t32 -216.5l-161 -836h-35l158 807q28 142 -23 218.5t-201 76.5q-62 0 -127.5 -18.5t-122.5 -49.5t-99 -59.5t-79 -59.5l-178 -915h-35z" />
<glyph unicode="&#x128;" horiz-adv-x="444" d="M205 0l278 1434h35l-278 -1434h-35zM274 1667q52 67 92 94t89 27q37 0 71 -18.5t56 -41t56 -41t71 -18.5q24 0 44.5 8t40.5 26t32.5 32.5t33.5 40.5l23 -21q-47 -65 -89 -93t-92 -28q-42 0 -78.5 18.5t-58.5 41t-52.5 41t-61.5 18.5q-45 0 -78 -26t-76 -80z" />
<glyph unicode="&#x129;" horiz-adv-x="516" d="M203 1360q52 67 91.5 94t88.5 27q37 0 71 -18.5t56 -41t56 -41t71 -18.5q31 0 60 17t46.5 35.5t44.5 53.5l23 -20q-47 -66 -88.5 -93.5t-91.5 -27.5q-35 0 -65 12.5t-51.5 29.5t-41.5 34.5t-44 30t-50 12.5q-31 0 -60 -16t-47 -35.5t-47 -55.5zM256 1085l8 33h236 l-162 -835q-7 -33 -11 -55.5t-8 -50t-4.5 -45.5t0.5 -38t6.5 -32t14 -22.5t22 -15t31.5 -4.5q31 0 84 21l2 -31q-53 -22 -90 -22q-137 0 -96 215l170 882h-203z" />
<glyph unicode="&#x12a;" horiz-adv-x="444" d="M205 0l278 1434h35l-278 -1434h-35zM326 1743l6 33h477l-6 -33h-477z" />
<glyph unicode="&#x12b;" horiz-adv-x="516" d="M256 1085l8 33h236l-162 -835q-7 -33 -11 -55.5t-8 -50t-4.5 -45.5t0.5 -38t6.5 -32t14 -22.5t22 -15t31.5 -4.5q31 0 84 21l2 -31q-53 -22 -90 -22q-137 0 -96 215l170 882h-203zM285 1436l6 32h477l-6 -32h-477z" />
<glyph unicode="&#x12c;" horiz-adv-x="444" d="M205 0l278 1434h35l-278 -1434h-35zM338 1858l4 24h31l-4 -24q-18 -99 32 -140t150 -41q62 0 111 15t89 57t52 109l4 24h31l-4 -24q-35 -213 -289 -213q-50 0 -89.5 11t-71 34.5t-44 66.5t-2.5 101z" />
<glyph unicode="&#x12d;" horiz-adv-x="516" d="M256 1085l8 33h236l-162 -835q-7 -33 -11 -55.5t-8 -50t-4.5 -45.5t0.5 -38t6.5 -32t14 -22.5t22 -15t31.5 -4.5q31 0 84 21l2 -31q-53 -22 -90 -22q-137 0 -96 215l170 882h-203zM289 1550l4 25h31l-5 -25q-18 -99 32.5 -139.5t150.5 -40.5q220 0 252 180l4 25h30 l-4 -25q-35 -213 -288 -213q-50 0 -89.5 11t-71 34.5t-44 66.5t-2.5 101z" />
<glyph unicode="&#x12e;" horiz-adv-x="444" d="M-78 -291q0 92 77.5 171t207.5 136l276 1418h35l-278 -1434q-121 -47 -202 -124t-81 -161q0 -86 100 -86q43 0 107 23l10 -27q-62 -28 -125 -28q-56 0 -91.5 26t-35.5 86z" />
<glyph unicode="&#x12f;" horiz-adv-x="516" d="M131 -291q0 87 65.5 159t165.5 122q-111 14 -73 213l170 882h-203l8 33h236l-162 -835q-7 -33 -11 -55.5t-8 -50t-4.5 -45.5t0.5 -38t6.5 -32t14 -22.5t22 -15t31.5 -4.5q31 0 84 21l2 -31q-37 -13 -73.5 -30.5t-80.5 -46t-77 -59.5t-55.5 -73t-22.5 -86q0 -86 100 -86 q50 0 107 23l6 -27q-58 -28 -121 -28q-56 0 -91.5 26t-35.5 86zM504 1389l12 69h66l-13 -69h-65z" />
<glyph unicode="&#x130;" horiz-adv-x="444" d="M205 0l278 1434h35l-278 -1434h-35zM520 1696l15 69h65l-14 -69h-66z" />
<glyph unicode="&#x131;" horiz-adv-x="516" d="M256 1085l8 33h236l-162 -835q-7 -33 -11 -55.5t-8 -50t-4.5 -45.5t0.5 -38t6.5 -32t14 -22.5t22 -15t31.5 -4.5q31 0 84 21l2 -31q-53 -22 -90 -22q-137 0 -96 215l170 882h-203z" />
<glyph unicode="&#x132;" horiz-adv-x="1124" d="M205 0l278 1434h35l-278 -1434h-35zM528 8l17 31q57 -23 112 -23q46 0 83.5 11t65 28t50.5 46.5t38 58.5t28.5 73t22 80t18.5 88l200 1033h35l-203 -1043q-12 -64 -23.5 -109t-30 -96t-42.5 -84t-58 -62t-81 -42.5t-107 -13.5q-71 0 -125 24z" />
<glyph unicode="&#x133;" horiz-adv-x="987" d="M256 1085l8 33h236l-162 -835q-7 -33 -11 -55.5t-8 -50t-4.5 -45.5t0.5 -38t6.5 -32t14 -22.5t22 -15t31.5 -4.5q31 0 84 21l2 -31q-53 -22 -90 -22q-137 0 -96 215l170 882h-203zM369 -395l14 30q67 -24 119 -24q104 0 158 65t79 191l238 1218h-203l8 33h236l-242 -1245 q-15 -75 -32 -124t-47.5 -90.5t-79 -61t-119.5 -19.5q-33 0 -65 7t-48 13zM504 1389l12 69h66l-13 -69h-65zM1022 1389l14 69h66l-15 -69h-65z" />
<glyph unicode="&#x134;" horiz-adv-x="679" d="M84 8l16 31q58 -23 113 -23q63 0 111 21t78 52t53.5 86.5t35.5 103t27 122.5l201 1033h35l-203 -1043q-12 -64 -23.5 -109t-30 -96t-42.5 -84t-58 -62t-81 -42.5t-107 -13.5q-71 0 -125 24zM508 1589l311 326h29l184 -326h-33l-170 283l-282 -283h-39z" />
<glyph unicode="&#x135;" horiz-adv-x="471" d="M-147 -395l14 30q67 -24 119 -24q104 0 158 65t79 191l238 1218h-203l8 33h236l-242 -1245q-15 -75 -32 -124t-47.5 -90.5t-79 -61t-119.5 -19.5q-33 0 -65 7t-48 13zM199 1274l311 325h29l184 -325h-33l-170 282l-282 -282h-39z" />
<glyph unicode="&#x136;" horiz-adv-x="1062" d="M205 0l278 1434h35l-129 -668h262l543 668h41l-555 -684l285 -750h-39l-275 733h-268l-143 -733h-35zM438 -350q82 86 97 184h-29l14 70h62l-15 -70q-23 -121 -108 -203z" />
<glyph unicode="&#x137;" horiz-adv-x="954" d="M184 0l299 1536h35l-178 -915h276l431 497h43l-445 -516l141 -418q15 -44 24.5 -67.5t25 -50t33.5 -37.5t42 -11q27 0 58 17l8 -25q-26 -22 -68 -22q-61 0 -88.5 37t-64.5 141l-144 420h-278l-115 -586h-35zM389 -350q81 84 96 184h-28l14 70h61l-14 -70 q-23 -121 -108 -203z" />
<glyph unicode="&#x138;" horiz-adv-x="954" d="M184 0l215 1118h35l-94 -497h276l431 497h43l-445 -516l141 -418q15 -44 24.5 -67.5t25 -50t33.5 -37.5t42 -11q27 0 58 17l8 -25q-26 -22 -68 -22q-58 0 -86.5 37.5t-64.5 140.5l-144 420h-280l-115 -586h-35z" />
<glyph unicode="&#x139;" horiz-adv-x="956" d="M205 0l278 1434h35l-272 -1401h647l-6 -33h-682zM496 1581l186 326h45l-203 -326h-28z" />
<glyph unicode="&#x13a;" horiz-adv-x="403" d="M223 203l260 1333h35l-244 -1253q-13 -67 -18.5 -107.5t-3 -80t20.5 -57.5t53 -18q32 0 84 21l2 -31q-53 -22 -90 -22q-140 0 -99 215zM485 1624l187 326h45l-203 -326h-29z" />
<glyph unicode="&#x13b;" horiz-adv-x="956" d="M205 0l278 1434h35l-272 -1401h647l-6 -33h-682zM430 -350q81 84 96 184h-28l14 70h61l-14 -70q-23 -121 -108 -203z" />
<glyph unicode="&#x13c;" horiz-adv-x="403" d="M78 -350q81 84 96 184h-29l15 70h61l-14 -70q-23 -119 -109 -203zM223 203l260 1333h35l-244 -1253q-13 -67 -18.5 -107.5t-3 -80t20.5 -57.5t53 -18q32 0 84 21l2 -31q-53 -22 -90 -22q-140 0 -99 215z" />
<glyph unicode="&#x13d;" horiz-adv-x="956" d="M205 0l278 1434h35l-272 -1401h647l-6 -33h-682zM852 1112l102 322h43l-116 -322h-29z" />
<glyph unicode="&#x13e;" horiz-adv-x="473" d="M223 203l260 1333h35l-244 -1253q-13 -67 -18.5 -107.5t-3 -80t20.5 -57.5t53 -18q32 0 84 21l2 -31q-53 -22 -90 -22q-140 0 -99 215zM541 1214l102 322h43l-117 -322h-28z" />
<glyph unicode="&#x13f;" horiz-adv-x="993" d="M205 0l278 1434h35l-272 -1401h647l-6 -33h-682zM754 733l14 74h61l-14 -74h-61z" />
<glyph unicode="&#x140;" horiz-adv-x="518" d="M223 203l260 1333h35l-244 -1253q-13 -67 -18.5 -107.5t-3 -80t20.5 -57.5t53 -18q32 0 84 21l2 -31q-53 -22 -90 -22q-140 0 -99 215zM483 735l15 74h61l-14 -74h-62z" />
<glyph unicode="&#x141;" horiz-adv-x="956" d="M166 561l6 37l162 64l149 772h35l-147 -756l436 176l-8 -37l-434 -176l-119 -608h647l-6 -33h-682l121 625z" />
<glyph unicode="&#x142;" horiz-adv-x="534" d="M209 772l6 35l178 76l127 653h35l-125 -637l242 105l-6 -35l-242 -105l-113 -581q-7 -32 -11 -55.5t-7.5 -50t-4 -45.5t0.5 -38t6.5 -31.5t14 -23t21.5 -15t31 -4.5q32 0 84 21l3 -31q-53 -22 -91 -22q-139 0 -98 215l125 645z" />
<glyph unicode="&#x143;" horiz-adv-x="1269" d="M195 0l278 1434h25l555 -1362l264 1362h37l-279 -1434h-31l-552 1354l-263 -1354h-34zM928 1581l186 326h45l-203 -326h-28z" />
<glyph unicode="&#x144;" horiz-adv-x="1097" d="M184 0l217 1118h29l-27 -166q45 36 74 56.5t90 55.5t131.5 53t147.5 18q146 0 205.5 -83t33.5 -216l-161 -836h-35l158 807q28 142 -23 218.5t-201 76.5q-202 0 -426 -187l-178 -915h-35zM750 1274l186 325h45l-203 -325h-28z" />
<glyph unicode="&#x145;" horiz-adv-x="1269" d="M195 0l278 1434h25l555 -1362l264 1362h37l-279 -1434h-31l-552 1354l-263 -1354h-34zM524 -350q82 86 97 184h-29l14 70h62l-15 -70q-23 -121 -108 -203z" />
<glyph unicode="&#x146;" horiz-adv-x="1097" d="M184 0l217 1118h29l-27 -166q45 36 74 56.5t90 55.5t131.5 53t147.5 18q146 0 205.5 -83t33.5 -216l-161 -836h-35l158 807q28 142 -23 218.5t-201 76.5q-202 0 -426 -187l-178 -915h-35zM442 -350q82 86 97 184h-29l14 70h62l-15 -70q-23 -121 -108 -203z" />
<glyph unicode="&#x147;" horiz-adv-x="1269" d="M195 0l278 1434h25l555 -1362l264 1362h37l-279 -1434h-31l-552 1354l-263 -1354h-34zM754 1907h34l168 -283l281 283h41l-311 -326h-29z" />
<glyph unicode="&#x148;" horiz-adv-x="1097" d="M184 0l217 1118h29l-27 -166q45 36 74 56.5t90 55.5t131.5 53t147.5 18q146 0 205.5 -83t33.5 -216l-161 -836h-35l158 807q28 142 -23 218.5t-201 76.5q-202 0 -426 -187l-178 -915h-35zM608 1599h35l168 -282l281 282h41l-312 -325h-28z" />
<glyph unicode="&#x149;" horiz-adv-x="1097" d="M184 0l217 1118h29l-27 -166q45 36 74 56.5t90 55.5t131.5 53t147.5 18q146 0 205.5 -83t33.5 -216l-161 -836h-35l158 807q28 142 -23 218.5t-201 76.5q-202 0 -426 -187l-178 -915h-35zM344 1276q81 84 96 184h-28l14 70h61l-14 -70q-23 -121 -108 -203z" />
<glyph unicode="&#x14a;" horiz-adv-x="1269" d="M195 0l278 1434h25l555 -1362l264 1362h37l-283 -1457q-14 -76 -29.5 -130t-41.5 -109.5t-60 -90t-86 -56t-119 -21.5q-87 0 -131 24l14 31q50 -20 113 -20q51 0 92.5 13t71.5 40.5t51.5 58t39 79t28.5 90t24 102.5l4 16l-550 1350l-263 -1354h-34z" />
<glyph unicode="&#x14b;" horiz-adv-x="1097" d="M184 0l217 1118h29l-27 -166q228 183 443 183q149 0 207 -82.5t32 -216.5l-186 -963q-15 -75 -32 -124t-47.5 -90.5t-79 -61t-119.5 -19.5q-33 0 -66 7t-49 13l-17 7l19 28q64 -22 119 -22q61 0 102.5 17t67 55t39 78t26.5 106l185 940q28 142 -23 218.5t-201 76.5 q-61 0 -126.5 -18.5t-122 -49.5t-98.5 -59.5t-79 -59.5l-178 -915h-35z" />
<glyph unicode="&#x14c;" horiz-adv-x="1167" d="M231 263q-10 87 13 192l102 526q21 109 60 192.5t100.5 147t152 96.5t207.5 33q219 0 301 -124.5t39 -344.5l-102 -526q-92 -471 -522 -471q-111 0 -188 34t-115 96t-48 149zM281 465q-85 -449 307 -449q394 0 483 449l98 506q85 446 -309 446q-396 0 -481 -446z M684 1743l6 33h477l-6 -33h-477z" />
<glyph unicode="&#x14d;" horiz-adv-x="987" d="M205 416l55 286q41 211 146.5 322t308.5 111q370 0 286 -433l-55 -286q-20 -103 -52.5 -179t-85.5 -134.5t-132 -88.5t-184 -30q-371 0 -287 432zM226 257q4 -75 30.5 -128.5t87 -83t154.5 -29.5q97 0 169.5 28.5t120 84.5t77 127.5t48.5 167.5l52 270q20 92 16 167 t-30 128.5t-87 83t-155 29.5q-97 0 -169.5 -28.5t-120.5 -84.5t-77.5 -127.5t-48.5 -167.5l-51 -270q-20 -92 -16 -167zM535 1436l6 32h477l-6 -32h-477z" />
<glyph unicode="&#x14e;" horiz-adv-x="1167" d="M231 263q-10 87 13 192l102 526q21 109 60 192.5t100.5 147t152 96.5t207.5 33q219 0 301 -124.5t39 -344.5l-102 -526q-92 -471 -522 -471q-111 0 -188 34t-115 96t-48 149zM281 465q-85 -449 307 -449q394 0 483 449l98 506q85 446 -309 446q-396 0 -481 -446z M696 1858l4 24h31l-4 -24q-18 -99 32 -140t150 -41q62 0 111 15t89 57t52 109l4 24h31l-4 -24q-35 -213 -289 -213q-50 0 -89.5 11t-71 34.5t-44 66.5t-2.5 101z" />
<glyph unicode="&#x14f;" horiz-adv-x="987" d="M205 416l55 286q41 211 146.5 322t308.5 111q370 0 286 -433l-55 -286q-20 -103 -52.5 -179t-85.5 -134.5t-132 -88.5t-184 -30q-371 0 -287 432zM226 257q4 -75 30.5 -128.5t87 -83t154.5 -29.5q97 0 169.5 28.5t120 84.5t77 127.5t48.5 167.5l52 270q20 92 16 167 t-30 128.5t-87 83t-155 29.5q-97 0 -169.5 -28.5t-120.5 -84.5t-77.5 -127.5t-48.5 -167.5l-51 -270q-20 -92 -16 -167zM553 1550l4 25h31l-4 -25q-18 -99 32 -139.5t150 -40.5q220 0 252 180l4 25h31l-4 -25q-35 -213 -289 -213q-50 0 -89.5 11t-71 34.5t-44 66.5t-2.5 101 z" />
<glyph unicode="&#x150;" horiz-adv-x="1167" d="M231 263q-10 87 13 192l102 526q21 109 60 192.5t100.5 147t152 96.5t207.5 33q219 0 301 -124.5t39 -344.5l-102 -526q-92 -471 -522 -471q-111 0 -188 34t-115 96t-48 149zM281 465q-85 -449 307 -449q394 0 483 449l98 506q85 446 -309 446q-396 0 -481 -446z M807 1581l186 326h45l-202 -326h-29zM991 1581l187 326h45l-203 -326h-29z" />
<glyph unicode="&#x151;" horiz-adv-x="987" d="M205 416l55 286q41 211 146.5 322t308.5 111q370 0 286 -433l-55 -286q-20 -103 -52.5 -179t-85.5 -134.5t-132 -88.5t-184 -30q-371 0 -287 432zM226 257q4 -75 30.5 -128.5t87 -83t154.5 -29.5q97 0 169.5 28.5t120 84.5t77 127.5t48.5 167.5l52 270q20 92 16 167 t-30 128.5t-87 83t-155 29.5q-97 0 -169.5 -28.5t-120.5 -84.5t-77.5 -127.5t-48.5 -167.5l-51 -270q-20 -92 -16 -167zM621 1274l186 325h45l-203 -325h-28zM805 1274l186 325h45l-202 -325h-29z" />
<glyph unicode="&#x152;" horiz-adv-x="1781" d="M244 455l102 526q92 469 520 469q158 0 246 -73.5t98 -188.5l50 246h682l-9 -33h-647l-123 -633h615l-6 -33h-615l-135 -702h647l-8 -33h-682l47 233q-64 -121 -169.5 -185t-274.5 -64q-218 0 -299.5 125.5t-38.5 345.5zM281 465q-85 -449 307 -449q396 0 483 449 l100 524q37 197 -36.5 312.5t-274.5 115.5q-396 0 -481 -446z" />
<glyph unicode="&#x153;" horiz-adv-x="1681" d="M205 416l55 286q41 209 149 321t306 112q291 0 301 -267q113 267 403 267q367 0 287 -433l-31 -161h-704l-23 -117q-20 -92 -16 -167t30.5 -128.5t88 -83t155.5 -29.5q173 0 342 97l17 -29q-180 -100 -365 -100q-293 0 -303 264q-111 -264 -405 -264q-369 0 -287 432z M226 257q4 -75 30.5 -128.5t87 -83t154.5 -29.5q181 0 279 104.5t134 295.5l56 286q38 192 -19.5 296t-238.5 104q-94 0 -166 -29t-121 -84.5t-80 -127.5t-49 -167l-51 -270q-20 -92 -16 -167zM977 573h672l22 121q19 92 15 167t-29.5 128.5t-87 83t-156.5 29.5 q-181 0 -278.5 -106t-135.5 -302z" />
<glyph unicode="&#x154;" horiz-adv-x="1128" d="M205 0l278 1434h318q397 0 397 -299q0 -424 -387 -494l207 -641h-39l-207 635q-58 -6 -127 -6h-283l-122 -629h-35zM369 662h282q261 0 385.5 116t124.5 348q0 62 -17.5 110t-58 86.5t-113.5 58.5t-177 20h-283zM829 1581l187 326h45l-203 -326h-29z" />
<glyph unicode="&#x155;" horiz-adv-x="720" d="M184 0l217 1118h29l-39 -231q29 37 66 73t94 79t132 69.5t153 26.5q40 0 75 -9l-12 -32q-36 8 -84 8q-119 0 -237 -81t-195 -181l-164 -840h-35zM604 1274l187 325h45l-203 -325h-29z" />
<glyph unicode="&#x156;" horiz-adv-x="1128" d="M205 0l278 1434h318q397 0 397 -299q0 -424 -387 -494l207 -641h-39l-207 635q-58 -6 -127 -6h-283l-122 -629h-35zM369 662h282q261 0 385.5 116t124.5 348q0 62 -17.5 110t-58 86.5t-113.5 58.5t-177 20h-283zM459 -350q81 84 96 184h-29l15 70h61l-14 -70 q-23 -119 -109 -203z" />
<glyph unicode="&#x157;" horiz-adv-x="720" d="M109 -350q81 84 96 184h-29l14 70h62l-14 -70q-23 -119 -109 -203zM184 0l217 1118h29l-39 -231q29 37 66 73t94 79t132 69.5t153 26.5q40 0 75 -9l-12 -32q-36 8 -84 8q-119 0 -237 -81t-195 -181l-164 -840h-35z" />
<glyph unicode="&#x158;" horiz-adv-x="1128" d="M205 0l278 1434h318q397 0 397 -299q0 -424 -387 -494l207 -641h-39l-207 635q-58 -6 -127 -6h-283l-122 -629h-35zM369 662h282q261 0 385.5 116t124.5 348q0 62 -17.5 110t-58 86.5t-113.5 58.5t-177 20h-283zM662 1907h34l168 -283l281 283h41l-312 -326h-28z" />
<glyph unicode="&#x159;" horiz-adv-x="720" d="M184 0l217 1118h29l-39 -231q29 37 66 73t94 79t132 69.5t153 26.5q40 0 75 -9l-12 -32q-36 8 -84 8q-119 0 -237 -81t-195 -181l-164 -840h-35zM459 1599h35l168 -282l280 282h41l-311 -325h-29z" />
<glyph unicode="&#x15a;" horiz-adv-x="1048" d="M129 117l23 26q127 -127 358 -127q84 0 153.5 14.5t118 39t85 58.5t58 70t35.5 78.5t18.5 78t4.5 73.5q0 63 -27.5 113.5t-72 82t-101.5 60.5t-116.5 50.5t-116.5 51t-101.5 62t-72 84.5t-27.5 117q0 196 113.5 298.5t343.5 102.5q217 0 350 -133l-20 -27q-59 61 -137 94 t-201 33q-199 0 -307.5 -92t-108.5 -272q0 -70 35 -122.5t91.5 -85.5t124 -61t135.5 -57t124.5 -64.5t91.5 -93t35 -133.5q0 -62 -12 -119.5t-46.5 -120t-89 -108t-149 -75t-217.5 -29.5q-135 0 -228.5 38t-146.5 95zM788 1581l187 326h45l-203 -326h-29z" />
<glyph unicode="&#x15b;" horiz-adv-x="854" d="M111 86l22 27q132 -97 289 -97q103 0 179 25t119 69t63 98t20 118q0 66 -29 114.5t-75.5 77t-102.5 51t-112.5 44t-103 47.5t-75.5 70t-29 104q0 139 94.5 220t284.5 81q158 0 269 -84l-23 -27q-99 80 -246 80q-82 0 -145 -18t-99 -45.5t-59 -64.5t-31 -70t-8 -68 q0 -54 29 -94t75.5 -64.5t102.5 -45.5t112.5 -44.5t103 -53.5t75.5 -80.5t29 -117.5q0 -354 -424 -354q-88 0 -170.5 26.5t-134.5 75.5zM635 1274l186 325h45l-202 -325h-29z" />
<glyph unicode="&#x15c;" horiz-adv-x="1048" d="M129 117l23 26q127 -127 358 -127q84 0 153.5 14.5t118 39t85 58.5t58 70t35.5 78.5t18.5 78t4.5 73.5q0 63 -27.5 113.5t-72 82t-101.5 60.5t-116.5 50.5t-116.5 51t-101.5 62t-72 84.5t-27.5 117q0 196 113.5 298.5t343.5 102.5q217 0 350 -133l-20 -27q-59 61 -137 94 t-201 33q-199 0 -307.5 -92t-108.5 -272q0 -70 35 -122.5t91.5 -85.5t124 -61t135.5 -57t124.5 -64.5t91.5 -93t35 -133.5q0 -62 -12 -119.5t-46.5 -120t-89 -108t-149 -75t-217.5 -29.5q-135 0 -228.5 38t-146.5 95zM578 1581l311 326h29l184 -326h-33l-170 283l-283 -283 h-38z" />
<glyph unicode="&#x15d;" horiz-adv-x="854" d="M111 86l22 27q132 -97 289 -97q103 0 179 25t119 69t63 98t20 118q0 66 -29 114.5t-75.5 77t-102.5 51t-112.5 44t-103 47.5t-75.5 70t-29 104q0 139 94.5 220t284.5 81q158 0 269 -84l-23 -27q-99 80 -246 80q-82 0 -145 -18t-99 -45.5t-59 -64.5t-31 -70t-8 -68 q0 -54 29 -94t75.5 -64.5t102.5 -45.5t112.5 -44.5t103 -53.5t75.5 -80.5t29 -117.5q0 -354 -424 -354q-88 0 -170.5 26.5t-134.5 75.5zM436 1274l312 325h28l185 -325h-33l-170 282l-283 -282h-39z" />
<glyph unicode="&#x15e;" horiz-adv-x="1048" d="M129 117l23 26q127 -127 358 -127q84 0 153.5 14.5t118 39t85 58.5t58 70t35.5 78.5t18.5 78t4.5 73.5q0 63 -27.5 113.5t-72 82t-101.5 60.5t-116.5 50.5t-116.5 51t-101.5 62t-72 84.5t-27.5 117q0 196 113.5 298.5t343.5 102.5q217 0 350 -133l-20 -27q-59 61 -137 94 t-201 33q-199 0 -307.5 -92t-108.5 -272q0 -70 35 -122.5t91.5 -85.5t124 -61t135.5 -57t124.5 -64.5t91.5 -93t35 -133.5q0 -62 -12 -119.5t-46.5 -120t-89 -108t-149 -75t-217.5 -29.5h-15l-51 -136q30 9 66 9q131 0 131 -99q0 -75 -41.5 -118t-149.5 -43q-69 0 -129 24 l15 29q62 -21 119 -21q88 0 118.5 30.5t30.5 96.5q0 70 -102 70q-40 0 -78 -10l-19 14l60 156q-221 11 -330 131z" />
<glyph unicode="&#x15f;" horiz-adv-x="854" d="M111 86l22 27q132 -97 289 -97q103 0 179 25t119 69t63 98t20 118q0 66 -29 114.5t-75.5 77t-102.5 51t-112.5 44t-103 47.5t-75.5 70t-29 104q0 139 94.5 220t284.5 81q158 0 269 -84l-23 -27q-99 80 -246 80q-82 0 -145 -18t-99 -45.5t-59 -64.5t-31 -70t-8 -68 q0 -54 29 -94t75.5 -64.5t102.5 -45.5t112.5 -44.5t103 -53.5t75.5 -80.5t29 -117.5q0 -354 -424 -354h-21l-53 -136q30 9 66 9q131 0 131 -99q0 -75 -41.5 -118t-149.5 -43q-69 0 -129 24l14 29q61 -21 119 -21q88 0 119 30.5t31 96.5q0 70 -103 70q-39 0 -77 -10l-19 14 l59 156q-165 17 -251 100z" />
<glyph unicode="&#x160;" horiz-adv-x="1040" d="M129 117l23 26q127 -127 358 -127q84 0 153.5 14.5t118 39t85 58.5t58 70t35.5 78.5t18.5 78t4.5 73.5q0 63 -27.5 113.5t-72 82t-101.5 60.5t-116.5 50.5t-116.5 51t-101.5 62t-72 84.5t-27.5 117q0 196 113.5 298.5t343.5 102.5q217 0 350 -133l-20 -27q-59 61 -137 94 t-201 33q-199 0 -307.5 -92t-108.5 -272q0 -70 35 -122.5t91.5 -85.5t124 -61t135.5 -57t124.5 -64.5t91.5 -93t35 -133.5q0 -62 -12 -119.5t-46.5 -120t-89 -108t-149 -75t-217.5 -29.5q-135 0 -228.5 38t-146.5 95zM655 1913h35l168 -283l281 283h41l-312 -326h-28z" />
<glyph unicode="&#x161;" horiz-adv-x="872" d="M111 86l22 27q132 -97 289 -97q103 0 179 25t119 69t63 98t20 118q0 66 -29 114.5t-75.5 77t-102.5 51t-112.5 44t-103 47.5t-75.5 70t-29 104q0 139 94.5 220t284.5 81q158 0 269 -84l-23 -27q-99 80 -246 80q-82 0 -145 -18t-99 -45.5t-59 -64.5t-31 -70t-8 -68 q0 -54 29 -94t75.5 -64.5t102.5 -45.5t112.5 -44.5t103 -53.5t75.5 -80.5t29 -117.5q0 -354 -424 -354q-88 0 -170.5 26.5t-134.5 75.5zM500 1599h35l167 -282l281 282h41l-311 -325h-29z" />
<glyph unicode="&#x162;" horiz-adv-x="1017" d="M336 -379l14 29q61 -21 119 -21q88 0 118.5 30.5t30.5 96.5q0 70 -102 70q-40 0 -78 -10l-18 14l72 170l272 1401h-414l6 33h861l-7 -33h-411l-273 -1401l-67 -152q30 9 65 9q131 0 131 -99q0 -75 -41 -118t-149 -43q-69 0 -129 24z" />
<glyph unicode="&#x163;" horiz-adv-x="741" d="M213 -379l14 29q61 -21 119 -21q88 0 119 30.5t31 96.5q0 70 -103 70q-40 0 -78 -10l-18 14l74 188q-54 29 -63.5 100.5t14.5 170.5l155 796h-203l7 27l202 6l47 238l35 6l-47 -244h299l-6 -33h-299l-156 -802q-9 -43 -12.5 -73t-3.5 -61.5t9 -52t26 -37t46.5 -24.5 t70.5 -8q62 0 129 24l4 -31q-63 -26 -140 -26q-46 0 -88 10l-61 -156q30 9 65 9q131 0 131 -99q0 -75 -41 -118t-149 -43q-69 0 -129 24z" />
<glyph unicode="&#x164;" horiz-adv-x="1017" d="M350 1401l6 33h861l-7 -33h-411l-273 -1401h-34l272 1401h-414zM621 1907h34l168 -283l281 283h41l-311 -326h-29z" />
<glyph unicode="&#x165;" horiz-adv-x="741" d="M274 1085l7 27l202 6l47 238l35 6l-47 -244h299l-6 -33h-299l-156 -802q-9 -44 -13 -73t-4 -61.5t8.5 -52t25.5 -37t47.5 -25t73.5 -7.5q68 0 129 22l2 -29q-63 -26 -140 -26q-128 0 -161 67.5t-5 214.5l158 809h-203zM719 1214l102 322h43l-116 -322h-29z" />
<glyph unicode="&#x166;" horiz-adv-x="1017" d="M350 1401l6 33h861l-7 -33h-411l-109 -561h295l-6 -33h-295l-158 -807h-34l157 807h-297l6 33h297l109 561h-414z" />
<glyph unicode="&#x167;" horiz-adv-x="741" d="M215 698l6 31h187l69 356h-203l5 27l204 6l45 238l37 6l-47 -244h299l-6 -33h-299l-70 -356h283l-6 -31h-283l-80 -415q-9 -43 -12.5 -73t-3.5 -61.5t9 -52t26 -37t46.5 -24.5t70.5 -8q66 0 129 24l4 -31q-67 -26 -140 -26q-93 0 -136 36t-43.5 101.5t16.5 157.5l79 409 h-186z" />
<glyph unicode="&#x168;" horiz-adv-x="1159" d="M238 428l194 1006h35l-193 -996q-41 -209 30.5 -315.5t279.5 -106.5q209 0 320 106t153 316l192 996h35l-194 -1006q-21 -110 -57.5 -189t-95.5 -138t-148 -88t-209 -29q-429 0 -342 444zM608 1667q52 67 91.5 94t88.5 27q37 0 71 -18.5t56 -41t56 -41t71 -18.5 q44 0 77.5 27t74.5 80l23 -21q-47 -65 -89 -93t-92 -28q-35 0 -65 12.5t-51.5 30t-41.5 34.5t-44 29.5t-50 12.5q-45 0 -77 -25.5t-76 -80.5z" />
<glyph unicode="&#x169;" horiz-adv-x="1089" d="M229 283l162 835h37l-158 -807q-29 -144 23 -219.5t203 -75.5q200 0 424 187l178 915h35l-218 -1118h-28l26 166q-43 -34 -74.5 -56t-91 -56t-129.5 -52t-145 -18q-147 0 -208.5 83.5t-35.5 215.5zM526 1360q52 67 92 94t89 27q37 0 71 -18.5t56 -41t56 -41t71 -18.5 q31 0 60 17t46.5 35.5t44.5 53.5l23 -20q-47 -65 -89 -93t-92 -28q-35 0 -65 12.5t-51.5 29.5t-41.5 34.5t-44 30t-50 12.5q-45 0 -77 -26t-76 -81z" />
<glyph unicode="&#x16a;" horiz-adv-x="1159" d="M238 428l194 1006h35l-193 -996q-41 -209 30.5 -315.5t279.5 -106.5q209 0 320 106t153 316l192 996h35l-194 -1006q-21 -110 -57.5 -189t-95.5 -138t-148 -88t-209 -29q-429 0 -342 444zM684 1743l6 33h477l-6 -33h-477z" />
<glyph unicode="&#x16b;" horiz-adv-x="1089" d="M229 283l162 835h37l-158 -807q-29 -144 23 -219.5t203 -75.5q200 0 424 187l178 915h35l-218 -1118h-28l26 166q-43 -34 -74.5 -56t-91 -56t-129.5 -52t-145 -18q-147 0 -208.5 83.5t-35.5 215.5zM588 1436l6 32h477l-6 -32h-477z" />
<glyph unicode="&#x16c;" horiz-adv-x="1159" d="M238 428l194 1006h35l-193 -996q-41 -209 30.5 -315.5t279.5 -106.5q209 0 320 106t153 316l192 996h35l-194 -1006q-21 -110 -57.5 -189t-95.5 -138t-148 -88t-209 -29q-429 0 -342 444zM694 1858l4 24h31l-4 -24q-18 -99 32 -140t150 -41q62 0 111 15t89 57t52 109 l4 24h31l-4 -24q-35 -213 -289 -213q-50 0 -89.5 11t-71 34.5t-44 66.5t-2.5 101z" />
<glyph unicode="&#x16d;" horiz-adv-x="1089" d="M229 283l162 835h37l-158 -807q-29 -144 23 -219.5t203 -75.5q200 0 424 187l178 915h35l-218 -1118h-28l26 166q-43 -34 -74.5 -56t-91 -56t-129.5 -52t-145 -18q-147 0 -208.5 83.5t-35.5 215.5zM612 1550l4 25h31l-4 -25q-18 -99 32 -139.5t150 -40.5q220 0 252 180 l4 25h31l-4 -25q-35 -213 -289 -213q-50 0 -89.5 11t-71 34.5t-44 66.5t-2.5 101z" />
<glyph unicode="&#x16e;" horiz-adv-x="1159" d="M238 428l194 1006h35l-193 -996q-41 -209 30.5 -315.5t279.5 -106.5q209 0 320 106t153 316l192 996h35l-194 -1006q-21 -110 -57.5 -189t-95.5 -138t-148 -88t-209 -29q-429 0 -342 444zM721 1702q0 105 63 167t168 62q76 0 121 -40.5t45 -112.5q0 -106 -63.5 -167 t-167.5 -61q-76 0 -121 40.5t-45 111.5zM750 1706q0 -61 35.5 -94t103.5 -33q94 0 147.5 53.5t53.5 143.5q0 61 -36 94t-104 33q-93 0 -146.5 -53.5t-53.5 -143.5z" />
<glyph unicode="&#x16f;" horiz-adv-x="1089" d="M229 283l162 835h37l-158 -807q-29 -144 23 -219.5t203 -75.5q200 0 424 187l178 915h35l-218 -1118h-28l26 166q-43 -34 -74.5 -56t-91 -56t-129.5 -52t-145 -18q-147 0 -208.5 83.5t-35.5 215.5zM637 1395q0 105 63 167t168 62q76 0 121 -40.5t45 -113.5 q0 -106 -63.5 -166.5t-167.5 -60.5q-76 0 -121 40.5t-45 111.5zM666 1399q0 -61 35.5 -94t103.5 -33q94 0 147.5 53t53.5 143q0 61 -36 94t-104 33q-93 0 -146.5 -53t-53.5 -143z" />
<glyph unicode="&#x170;" horiz-adv-x="1159" d="M238 428l194 1006h35l-193 -996q-41 -209 30.5 -315.5t279.5 -106.5q209 0 320 106t153 316l192 996h35l-194 -1006q-21 -110 -57.5 -189t-95.5 -138t-148 -88t-209 -29q-429 0 -342 444zM758 1581l186 326h45l-203 -326h-28zM942 1581l186 326h46l-203 -326h-29z" />
<glyph unicode="&#x171;" horiz-adv-x="1089" d="M229 283l162 835h37l-158 -807q-29 -144 23 -219.5t203 -75.5q200 0 424 187l178 915h35l-218 -1118h-28l26 166q-43 -34 -74.5 -56t-91 -56t-129.5 -52t-145 -18q-147 0 -208.5 83.5t-35.5 215.5zM668 1274l186 325h45l-203 -325h-28zM852 1274l186 325h45l-202 -325 h-29z" />
<glyph unicode="&#x172;" horiz-adv-x="1159" d="M238 428l194 1006h35l-193 -996q-41 -209 30.5 -315.5t279.5 -106.5q209 0 320 106t153 316l192 996h35l-194 -1006q-57 -295 -254 -395q-143 -72 -229.5 -154.5t-86.5 -163.5q0 -86 101 -86q49 0 106 23l6 -27q-58 -28 -121 -28q-56 0 -91.5 26t-35.5 86q0 76 62 150.5 t158 134.5q-65 -10 -125 -10q-429 0 -342 444z" />
<glyph unicode="&#x173;" horiz-adv-x="1089" d="M229 283l162 835h37l-158 -807q-29 -144 23 -219.5t203 -75.5q200 0 424 187l178 915h35l-218 -1118q-121 -47 -201.5 -124t-80.5 -161q0 -86 100 -86q49 0 107 23l6 -27q-58 -28 -121 -28q-56 0 -91.5 26t-35.5 86q0 95 81 175.5t210 133.5l24 148q-43 -34 -74.5 -56 t-91 -56t-129.5 -52t-145 -18q-147 0 -208.5 83.5t-35.5 215.5z" />
<glyph unicode="&#x174;" horiz-adv-x="1626" d="M338 1434h39l72 -1381l622 1381h39l86 -1381l606 1381h43l-635 -1434h-47l-86 1360l-614 -1360h-47zM858 1581l311 326h29l184 -326h-32l-170 283l-283 -283h-39z" />
<glyph unicode="&#x175;" horiz-adv-x="1409" d="M281 1118h36l95 -1069l489 1069h35l74 -1069l508 1069h41l-539 -1118h-39l-76 1047l-481 -1047h-39zM690 1274l311 325h29l184 -325h-32l-170 282l-283 -282h-39z" />
<glyph unicode="&#x176;" horiz-adv-x="1087" d="M340 1434h39l285 -799l598 799h43l-629 -838l-115 -596h-35l115 596zM594 1581l311 326h29l184 -326h-33l-170 283l-282 -283h-39z" />
<glyph unicode="&#x177;" horiz-adv-x="1089" d="M152 -344l18 29q144 -82 317 -82q144 0 244.5 74t128.5 219l53 270q-43 -34 -74.5 -56t-91 -56t-129.5 -52t-145 -18q-147 0 -208.5 83.5t-35.5 215.5l162 835h37l-158 -807q-29 -144 23 -219.5t203 -75.5q200 0 424 187l178 915h35l-238 -1218q-64 -330 -414 -330 q-186 0 -329 86zM528 1274l312 325h28l185 -325h-33l-170 282l-283 -282h-39z" />
<glyph unicode="&#x178;" horiz-adv-x="1087" d="M340 1434h39l285 -799l598 799h43l-629 -838l-115 -596h-35l115 596zM680 1675l14 70h66l-15 -70h-65zM993 1675l15 70h65l-14 -70h-66z" />
<glyph unicode="&#x179;" horiz-adv-x="1003" d="M109 0l4 25l1015 1376h-716l6 33h764l-4 -23l-1014 -1378h745l-6 -33h-794zM803 1581l186 326h45l-203 -326h-28z" />
<glyph unicode="&#x17a;" horiz-adv-x="927" d="M92 0l4 25l897 1060h-671l6 33h723l-4 -24l-895 -1061h688l-6 -33h-742zM680 1274l186 325h45l-202 -325h-29z" />
<glyph unicode="&#x17b;" horiz-adv-x="1003" d="M109 0l4 25l1015 1376h-716l6 33h764l-4 -23l-1014 -1378h745l-6 -33h-794zM797 1696l14 69h66l-15 -69h-65z" />
<glyph unicode="&#x17c;" horiz-adv-x="927" d="M92 0l4 25l897 1060h-671l6 33h723l-4 -24l-895 -1061h688l-6 -33h-742zM676 1389l14 69h66l-15 -69h-65z" />
<glyph unicode="&#x17d;" horiz-adv-x="1003" d="M109 0l4 25l1015 1376h-716l6 33h764l-4 -23l-1014 -1378h745l-6 -33h-794zM610 1913h35l168 -283l281 283h41l-312 -326h-28z" />
<glyph unicode="&#x17e;" horiz-adv-x="927" d="M92 0l4 25l897 1060h-671l6 33h723l-4 -24l-895 -1061h688l-6 -33h-742zM500 1599h35l167 -282l281 282h41l-311 -325h-29z" />
<glyph unicode="&#x192;" horiz-adv-x="933" d="M-117 -399l15 24q56 -22 110 -22q108 0 163 66t75 190l172 1081h-203l6 27l201 6l41 270q22 147 88.5 221t189.5 74q66 0 119 -29l-14 -26q-49 22 -111 22q-108 0 -163 -68.5t-74 -193.5l-41 -270h301l-6 -33h-299l-172 -1075q-47 -295 -279 -295q-69 0 -119 31z" />
<glyph unicode="&#x1e2;" horiz-adv-x="1585" d="M72 0l755 1434h914l-6 -33h-869l88 -633h625l-6 -33h-612l96 -702h411l-6 -33h-438l-68 479h-594l-249 -479h-41zM383 512h571l-118 864zM1059 1743l6 33h477l-6 -33h-477z" />
<glyph unicode="&#x1e3;" horiz-adv-x="1677" d="M174 236q0 122 60 213.5t169 146t248.5 80.5t311.5 26l20 107q29 148 -39 220.5t-219 72.5q-156 0 -334 -90l-12 30q186 93 352 93q292 0 295 -234q116 234 385 234q101 0 168 -31t98.5 -87.5t38 -136.5t-13.5 -178l-31 -161h-706l-23 -117q-20 -92 -15.5 -167t31 -128.5 t88.5 -83t156 -29.5q177 0 346 97l13 -29q-184 -100 -365 -100q-149 0 -221.5 67t-81.5 197q-58 -116 -167.5 -190t-254.5 -74q-142 0 -219.5 69t-77.5 183zM209 240q0 -103 72.5 -163.5t203.5 -60.5q153 0 267.5 99.5t140.5 234.5l61 320q-161 0 -294 -25t-235.5 -76 t-159 -134.5t-56.5 -194.5zM891 1436l6 32h477l-6 -32h-477zM971 573h674l22 121q19 92 15 167t-29.5 128.5t-87 83t-156.5 29.5q-181 0 -278.5 -106t-135.5 -302z" />
<glyph unicode="&#x1fa;" horiz-adv-x="1138" d="M72 0l735 1391q-60 8 -95.5 47t-35.5 102q0 106 64 167.5t173 61.5q75 0 118.5 -40t43.5 -113q0 -96 -58.5 -157t-148.5 -70l199 -1389h-41l-65 479h-594l-252 -479h-43zM385 512h571l-120 864zM707 1544q0 -61 35.5 -94t103.5 -33q93 0 147 53.5t54 143.5 q0 60 -36.5 93.5t-103.5 33.5q-91 0 -145.5 -54t-54.5 -143zM889 1812l186 326h45l-202 -326h-29z" />
<glyph unicode="&#x1fb;" horiz-adv-x="1024" d="M199 389l67 340q40 203 138 304.5t278 101.5q215 0 334 -177l39 160h26l-161 -835q-7 -33 -11 -55.5t-8 -50t-4.5 -45.5t0.5 -38t6.5 -32t14 -22.5t22 -15t31.5 -4.5q31 0 84 21l2 -31q-53 -22 -90 -22q-119 0 -103 166q-70 -68 -169 -119t-220 -51q-177 0 -246 105 t-30 300zM236 397q-37 -190 20 -285.5t229 -95.5q202 0 385 187l138 712q-41 74 -126.5 130.5t-197.5 56.5q-166 0 -257 -95.5t-128 -285.5zM606 1395q0 105 63.5 167t168.5 62q17 0 45 -4l174 301h45l-193 -309q45 -15 70 -52t25 -90q0 -106 -64 -166.5t-168 -60.5 q-76 0 -121 40.5t-45 111.5zM635 1399q0 -61 35.5 -94t103.5 -33q94 0 147.5 53t53.5 143q0 61 -35.5 94t-103.5 33q-93 0 -147 -53t-54 -143z" />
<glyph unicode="&#x1fc;" horiz-adv-x="1583" d="M72 0l755 1434h914l-6 -33h-869l88 -633h625l-6 -33h-612l96 -702h411l-6 -33h-438l-68 479h-594l-249 -479h-41zM383 512h571l-118 864zM1184 1581l186 326h45l-203 -326h-28z" />
<glyph unicode="&#x1fd;" horiz-adv-x="1677" d="M174 236q0 122 60 213.5t169 146t248.5 80.5t311.5 26l20 107q29 148 -39 220.5t-219 72.5q-156 0 -334 -90l-12 30q186 93 352 93q292 0 295 -234q116 234 385 234q101 0 168 -31t98.5 -87.5t38 -136.5t-13.5 -178l-31 -161h-706l-23 -117q-20 -92 -15.5 -167t31 -128.5 t88.5 -83t156 -29.5q177 0 346 97l13 -29q-184 -100 -365 -100q-149 0 -221.5 67t-81.5 197q-58 -116 -167.5 -190t-254.5 -74q-142 0 -219.5 69t-77.5 183zM209 240q0 -103 72.5 -163.5t203.5 -60.5q153 0 267.5 99.5t140.5 234.5l61 320q-161 0 -294 -25t-235.5 -76 t-159 -134.5t-56.5 -194.5zM971 573h674l22 121q19 92 15 167t-29.5 128.5t-87 83t-156.5 29.5q-181 0 -278.5 -106t-135.5 -302zM1067 1274l186 325h45l-202 -325h-29z" />
<glyph unicode="&#x1fe;" horiz-adv-x="1167" d="M238 -74l81 137q-131 119 -75 392l102 526q21 109 60 192.5t100.5 147t152 96.5t207.5 33q147 0 236 -61l69 118h35l-80 -137q133 -115 80 -389l-102 -526q-92 -471 -522 -471q-151 0 -240 61l-70 -119h-34zM281 465q-50 -258 59 -367l743 1260q-80 59 -223 59 q-396 0 -481 -446zM362 78q81 -62 226 -62q394 0 483 449l98 506q49 258 -63 368zM854 1581l186 326h45l-202 -326h-29z" />
<glyph unicode="&#x1ff;" horiz-adv-x="987" d="M205 416l55 286q41 211 146.5 322t308.5 111q108 0 178 -39l61 104h37l-71 -121q134 -98 81 -377l-55 -286q-20 -103 -52.5 -179t-85.5 -134.5t-132 -88.5t-184 -30q-114 0 -189 43l-57 -101h-37l70 119q-126 103 -74 371zM242 424q-50 -253 55 -348l577 989 q-66 37 -165 37q-97 0 -169.5 -28.5t-120.5 -84.5t-77.5 -127.5t-48.5 -167.5zM322 57q65 -41 176 -41q97 0 169.5 28.5t120 84.5t77 127.5t48.5 167.5l52 270q51 262 -64 355zM700 1274l187 325h45l-203 -325h-29z" />
<glyph unicode="&#x218;" horiz-adv-x="1048" d="M129 117l23 26q127 -127 358 -127q84 0 153.5 14.5t118 39t85 58.5t58 70t35.5 78.5t18.5 78t4.5 73.5q0 63 -27.5 113.5t-72 82t-101.5 60.5t-116.5 50.5t-116.5 51t-101.5 62t-72 84.5t-27.5 117q0 196 113.5 298.5t343.5 102.5q217 0 350 -133l-20 -27q-59 61 -137 94 t-201 33q-199 0 -307.5 -92t-108.5 -272q0 -70 35 -122.5t91.5 -85.5t124 -61t135.5 -57t124.5 -64.5t91.5 -93t35 -133.5q0 -62 -12 -119.5t-46.5 -120t-89 -108t-149 -75t-217.5 -29.5q-135 0 -228.5 38t-146.5 95zM397 -350q82 86 97 184h-29l14 70h62l-15 -70 q-23 -121 -108 -203z" />
<glyph unicode="&#x219;" horiz-adv-x="854" d="M111 86l22 27q132 -97 289 -97q103 0 179 25t119 69t63 98t20 118q0 66 -29 114.5t-75.5 77t-102.5 51t-112.5 44t-103 47.5t-75.5 70t-29 104q0 139 94.5 220t284.5 81q158 0 269 -84l-23 -27q-99 80 -246 80q-82 0 -145 -18t-99 -45.5t-59 -64.5t-31 -70t-8 -68 q0 -54 29 -94t75.5 -64.5t102.5 -45.5t112.5 -44.5t103 -53.5t75.5 -80.5t29 -117.5q0 -354 -424 -354q-88 0 -170.5 26.5t-134.5 75.5zM309 -350q82 86 97 184h-29l14 70h62l-15 -70q-23 -121 -108 -203z" />
<glyph unicode="&#x21a;" horiz-adv-x="1017" d="M350 1401l6 33h861l-7 -33h-411l-273 -1401h-34l272 1401h-414zM385 -350q81 84 96 184h-28l14 70h61l-14 -70q-23 -121 -108 -203z" />
<glyph unicode="&#x21b;" horiz-adv-x="741" d="M274 1085l7 27l202 6l47 238l35 6l-47 -244h299l-6 -33h-299l-156 -802q-9 -44 -13 -73t-4 -61.5t8.5 -52t25.5 -37t47.5 -25t73.5 -7.5q68 0 129 22l2 -29q-63 -26 -140 -26q-128 0 -161 67.5t-5 214.5l158 809h-203zM322 -350q81 84 96 184h-29l14 70h62l-14 -70 q-23 -119 -109 -203z" />
<glyph unicode="&#x237;" horiz-adv-x="471" d="M-147 -395l14 30q67 -24 119 -24q104 0 158 65t79 191l238 1218h-203l8 33h236l-242 -1245q-15 -75 -32 -124t-47.5 -90.5t-79 -61t-119.5 -19.5q-33 0 -65 7t-48 13z" />
<glyph unicode="&#x2c6;" horiz-adv-x="856" d="M414 1274l311 325h29l184 -325h-33l-170 282l-282 -282h-39z" />
<glyph unicode="&#x2c7;" horiz-adv-x="856" d="M477 1599h35l168 -282l281 282h40l-311 -325h-28z" />
<glyph unicode="&#x2d8;" horiz-adv-x="700" d="M403 1550l5 25h30l-4 -25q-18 -99 32 -139.5t150 -40.5q220 0 252 180l4 25h31l-4 -25q-35 -213 -289 -213q-50 0 -89.5 11t-71 34.5t-44 66.5t-2.5 101z" />
<glyph unicode="&#x2d9;" horiz-adv-x="360" d="M418 1389l14 69h66l-15 -69h-65z" />
<glyph unicode="&#x2da;" horiz-adv-x="833" d="M496 1395q0 105 63 167t168 62q76 0 121 -40.5t45 -113.5q0 -106 -63.5 -166.5t-167.5 -60.5q-76 0 -121 40.5t-45 111.5zM524 1399q0 -61 36 -94t104 -33q94 0 147 53t53 143q0 61 -35.5 94t-103.5 33q-93 0 -147 -53t-54 -143z" />
<glyph unicode="&#x2db;" horiz-adv-x="940" d="M283 -291q0 92 73.5 167t180.5 124h63q-121 -47 -202 -124t-81 -161q0 -86 101 -86q49 0 106 23l6 -27q-58 -28 -120 -28q-56 0 -91.5 26t-35.5 86z" />
<glyph unicode="&#x2dc;" horiz-adv-x="743" d="M340 1360q52 67 91.5 94t88.5 27q37 0 71 -18.5t56 -41t56 -41t71 -18.5q44 0 77.5 27t74.5 79l22 -20q-47 -66 -88.5 -93.5t-91.5 -27.5q-35 0 -65 12.5t-51.5 29.5t-41.5 34.5t-44 30t-50 12.5q-31 0 -60 -16t-47 -35.5t-47 -55.5z" />
<glyph unicode="&#x2dd;" horiz-adv-x="757" d="M453 1274l186 325h45l-203 -325h-28zM637 1274l186 325h45l-202 -325h-29z" />
<glyph unicode="&#x1e80;" horiz-adv-x="1626" d="M338 1434h39l72 -1381l622 1381h39l86 -1381l606 1381h43l-635 -1434h-47l-86 1360l-614 -1360h-47zM1040 1907h43l60 -326h-27z" />
<glyph unicode="&#x1e81;" horiz-adv-x="1409" d="M281 1118h36l95 -1069l489 1069h35l74 -1069l508 1069h41l-539 -1118h-39l-76 1047l-481 -1047h-39zM844 1599h43l59 -325h-26z" />
<glyph unicode="&#x1e82;" horiz-adv-x="1626" d="M338 1434h39l72 -1381l622 1381h39l86 -1381l606 1381h43l-635 -1434h-47l-86 1360l-614 -1360h-47zM1106 1581l186 326h45l-202 -326h-29z" />
<glyph unicode="&#x1e83;" horiz-adv-x="1409" d="M281 1118h36l95 -1069l489 1069h35l74 -1069l508 1069h41l-539 -1118h-39l-76 1047l-481 -1047h-39zM903 1274l187 325h45l-203 -325h-29z" />
<glyph unicode="&#x1e84;" horiz-adv-x="1626" d="M338 1434h39l72 -1381l622 1381h39l86 -1381l606 1381h43l-635 -1434h-47l-86 1360l-614 -1360h-47zM952 1675l15 70h65l-14 -70h-66zM1266 1675l14 70h66l-15 -70h-65z" />
<glyph unicode="&#x1e85;" horiz-adv-x="1409" d="M281 1118h36l95 -1069l489 1069h35l74 -1069l508 1069h41l-539 -1118h-39l-76 1047l-481 -1047h-39zM762 1368l14 70h66l-15 -70h-65zM1075 1368l15 70h65l-14 -70h-66z" />
<glyph unicode="&#x1ef2;" horiz-adv-x="1087" d="M340 1434h39l285 -799l598 799h43l-629 -838l-115 -596h-35l115 596zM782 1907h43l60 -326h-27z" />
<glyph unicode="&#x1ef3;" horiz-adv-x="1089" d="M152 -344l18 29q144 -82 317 -82q144 0 244.5 74t128.5 219l53 270q-43 -34 -74.5 -56t-91 -56t-129.5 -52t-145 -18q-147 0 -208.5 83.5t-35.5 215.5l162 835h37l-158 -807q-29 -144 23 -219.5t203 -75.5q200 0 424 187l178 915h35l-238 -1218q-64 -330 -414 -330 q-186 0 -329 86zM702 1599h43l60 -325h-27z" />
<glyph unicode="&#x2000;" horiz-adv-x="1069" />
<glyph unicode="&#x2001;" horiz-adv-x="2138" />
<glyph unicode="&#x2002;" horiz-adv-x="1069" />
<glyph unicode="&#x2003;" horiz-adv-x="2138" />
<glyph unicode="&#x2004;" horiz-adv-x="712" />
<glyph unicode="&#x2005;" horiz-adv-x="534" />
<glyph unicode="&#x2006;" horiz-adv-x="356" />
<glyph unicode="&#x2007;" horiz-adv-x="356" />
<glyph unicode="&#x2008;" horiz-adv-x="267" />
<glyph unicode="&#x2009;" horiz-adv-x="427" />
<glyph unicode="&#x200a;" horiz-adv-x="118" />
<glyph unicode="&#x2010;" horiz-adv-x="710" d="M217 631l6 31h522l-6 -31h-522z" />
<glyph unicode="&#x2011;" horiz-adv-x="710" d="M217 631l6 31h522l-6 -31h-522z" />
<glyph unicode="&#x2012;" horiz-adv-x="710" d="M217 631l6 31h522l-6 -31h-522z" />
<glyph unicode="&#x2013;" horiz-adv-x="985" d="M217 631l6 31h797l-6 -31h-797z" />
<glyph unicode="&#x2014;" horiz-adv-x="1626" d="M217 631l6 31h1438l-6 -31h-1438z" />
<glyph unicode="&#x2018;" horiz-adv-x="294" d="M340 1245l12 66q21 113 121 209l21 -19q-46 -48 -70.5 -85.5t-36.5 -96.5h31l-15 -74h-63z" />
<glyph unicode="&#x2019;" horiz-adv-x="294" d="M334 1245q45 47 70 86.5t36 95.5h-30l14 74h63l-12 -65q-21 -113 -121 -209z" />
<glyph unicode="&#x201a;" horiz-adv-x="376" d="M82 -182q43 45 69 86.5t37 95.5h-30l14 74h64l-13 -66q-21 -113 -121 -209z" />
<glyph unicode="&#x201c;" horiz-adv-x="475" d="M340 1245l12 66q21 113 121 209l21 -19q-46 -48 -70.5 -85.5t-36.5 -96.5h31l-15 -74h-63zM520 1245l12 66q21 113 121 209l21 -19q-46 -48 -70.5 -85.5t-36.5 -96.5h31l-14 -74h-64z" />
<glyph unicode="&#x201d;" horiz-adv-x="475" d="M334 1245q45 47 70 86.5t36 95.5h-30l14 74h63l-12 -65q-21 -113 -121 -209zM514 1245q46 47 71 86.5t36 95.5h-31l14 74h64l-13 -65q-21 -115 -120 -209z" />
<glyph unicode="&#x201e;" horiz-adv-x="557" d="M82 -182q45 47 70 86.5t36 95.5h-30l14 74h64l-13 -66q-21 -113 -121 -209zM262 -182q46 47 71 86.5t36 95.5h-31l14 74h64l-13 -66q-21 -115 -120 -209z" />
<glyph unicode="&#x2020;" horiz-adv-x="669" d="M268 987l8 39l240 -4l92 487h43l-100 -487l248 4l-8 -39l-246 4l-211 -1075h-31l207 1075z" />
<glyph unicode="&#x2021;" horiz-adv-x="669" d="M154 399l8 39l239 -4l109 557l-242 -4l6 39l242 -4l90 487h43l-98 -487l246 4l-6 -39l-246 4l-109 -557l248 4l-8 -39l-246 4l-90 -487h-43l98 487z" />
<glyph unicode="&#x2022;" horiz-adv-x="753" d="M217 573q0 140 96 233t238 93q106 0 166.5 -61t60.5 -162q0 -140 -96 -233t-238 -93q-105 0 -166 61t-61 162z" />
<glyph unicode="&#x202f;" horiz-adv-x="427" />
<glyph unicode="&#x2030;" horiz-adv-x="2138" d="M301 979l37 192q28 146 97.5 212.5t195.5 66.5q124 0 169.5 -67t16.5 -212l-39 -192q-29 -147 -98 -213t-195 -66q-123 0 -167.5 66.5t-16.5 212.5zM334 987q-27 -135 8.5 -195.5t149.5 -60.5q111 0 170 61t86 195l34 176q27 135 -8.5 195.5t-148.5 60.5q-111 0 -170 -61 t-86 -195zM434 -59l875 1552h37l-873 -1552h-39zM969 262l39 193q29 147 97.5 212.5t194.5 65.5q124 0 170 -66.5t17 -211.5l-39 -193q-29 -147 -98 -212.5t-195 -65.5q-124 0 -169.5 66.5t-16.5 211.5zM1004 270q-27 -135 8.5 -195.5t148.5 -60.5q111 0 170 61t86 195 l35 176q27 135 -8.5 195.5t-149.5 60.5q-111 0 -170 -61t-86 -195zM1597 262l39 193q29 147 98 212.5t195 65.5q124 0 170 -66.5t17 -211.5l-39 -193q-29 -147 -98 -212.5t-195 -65.5q-124 0 -170 66.5t-17 211.5zM1632 270q-27 -135 8.5 -195.5t149.5 -60.5q111 0 170 61 t86 195l35 176q27 135 -8.5 195.5t-149.5 60.5q-111 0 -170 -61t-86 -195z" />
<glyph unicode="&#x2039;" horiz-adv-x="626" d="M203 598l6 29l522 352l-8 -45l-469 -324l342 -325l-6 -39z" />
<glyph unicode="&#x203a;" horiz-adv-x="626" d="M133 246l8 41l469 325l-342 326l8 41l386 -352l-7 -29z" />
<glyph unicode="&#x2044;" horiz-adv-x="681" d="M41 -51l838 1536h36l-837 -1536h-37z" />
<glyph unicode="&#x205f;" horiz-adv-x="534" />
<glyph unicode="&#x20ac;" horiz-adv-x="1079" d="M154 563l6 33h108l47 242h-108l6 32h111l20 111q42 224 164.5 346.5t347.5 122.5q191 0 332 -100l-21 -29q-53 41 -137 68.5t-178 27.5q-207 0 -318.5 -112.5t-156.5 -333.5l-21 -101h467l-6 -32h-467l-47 -242h467l-6 -33h-467l-21 -100q-92 -447 304 -447q180 0 350 97 l14 -29q-86 -48 -169.5 -74t-201.5 -26q-111 0 -186.5 34t-112 95.5t-45.5 148t13 191.5l20 110h-108z" />
<glyph unicode="&#x2122;" horiz-adv-x="1318" d="M328 1333l6 31h467l-6 -31h-217l-142 -731h-33l142 731h-217zM793 602l147 762h33l149 -551l359 551h37l-148 -762h-33l133 688l-340 -518h-30l-142 518l-133 -688h-32z" />
<glyph unicode="&#x2190;" horiz-adv-x="1722" d="M285 709l633 594l20 -25l-594 -553h1362v-31h-1362l594 -553l-20 -24z" />
<glyph unicode="&#x2191;" horiz-adv-x="1490" d="M309 809l594 633l592 -633l-25 -21l-552 594v-1382h-31v1382l-553 -594z" />
<glyph unicode="&#x2192;" horiz-adv-x="1722" d="M285 694v31h1362l-594 553l20 25l633 -594l-633 -592l-20 24l594 553h-1362z" />
<glyph unicode="&#x2193;" horiz-adv-x="1490" d="M272 625l25 20l553 -594v1383h31v-1383l553 594l24 -20l-592 -633z" />
<glyph unicode="&#x2212;" horiz-adv-x="940" d="M135 588l6 35h899l-6 -35h-899z" />
<glyph unicode="&#x2260;" horiz-adv-x="940" d="M98 395l6 35h353l186 373h-465l6 35h475l105 213h35l-105 -213h389l-6 -35h-399l-186 -373h512l-7 -35h-522l-108 -223h-35l108 223h-342z" />
<glyph unicode="&#x25fc;" horiz-adv-x="1116" d="M0 0v1116h1116v-1116h-1116z" />
<glyph unicode="&#xf6c3;" horiz-adv-x="536" d="M141 -350q82 86 97 184h-29l14 70h62l-15 -70q-23 -121 -108 -203z" />
<glyph horiz-adv-x="1064" d="M198.5 270q-8.5 88 14.5 193l98 508q21 109 57.5 192.5t94.5 150t146 101.5t202 35q106 0 180 -36t108.5 -100t44 -152t-13.5 -191l-98 -508q-21 -110 -58.5 -194t-96.5 -150t-146 -100.5t-199 -34.5q-107 0 -181 35.5t-109 99t-43.5 151.5zM250 473q-60 -303 88 -407 q89 176 252.5 503.5t278 557.5t124.5 247q-72 43 -186 43q-376 0 -463 -456zM365 51q65 -35 170 -35q377 0 464 457l95 488q54 287 -74 395z" />
<glyph d="M208.5 270q-8.5 88 14.5 193l99 508q17 86 42.5 156t66 131.5t94.5 103t129 65t167 23.5q86 0 150.5 -23.5t103.5 -66t60.5 -102t20.5 -132t-15 -155.5l-99 -508q-22 -110 -59 -194t-95.5 -150t-145.5 -100.5t-199 -34.5q-107 0 -181 35.5t-109.5 99t-44 151.5zM260 473 q-87 -457 285 -457q378 0 465 457l94 488q22 101 16.5 184.5t-35.5 144t-97.5 94t-170.5 33.5q-376 0 -463 -456z" />
<glyph d="M211 0l6 35h397l265 1358l-490 -197l-10 31l514 207h29l-273 -1399h299l-6 -35h-731z" />
<glyph d="M162 0l18 94q15 75 74 153t141 147t178.5 140.5t190 145t170 148t123.5 160.5t47 173q0 130 -86 193t-227 63q-165 0 -340 -100l-17 26q189 107 365 107q159 0 249.5 -74.5t90.5 -210.5q0 -80 -37 -160.5t-97.5 -148t-139.5 -137t-162 -129.5t-165 -124.5t-149 -122 t-114.5 -123t-59.5 -126.5l-12 -59h725l-6 -35h-760z" />
<glyph d="M162 98l18 27q60 -45 149.5 -77t188.5 -32q117 0 205.5 31.5t138.5 78t81 110.5t40.5 118.5t9.5 112.5q0 124 -77 195t-228 71h-137l6 33h137q177 0 279 102t102 277q0 125 -73 198.5t-226 73.5q-156 0 -330 -100l-16 26q180 107 354 107q164 0 245 -83t81 -218 q0 -158 -75.5 -263.5t-221.5 -137.5q95 -14 153 -87.5t58 -189.5q0 -40 -4 -78.5t-17.5 -88.5t-35 -93t-61 -86t-91.5 -73t-129.5 -49t-171.5 -19q-206 0 -352 114z" />
<glyph d="M172 381l6 29l649 1024h43l-645 -1018h582l94 477h35l-94 -477h225l-6 -35h-225l-74 -381h-35l74 381h-629z" />
<glyph d="M162 94l22 27q58 -44 147 -74.5t189 -30.5q111 0 199 35.5t140 89t86 124t46.5 133t12.5 122.5q0 142 -83 230t-241 88q-70 0 -134 -15.5t-102 -33t-92 -48.5l-24 7l174 686h643l-6 -33h-611l-159 -619q150 88 313 88q171 0 261.5 -94t90.5 -246q0 -45 -6 -91.5 t-22 -101.5t-40.5 -104t-65.5 -95.5t-93.5 -80t-128 -53.5t-164.5 -20q-109 0 -201 32t-151 78z" />
<glyph d="M219 442l90 463q28 141 82 247t126.5 170.5t156 96t178.5 31.5q181 0 313 -102l-20 -27q-130 96 -297 96q-87 0 -164 -29.5t-144.5 -89t-118.5 -160t-77 -233.5l-41 -207q38 40 72.5 69t86.5 62.5t117 51.5t138 18q172 0 254 -95t82 -251q0 -89 -15.5 -169t-53.5 -154.5 t-95.5 -128t-147 -85.5t-202.5 -32q-208 0 -285 122.5t-35 335.5zM239.5 306.5q-1.5 -63.5 17 -117t53 -92t94.5 -60t141 -21.5q106 0 189.5 31.5t135.5 82.5t85.5 122.5t47 144.5t13.5 154q0 144 -73.5 229.5t-231.5 85.5q-233 0 -416 -217l-41 -207q-13 -72 -14.5 -135.5z " />
<glyph d="M315 0l879 1401h-803l6 33h846l-4 -23l-883 -1411h-41z" />
<glyph d="M160 287q0 368 485 471q-10 5 -51 23t-65.5 30t-62.5 38.5t-60 53t-39 67.5t-17 89q0 175 120.5 283t350.5 108q170 0 260 -73t90 -201q0 -54 -14 -101.5t-35.5 -82t-55.5 -66.5t-64.5 -52t-73.5 -41t-71 -31.5t-67.5 -25t-54.5 -20.5q175 -50 253.5 -127t78.5 -203 q0 -207 -138.5 -324.5t-387.5 -117.5q-186 0 -283.5 77.5t-97.5 225.5zM195 293q0 -136 91.5 -206.5t260.5 -70.5q226 0 354.5 105.5t128.5 298.5q0 239 -344 315q-251 -53 -371 -161t-120 -281zM385 1067q0 -28 7.5 -54t18 -46.5t30 -41.5t35 -35.5t42.5 -30.5t44 -25.5 t47 -22.5t43.5 -18.5t41.5 -16.5q47 15 75 25t80 31.5t85.5 41.5t75 52t66 65.5t42 79t17.5 96.5q0 115 -79 182.5t-237 67.5q-109 0 -193.5 -28.5t-136 -77.5t-78 -111t-26.5 -133z" />
<glyph d="M199 86l20 27q128 -97 295 -97q87 0 164.5 29.5t145.5 89t119 160t77 233.5l41 207q-181 -200 -414 -200q-172 0 -254 94.5t-82 251.5q0 89 15.5 168.5t52 154.5t93 128.5t144.5 85.5t199 32q87 0 153 -23t106 -64.5t62.5 -98.5t22.5 -126t-14 -147l-90 -463 q-55 -277 -199.5 -410.5t-345.5 -133.5q-179 0 -311 102zM346 883q0 -69 17 -125t52.5 -99.5t96 -67.5t141.5 -24q233 0 416 217l41 207q13 72 14.5 135.5t-17.5 117t-54 92t-95 60t-141 21.5q-106 0 -189.5 -31.5t-135.5 -82.5t-85.5 -122t-47 -144t-13.5 -154z" />
<glyph d="M208.5 270q-8.5 88 14.5 193l99 508q17 86 42.5 156t66 131.5t94.5 103t129 65t167 23.5q86 0 150.5 -23.5t103.5 -66t60.5 -102t20.5 -132t-15 -155.5l-99 -508q-22 -110 -59 -194t-95.5 -150t-145.5 -100.5t-199 -34.5q-107 0 -181 35.5t-109.5 99t-44 151.5zM260 473 q-60 -303 88 -407q88 174 252.5 503t279 558.5t124.5 246.5q-72 43 -187 43q-376 0 -463 -456zM375 51q65 -35 170 -35q378 0 465 457l94 488q54 287 -74 395z" />
<glyph d="M147 117l23 26q127 -127 358 -127q84 0 153.5 14.5t118 39t85 58.5t58 70t35.5 78.5t18.5 78t4.5 73.5q0 72 -35 126.5t-91 88.5t-123.5 62.5t-135 58t-123.5 64.5t-91 91t-35 130q0 392 440 401l27 141h34l-26 -141q204 -5 332 -133l-21 -27q-59 61 -137 94t-201 33 q-199 0 -307.5 -92t-108.5 -272q0 -70 35 -122.5t91.5 -85.5t124 -61t135.5 -57t124.5 -64.5t91.5 -93t35 -133.5q0 -42 -5.5 -82.5t-20 -85t-38 -83.5t-61 -75t-86.5 -62.5t-118 -43.5t-152 -20l-35 -179h-35l35 179q-250 0 -373 133z" />
<glyph d="M133 0q0 4 6 31q46 19 94 59t95.5 101t77.5 152t30 194q0 81 -10 194h-182l6 27l176 6q-12 132 -12 199q0 102 27 184.5t72 137t107.5 91t130.5 52.5t144 16q109 0 184.5 -27t143.5 -74l-19 -28q-138 96 -315 96q-66 0 -126.5 -13.5t-119.5 -47t-101.5 -84t-69 -130 t-26.5 -180.5q0 -64 15 -192h467l-8 -33h-459q6 -83 6 -188q0 -97 -24.5 -184t-65 -149.5t-85 -106t-91.5 -70.5h788l-6 -33h-850z" />
<glyph d="M242 360l6 33h354l37 193h-354l6 32h342l-293 816h41l283 -797l598 797h43l-613 -816h340l-6 -32h-352l-37 -193h352l-6 -33h-352l-70 -360h-35l70 360h-354z" />
<glyph d="M211 563l6 33h109l47 242h-109l6 32h111l20 111q42 224 164.5 346.5t347.5 122.5q191 0 332 -100l-20 -29q-53 41 -137.5 68.5t-178.5 27.5q-207 0 -318.5 -112.5t-156.5 -333.5l-20 -101h467l-7 -32h-466l-48 -242h467l-6 -33h-467l-20 -100q-92 -447 303 -447 q180 0 350 97l14 -29q-86 -48 -169 -74t-201 -26q-217 0 -295.5 124t-36.5 345l20 110h-108z" />
<glyph horiz-adv-x="364" d="M377 1214l102 322h43l-116 -322h-29z" />
</font>
</defs>
</svg>
