<?xml version="1.0" standalone="no"?>
<!DOCTYPE svg PUBLIC "-//W3C//DTD SVG 1.1//EN" "http://www.w3.org/Graphics/SVG/1.1/DTD/svg11.dtd" >
<svg xmlns="http://www.w3.org/2000/svg" xmlns:xlink="http://www.w3.org/1999/xlink" version="1.1">
<metadata></metadata>
<defs>
<font id="nowaymedium_italic" horiz-adv-x="1136" >
<font-face units-per-em="2048" ascent="1536" descent="-512" />
<missing-glyph horiz-adv-x="524" />
<glyph unicode="&#x2e;&#x2e;&#x2e;" horiz-adv-x="1564" d="M92 0l60 305h299l-60 -305h-299zM633 0l59 305h299l-59 -305h-299zM1171 0l60 305h299l-60 -305h-299z" />
<glyph unicode="&#xd;" horiz-adv-x="552" />
<glyph unicode=" "  horiz-adv-x="524" />
<glyph unicode="&#x09;" horiz-adv-x="524" />
<glyph unicode="&#xa0;" horiz-adv-x="524" />
<glyph unicode="!" horiz-adv-x="542" d="M123 0l59 305h299l-59 -305h-299zM260 444l152 990h274l-233 -990h-193z" />
<glyph unicode="&#x22;" horiz-adv-x="739" d="M276 918l80 516h234l-121 -516h-193zM627 918l82 516h231l-119 -516h-194z" />
<glyph unicode="#" horiz-adv-x="1171" d="M133 426l74 190h176l76 199h-185l74 191h182l97 247h196l-96 -247h197l96 247h197l-97 -247h193l-74 -191h-190l-76 -199h198l-73 -190h-197l-94 -250h-197l95 250h-197l-94 -250h-197l94 250h-178zM580 616h196l76 199h-197z" />
<glyph unicode="$" horiz-adv-x="1099" d="M80 137l145 185q186 -109 342 -109q143 0 214 64t71 155q0 49 -24 86t-63.5 58.5t-90 43t-103 37.5t-103 43t-90 59.5t-63.5 87t-24 124.5q0 217 110.5 337.5t325.5 137.5l29 145h200l-30 -153q187 -30 307 -125l-150 -191q-83 50 -154 74.5t-149 24.5q-55 0 -97 -12.5 t-66.5 -32t-40.5 -46t-21.5 -50.5t-5.5 -50q0 -46 31 -79t81 -55t110.5 -42.5t120.5 -48t110 -65t81 -101t31 -147.5q0 -222 -121 -353t-348 -151l-35 -183h-200l34 185q-206 23 -364 147z" />
<glyph unicode="%" horiz-adv-x="1771" d="M291 958l35 189q28 150 117.5 226.5t236.5 76.5q142 0 211 -81t41 -222l-37 -189q-59 -299 -348 -299q-142 0 -212 80.5t-44 218.5zM494 -59l839 1552h226l-840 -1552h-225zM504 969q-23 -115 71 -115q52 0 77 31t36 84l33 170q23 116 -68 116q-50 0 -77 -27.5t-39 -88.5 zM1120 281l35 188q28 150 117.5 226.5t236.5 76.5q142 0 211 -81t41 -222l-37 -188q-59 -299 -348 -299q-142 0 -212 80.5t-44 218.5zM1333 291q-23 -115 72 -115q52 0 77 31t36 84l32 170q23 117 -67 117q-50 0 -77.5 -28t-39.5 -89z" />
<glyph unicode="&#x26;" horiz-adv-x="1316" d="M152 340q0 71 13 130t46.5 121t99 116t162.5 96l-27 45q-51 85 -51 188q0 188 124 301t351 113q102 0 202.5 -33t164.5 -78l-143 -188q-106 70 -240 70q-106 0 -157.5 -45t-51.5 -109q0 -53 45 -121l305 -459q85 130 133 299h230q-61 -260 -236 -485l191 -301h-299 l-70 109q-77 -64 -166 -94.5t-221 -30.5q-180 0 -292.5 97.5t-112.5 258.5zM406 371q0 -76 45 -122t131 -46q153 0 243 86l-227 334q-94 -26 -143 -92.5t-49 -159.5z" />
<glyph unicode="'" horiz-adv-x="385" d="M276 918l80 516h234l-121 -516h-193z" />
<glyph unicode="(" horiz-adv-x="684" d="M197 444q0 564 569 1123l160 -119q-469 -505 -469 -1010q0 -152 35.5 -315.5t107.5 -296.5l-197 -119q-103 166 -154.5 362.5t-51.5 374.5z" />
<glyph unicode=")" horiz-adv-x="684" d="M43 -174q469 502 469 1010q0 152 -35.5 315.5t-107.5 296.5l196 119q104 -165 155.5 -362t51.5 -376q0 -565 -567 -1122z" />
<glyph unicode="*" horiz-adv-x="917" d="M326 1196l112 190l201 -114l16 264h205l-86 -264l246 114l39 -190l-277 -61l164 -220l-184 -114l-98 252l-197 -252l-139 114l250 220z" />
<glyph unicode="+" horiz-adv-x="1013" d="M125 508l41 209h373l73 381h213l-73 -381h374l-41 -209h-374l-74 -381h-213l74 381h-373z" />
<glyph unicode="," horiz-adv-x="542" d="M55 -219q38 28 64 51t59.5 70t46.5 98h-102l59 305h299l-49 -250q-47 -236 -278 -393z" />
<glyph unicode="-" horiz-adv-x="696" d="M170 510l41 215h553l-41 -215h-553z" />
<glyph unicode="." horiz-adv-x="542" d="M123 0l59 305h299l-59 -305h-299z" />
<glyph unicode="/" horiz-adv-x="743" d="M-49 -162l880 1757h240l-881 -1757h-239z" />
<glyph unicode="0" horiz-adv-x="1183" d="M213 520l76 393q47 243 197 390t376 147q221 0 326 -149.5t59 -387.5l-76 -393q-47 -243 -197 -389.5t-376 -146.5q-221 0 -326 149t-59 387zM473 541q-30 -155 9 -239.5t151 -84.5t184.5 85t102.5 239l67 352q30 155 -9 239.5t-151 84.5t-184 -85t-102 -239z" />
<glyph unicode="1" horiz-adv-x="1048" d="M135 0l43 221h340l187 955l-355 -127l-59 196l532 189h187l-236 -1213h250l-43 -221h-846z" />
<glyph unicode="2" horiz-adv-x="1101" d="M96 0l31 160q19 98 74.5 187.5t129 157.5t158 130.5t165.5 116.5t147 105t106.5 107.5t40.5 112.5q0 72 -51.5 109t-144.5 37q-84 0 -161.5 -25t-180.5 -74l-88 181q97 62 226 103.5t251 41.5q188 0 298.5 -87t110.5 -239q0 -90 -41.5 -174t-108.5 -150.5t-148.5 -129 t-165.5 -118t-155 -107t-121 -107t-60 -107.5h641l-45 -231h-908z" />
<glyph unicode="3" horiz-adv-x="1105" d="M94 135l129 180q161 -102 328 -102q155 0 227 66.5t72 185.5q0 78 -52.5 119t-152.5 41h-244l43 219h215q267 0 267 229q0 150 -172 150q-157 0 -344 -97l-76 172q85 62 213 107t248 45q193 0 295 -86.5t102 -235.5q0 -109 -51 -209.5t-162 -160.5q125 -70 125 -254 q0 -77 -15.5 -147.5t-56 -140t-102 -119.5t-161.5 -81.5t-228 -31.5q-122 0 -255.5 47t-191.5 104z" />
<glyph unicode="4" horiz-adv-x="1204" d="M133 274l35 177l604 983h277l-586 -938h321l78 397h250l-78 -397h199l-43 -222h-199l-53 -274h-250l53 274h-608z" />
<glyph unicode="5" d="M113 135l133 180q155 -102 317 -102q160 0 238 80.5t78 212.5q0 88 -51 142t-154 54q-134 0 -266 -71l-119 94l184 709h750l-45 -232h-543l-80 -309q85 33 186 33q189 0 291.5 -104t102.5 -269q0 -86 -16.5 -163.5t-59 -153t-106.5 -130.5t-167 -88.5t-233 -33.5 q-141 0 -259.5 45.5t-180.5 105.5z" />
<glyph unicode="6" horiz-adv-x="1191" d="M203 479l69 389q19 104 50 189t81 159.5t116.5 125t159 79.5t206.5 29q127 0 237.5 -39.5t175.5 -97.5l-135 -187q-154 97 -307 97q-127 0 -209 -76.5t-108 -220.5l-17 -88q53 46 130.5 79t166.5 33q178 0 275.5 -98t97.5 -272q0 -124 -38 -231t-109.5 -189t-184.5 -129 t-254 -47q-223 0 -333 134.5t-70 360.5zM453 479q-26 -132 23 -200t159 -68q131 0 214 86t83 242q0 98 -52 146t-143 48q-72 0 -140.5 -34t-117.5 -83z" />
<glyph unicode="7" horiz-adv-x="1153" d="M227 0l777 1202h-668l45 232h946l-37 -195l-786 -1239h-277z" />
<glyph unicode="8" horiz-adv-x="1187" d="M168 324q0 154 84 257t235 171q-71 44 -112 114.5t-41 155.5q0 89 35 166.5t100.5 136t167 92t225.5 33.5q187 0 296.5 -88t109.5 -229q0 -123 -76.5 -221t-202.5 -160q182 -102 182 -291q0 -217 -148.5 -347t-418.5 -130q-203 0 -319.5 91t-116.5 249zM422 375 q0 -78 57 -123t154 -45q124 0 205.5 65t81.5 170q0 137 -203 195q-163 -42 -229 -107t-66 -155zM586 1030q0 -67 44.5 -110.5t125.5 -81.5q60 25 98.5 44.5t78.5 49.5t59.5 69.5t19.5 88.5q0 64 -46 101.5t-135 37.5q-116 0 -180.5 -55.5t-64.5 -143.5z" />
<glyph unicode="9" horiz-adv-x="1191" d="M174 121l135 186q152 -96 307 -96q127 0 209.5 76.5t108.5 220.5l16 88q-53 -46 -130.5 -79.5t-166.5 -33.5q-177 0 -274.5 98.5t-97.5 272.5q0 124 37.5 231t109 189t184.5 129t254 47q223 0 333.5 -135t70.5 -361l-70 -389q-19 -104 -49.5 -189t-81 -159.5 t-116.5 -124.5t-158.5 -79t-206.5 -29q-127 0 -238.5 39.5t-175.5 97.5zM541 895q0 -98 51.5 -146.5t142.5 -48.5q72 0 140.5 34t117.5 83l27 137q26 132 -23 200.5t-159 68.5q-131 0 -214 -86t-83 -242z" />
<glyph unicode=":" horiz-adv-x="542" d="M123 0l59 305h299l-59 -305h-299zM270 758l60 305h299l-60 -305h-299z" />
<glyph unicode=";" horiz-adv-x="542" d="M55 -219q38 28 64 51t59.5 70t46.5 98h-102l59 305h299l-49 -250q-47 -236 -278 -393zM270 758l60 305h299l-60 -305h-299z" />
<glyph unicode="&#x3c;" horiz-adv-x="1060" d="M213 541l25 131l931 450l-45 -243l-602 -279l494 -274l-47 -236z" />
<glyph unicode="=" horiz-adv-x="1009" d="M84 291l41 209h960l-41 -209h-960zM168 727l41 209h960l-41 -209h-960z" />
<glyph unicode="&#x3e;" horiz-adv-x="1060" d="M127 90l47 248l600 278l-493 277l47 229l755 -450l-24 -131z" />
<glyph unicode="?" horiz-adv-x="1046" d="M276 0l60 305h299l-60 -305h-299zM295 1305q97 65 225 105t260 40q182 0 285.5 -92.5t103.5 -231.5q0 -79 -26 -141.5t-68.5 -103t-94.5 -74t-106 -61.5t-101 -56.5t-81.5 -69t-44.5 -90.5l-20 -100h-238l29 145q11 58 44.5 108.5t78 87t96 70t100.5 63t89 59t64.5 65.5 t24.5 76q0 127 -196 127q-142 0 -330 -98z" />
<glyph unicode="@" horiz-adv-x="1603" d="M207 436q0 148 32.5 279.5t100 243t165.5 192t236.5 125.5t305.5 45q275 0 430 -141.5t155 -386.5q0 -263 -116.5 -417.5t-305.5 -154.5q-155 0 -196 96h-8q-96 -96 -213 -96q-106 0 -161.5 72.5t-29.5 210.5l35 178q27 138 98 212.5t180 74.5q55 0 98.5 -23t59.5 -53 l35 68h143l-88 -451q-13 -66 5 -92.5t71 -26.5q101 0 151 101.5t50 267.5q0 183 -103.5 281t-312.5 98q-155 0 -275.5 -52.5t-195 -145.5t-112.5 -215.5t-38 -268.5q0 -210 113 -313t344 -103q235 0 490 106l51 -149q-104 -57 -276.5 -96t-303.5 -39q-301 0 -457.5 147 t-156.5 426zM782 520q-12 -65 4 -96t70 -31q61 0 121 49l59 306q-45 49 -100 49t-84 -31t-41 -98z" />
<glyph unicode="A" horiz-adv-x="1245" d="M39 0l741 1434h242l184 -1434h-262l-37 317h-446l-162 -317h-260zM565 545h328l-57 526h-9z" />
<glyph unicode="B" horiz-adv-x="1208" d="M162 0l278 1434h500q175 0 266.5 -88t91.5 -226q0 -130 -66 -228.5t-179 -143.5l-2 -9q163 -69 163 -254q0 -103 -31.5 -189t-95 -153.5t-170 -105t-247.5 -37.5h-508zM461 225h198q156 0 223.5 56t67.5 192q0 82 -49.5 117t-148.5 35h-213zM582 840h219q115 0 172 61 t57 164q0 68 -39 105.5t-119 37.5h-219z" />
<glyph unicode="C" horiz-adv-x="1130" d="M215 535l72 364q24 128 69.5 226t117.5 172.5t178 113.5t243 39q164 0 270.5 -79.5t149.5 -215.5l-230 -104q-35 89 -90 126t-137 37q-251 0 -309 -294l-80 -406q-11 -54 -11 -98q0 -197 212 -197q84 0 151.5 35t134.5 127l201 -98q-101 -153 -231 -226t-301 -73 q-168 0 -272 70t-137 192q-17 62 -17 135q0 72 16 154z" />
<glyph unicode="D" horiz-adv-x="1304" d="M162 0l278 1434h443q223 0 353 -134.5t130 -390.5q0 -264 -86.5 -471.5t-242.5 -322.5t-355 -115h-520zM461 225h190q205 0 327 172t122 477q0 67 -13 123.5t-41 105.5t-79.5 77t-122.5 28h-191z" />
<glyph unicode="E" horiz-adv-x="1087" d="M162 0l278 1434h805l-43 -226h-547l-71 -364h501l-43 -226h-501l-78 -393h547l-43 -225h-805z" />
<glyph unicode="F" horiz-adv-x="1067" d="M162 0l278 1434h801l-43 -226h-543l-77 -393h495l-43 -225h-495l-115 -590h-258z" />
<glyph unicode="G" horiz-adv-x="1241" d="M217 537l72 362q52 260 203.5 405.5t412.5 145.5q164 0 270.5 -79.5t149.5 -215.5l-229 -104q-35 89 -90.5 126t-137.5 37q-259 0 -317 -294l-80 -404q-11 -54 -11 -98q0 -197 212 -197q89 0 156.5 33t111.5 78l47 241h-256l43 222h498l-109 -553q-30 -39 -55 -66.5 t-74 -66.5t-100.5 -64t-129.5 -43t-167 -18q-263 0 -367 148q-70 100 -70 248q0 73 17 157z" />
<glyph unicode="H" horiz-adv-x="1341" d="M162 0l278 1434h258l-114 -588h501l115 588h258l-278 -1434h-258l120 618h-501l-121 -618h-258z" />
<glyph unicode="I" horiz-adv-x="581" d="M162 0l278 1434h258l-278 -1434h-258z" />
<glyph unicode="J" horiz-adv-x="839" d="M47 14l68 217q70 -16 139 -16q65 0 110.5 17t74.5 53.5t45.5 82t29.5 115.5l184 951h258l-184 -947q-12 -66 -25.5 -116.5t-35 -105t-48 -94t-66 -76.5t-89 -60.5t-116 -37t-146.5 -13.5q-111 0 -199 30z" />
<glyph unicode="K" horiz-adv-x="1187" d="M162 0l278 1434h258l-112 -584h104l445 584h286l-532 -689l270 -745h-287l-219 623h-112l-121 -623h-258z" />
<glyph unicode="L" horiz-adv-x="1044" d="M162 0l278 1434h258l-235 -1209h547l-43 -225h-805z" />
<glyph unicode="M" horiz-adv-x="1568" d="M162 0l278 1434h195l260 -826h8l582 826h201l-279 -1434h-244l164 846h-8l-424 -610h-131l-186 610h-9l-163 -846h-244z" />
<glyph unicode="N" horiz-adv-x="1372" d="M162 0l278 1434h222l391 -945h8l184 945h244l-279 -1434h-225l-387 944h-8l-184 -944h-244z" />
<glyph unicode="O" horiz-adv-x="1243" d="M207 492l88 448q98 510 598 510q167 0 273 -66q104 -66 140 -180q20 -62 20 -136q0 -60 -13 -128l-88 -448q-98 -508 -596 -508q-167 0 -273 66q-106 64 -142 178q-20 63 -20 137q0 60 13 127zM469 514q-11 -58 -11 -105q0 -72 27 -117q45 -73 179 -73q135 0 206.5 72.5 t100.5 222.5l80 406q12 59 12 106q-1 71 -27 115q-44 73 -178 73t-207 -73.5t-102 -220.5z" />
<glyph unicode="P" horiz-adv-x="1198" d="M162 0l278 1434h422q213 0 330 -90.5t117 -272.5q0 -283 -163 -429t-448 -146h-182l-96 -496h-258zM559 721h172q313 0 313 319q0 91 -54 129.5t-177 38.5h-158z" />
<glyph unicode="Q" horiz-adv-x="1245" d="M207 492l88 448q98 510 598 510q167 0 272.5 -66.5t140.5 -179.5q20 -63 20 -136q0 -61 -13 -128l-88 -448q-39 -187 -127 -306l131 -147l-180 -160l-138 158q-118 -53 -282 -53q-167 0 -273 65.5t-142 178.5q-20 63 -20 137q0 60 13 127zM469 514q-11 -58 -11 -105 q0 -73 27 -117q45 -73 179 -73q48 0 84 8l-99 115l174 156l107 -121q26 56 41 137l80 406q12 59 12 106q0 71 -27 115q-43 73 -178 73q-134 0 -207 -73.5t-102 -220.5z" />
<glyph unicode="R" horiz-adv-x="1212" d="M162 0l278 1434h432q210 0 324.5 -88.5t114.5 -264.5q0 -392 -342 -518l198 -563h-286l-166 526h-195l-102 -526h-256zM563 752h185q299 0 299 286q0 170 -230 170h-164z" />
<glyph unicode="S" horiz-adv-x="1099" d="M80 137l145 185q186 -109 342 -109q143 0 214 64t71 155q0 49 -24 86t-63.5 58.5t-90 43t-103 37.5t-103 43t-90 59.5t-63.5 87t-24 124.5q0 235 130 357t380 122q124 0 241 -38.5t191 -98.5l-150 -191q-83 50 -154 74.5t-149 24.5q-55 0 -97 -12.5t-66.5 -32t-40.5 -46 t-21.5 -50.5t-5.5 -50q0 -46 31 -79t81 -55t110.5 -42.5t120.5 -48t110 -65t81 -101t31 -147.5q0 -243 -144 -375.5t-411 -132.5q-284 0 -479 153z" />
<glyph unicode="T" horiz-adv-x="1177" d="M315 1208l43 226h1016l-43 -226h-379l-235 -1208h-258l235 1208h-379z" />
<glyph unicode="U" horiz-adv-x="1314" d="M248 467l188 967h258l-184 -947q-11 -54 -11 -98q-1 -64 23 -105q40 -69 176 -69t202 69t93 203l185 947h258l-189 -967q-47 -247 -178.5 -365t-390.5 -118q-246 0 -360 126q-82 91 -82 237q0 56 12 120z" />
<glyph unicode="V" horiz-adv-x="1206" d="M324 1434h256l77 -1096h9l501 1096h275l-707 -1434h-264z" />
<glyph unicode="W" horiz-adv-x="1759" d="M326 1434h258l8 -1057h8l434 1057h236l26 -1057h9l415 1057h271l-619 -1434h-268l-47 901h-8l-394 -901h-268z" />
<glyph unicode="X" horiz-adv-x="1048" d="M12 0l500 739l-199 695h271l114 -473h9l299 473h286l-469 -695l209 -739h-266l-131 504h-8l-328 -504h-287z" />
<glyph unicode="Y" horiz-adv-x="1191" d="M311 1434h267l155 -643h8l408 643h287l-607 -893l-104 -541h-258l104 541z" />
<glyph unicode="Z" horiz-adv-x="1118" d="M102 0l37 195l805 1013h-575l43 226h878l-37 -193l-804 -1016h606l-43 -225h-910z" />
<glyph unicode="[" horiz-adv-x="700" d="M111 -238l344 1774h467l-41 -215h-222l-262 -1344h221l-40 -215h-467z" />
<glyph unicode="\" horiz-adv-x="743" d="M291 1595h239l197 -1757h-240z" />
<glyph unicode="]" horiz-adv-x="700" d="M27 -238l41 215h221l262 1344h-221l41 215h467l-344 -1774h-467z" />
<glyph unicode="^" horiz-adv-x="1067" d="M166 729l590 807h151l275 -807h-230l-168 528l-372 -528h-246z" />
<glyph unicode="_" horiz-adv-x="1124" d="M18 -268l37 192h983l-37 -192h-983z" />
<glyph unicode="`" horiz-adv-x="866" d="M557 1616h254l37 -354h-156z" />
<glyph unicode="a" horiz-adv-x="1175" d="M176 444l53 267q42 209 158.5 323.5t296.5 114.5q78 0 142.5 -32.5t101.5 -80.5l69 97h197l-156 -803q-5 -30 -5 -53q0 -76 59 -76q36 0 63 6l16 -176q-92 -41 -186 -41q-147 0 -190 104q-114 -110 -287 -110q-182 0 -278 128q-67 90 -66 217q0 54 12 115zM424 449 q-10 -49 -9 -87q0 -56 20 -90q35 -57 136 -57q54 0 111.5 26t103.5 66l101 520q-30 39 -77 65t-101 26q-101 0 -157.5 -57t-80.5 -177z" />
<glyph unicode="b" horiz-adv-x="1110" d="M137 0l299 1536h246l-98 -500q58 49 134 81t154 32q178 0 251 -120q48 -78 48 -190q0 -59 -14 -128l-57 -287q-41 -214 -148 -327t-295 -113q-84 0 -160.5 34.5t-111.5 85.5l-53 -104h-195zM442 307q30 -40 77.5 -66t101.5 -26q101 0 158 57t81 177l45 235q10 49 10 87 q0 56 -21 90q-35 57 -136 57q-54 0 -111.5 -26t-101.5 -65z" />
<glyph unicode="c" horiz-adv-x="958" d="M176 424l55 285q41 209 171.5 324.5t351.5 115.5q131 0 222 -56t136 -151l-199 -137q-56 125 -186 125q-209 0 -254 -242l-47 -244q-8 -41 -8 -76q0 -60 23 -100q37 -66 151 -65q66 0 120.5 26t123.5 101l139 -137q-86 -101 -185.5 -155t-236.5 -54q-213 0 -315 118 q-73 85 -73 214q0 51 11 108z" />
<glyph unicode="d" horiz-adv-x="1175" d="M174 424l55 287q41 210 152.5 324t290.5 114q88 0 153.5 -32t102.5 -81l98 500h246l-234 -1206q-5 -30 -5 -53q0 -76 59 -76q36 0 63 6l16 -176q-92 -41 -186 -41q-160 0 -199 127q-148 -133 -307 -133q-185 0 -265 116q-53 78 -53 196q0 59 13 128zM424 449 q-10 -49 -9 -87q0 -56 20 -90q35 -57 136 -57q54 0 111.5 26t103.5 66l101 520q-30 39 -77 65t-101 26q-101 0 -157.5 -57t-80.5 -177z" />
<glyph unicode="e" horiz-adv-x="1028" d="M168 389l61 322q39 208 166 323t340 115t301 -114q60 -78 59 -202q0 -56 -12 -122l-45 -234h-608l-20 -110q-3 -18 -3 -35q-1 -50 29 -86q40 -48 144 -49q79 0 147 20t164 66l63 -183q-106 -58 -201 -87t-216 -29q-217 0 -311 107q-68 77 -68 197q0 47 10 101zM469 670 h369q14 74 14 127v21q-4 59 -39 88.5t-108 29.5q-107 0 -158 -60.5t-78 -205.5z" />
<glyph unicode="f" horiz-adv-x="823" d="M156 -414l260 1340h-183l37 190l185 17l10 51q34 172 143 271t293 99q121 0 203 -49l-90 -184q-55 20 -119 20q-80 0 -123 -36.5t-57 -108.5l-13 -63h281l-41 -207h-280l-261 -1340h-245z" />
<glyph unicode="g" horiz-adv-x="1093" d="M82 -340l100 188q164 -61 295 -61q204 0 250 225l21 99q-117 -113 -273 -113q-182 0 -261 116q-52 77 -52 193q0 59 14 129l53 273q85 440 459 440q83 0 151.5 -34.5t104.5 -86.5l51 105h197l-213 -1094q-16 -80 -40 -145.5t-65.5 -127t-96.5 -103.5t-135.5 -67.5 t-180.5 -25.5q-102 0 -202.5 24t-176.5 66zM426 463q-10 -49 -10 -87q0 -56 21 -90q35 -57 136 -57q54 0 111.5 25.5t103.5 64.5l99 506q-32 40 -79 66.5t-101 26.5q-101 0 -157.5 -57t-80.5 -177z" />
<glyph unicode="h" horiz-adv-x="1153" d="M137 0l299 1536h246l-98 -504q157 117 323 117q71 0 124.5 -22t84 -59.5t48.5 -87.5q17 -48 16 -102v-6q-1 -58 -11 -120l-145 -752h-246l135 698q7 38 7 68q0 56 -23 91q-36 54 -123 54q-60 0 -125.5 -29t-105.5 -63l-160 -819h-246z" />
<glyph unicode="i" horiz-adv-x="681" d="M227 926l39 207h436l-157 -803q-4 -24 -5 -44q0 -32 13 -52q20 -32 63 -33q28 0 58 6l26 -176q-70 -41 -172 -41q-138 0 -200 89q-41 59 -42 150q0 46 11 101l117 596h-187zM469 1266l53 270h269l-54 -270h-268z" />
<glyph unicode="j" horiz-adv-x="612" d="M-162 -377l96 187q57 -17 109 -17q150 0 178 148l191 985h-189l39 207h436l-227 -1168q-36 -186 -138.5 -285.5t-291.5 -99.5q-115 0 -203 43zM467 1266l53 270h268l-53 -270h-268z" />
<glyph unicode="k" horiz-adv-x="1032" d="M137 0l299 1536h246l-162 -825h94l334 422h262l-417 -523l100 -270q51 -141 125 -141q31 0 55 8l35 -172q-24 -18 -72 -31.5t-96 -13.5q-95 0 -155.5 52t-100.5 167l-100 295h-103l-98 -504h-246z" />
<glyph unicode="l" horiz-adv-x="585" d="M201 330l235 1206h246l-233 -1206q-4 -23 -4 -42q1 -33 13 -54q20 -33 60 -33q33 0 60 6l26 -176q-70 -41 -172 -41q-138 0 -200 89q-41 59 -42 150q0 46 11 101z" />
<glyph unicode="m" horiz-adv-x="1740" d="M137 0l219 1133h203l-2 -121q60 56 145 95.5t185 39.5q191 0 264 -143q46 36 66.5 50.5t68 42.5t96.5 40t105 12q84 0 145.5 -30.5t92.5 -84.5t41 -126q3 -25 2 -51q0 -50 -11 -105l-145 -752h-246l135 698q8 44 8 78q1 56 -21 86q-36 50 -124 49q-93 0 -207 -82 q-3 -59 -14 -108l-139 -721h-246l137 702q8 43 8 76q-1 54 -21 84q-34 49 -120 49q-104 0 -219 -92l-160 -819h-246z" />
<glyph unicode="n" horiz-adv-x="1146" d="M137 0l219 1133h201v-121q167 137 338 137q85 0 146 -32.5t90.5 -87.5t39.5 -127q4 -26 4 -52q0 -48 -12 -98l-145 -752h-246l135 698q8 39 8 72q-1 54 -23 88q-36 54 -122 53q-60 0 -123.5 -28.5t-103.5 -63.5l-160 -819h-246z" />
<glyph unicode="o" horiz-adv-x="1064" d="M174 420l55 287q41 213 169 327.5t347 114.5t313 -117q65 -81 65 -206q0 -55 -13 -119l-57 -287q-42 -216 -167.5 -326t-346.5 -110q-215 0 -309 116q-67 82 -67 208q0 52 11 112zM422 434q-10 -51 -10 -90q0 -56 20 -88q34 -56 139.5 -55.5t160.5 56t79 177.5l51 262 q10 51 10 91q0 55 -20 87q-34 56 -139.5 56t-160.5 -55.5t-79 -178.5z" />
<glyph unicode="p" horiz-adv-x="1110" d="M57 -414l301 1547h195l12 -105q55 52 136.5 86.5t164.5 34.5q121 0 197 -57.5t97 -155.5q9 -46 9 -99q0 -60 -12 -128l-57 -287q-85 -438 -430 -438q-80 0 -156 33t-113 79l-98 -510h-246zM442 305q31 -39 79 -64.5t102 -25.5q101 0 157 57t80 177l45 235q7 39 7 72 q0 59 -24 100q-38 62 -138 62q-51 0 -105.5 -26.5t-99.5 -66.5z" />
<glyph unicode="q" horiz-adv-x="1101" d="M174 422l55 287q41 211 153 325.5t294 114.5q84 0 159.5 -35t110.5 -86l51 105h195l-299 -1547h-246l98 510q-115 -112 -272 -112q-182 0 -261 116q-52 77 -52 193q0 59 14 129zM426 449q-10 -50 -10 -89q0 -55 20 -88q34 -57 135 -57q54 0 111.5 25.5t103.5 64.5 l101 520q-30 40 -77 66.5t-101 26.5q-101 0 -157.5 -57t-80.5 -177z" />
<glyph unicode="r" horiz-adv-x="798" d="M137 0l219 1133h203l-8 -150q161 166 313 166q75 0 119 -23l-92 -237q-54 20 -111 20q-132 0 -243 -118l-154 -791h-246z" />
<glyph unicode="s" horiz-adv-x="923" d="M78 92l104 180q174 -82 307 -82q104 0 153.5 43.5t49.5 118.5q0 35 -25 61.5t-65 44t-88 34t-96 38.5t-88 50t-65 76t-25 110q0 189 115 286t323 97q103 0 201 -27t163 -73l-110 -183q-151 76 -260 76q-189 0 -189 -125q0 -31 25 -55t65.5 -41t89.5 -34t97.5 -39.5 t89 -51.5t65.5 -76.5t25 -109.5q0 -101 -23.5 -176t-76.5 -133t-145.5 -87.5t-223.5 -29.5q-102 0 -215.5 31.5t-177.5 76.5z" />
<glyph unicode="t" horiz-adv-x="882" d="M227 926l37 194l197 13l41 217l248 26l-48 -243h297l-41 -207h-296l-115 -592q-4 -24 -4 -43q-1 -34 13 -53q22 -29 89 -29q72 0 170 27l16 -187q-113 -59 -237 -59q-171 0 -249 88q-55 63 -55 163q0 41 9 89l117 596h-189z" />
<glyph unicode="u" d="M192 224q-3 25 -3 52q0 50 12 105l145 752h246l-135 -699q-9 -45 -9 -80q0 -55 22 -84q34 -49 124 -49q60 0 123.5 28.5t105.5 63.5l160 820h246l-221 -1133h-201l2 121q-153 -137 -328 -137q-89 0 -152.5 30.5t-95 84t-41.5 125.5z" />
<glyph unicode="v" horiz-adv-x="1024" d="M256 1133h254l53 -801h8l365 801h272l-567 -1133h-258z" />
<glyph unicode="w" horiz-adv-x="1478" d="M258 1133h260l-4 -779h8l326 779h211l24 -779h9l297 779h272l-500 -1133h-262l-33 616h-8l-268 -616h-271z" />
<glyph unicode="x" horiz-adv-x="937" d="M20 0l426 573l-198 560h270l96 -345h9l227 345h278l-415 -560l207 -573h-275l-98 354h-8l-240 -354h-279z" />
<glyph unicode="y" d="M119 -340l100 188q164 -61 295 -61q204 0 250 225l16 84q-129 -112 -299 -112q-89 0 -152.5 30.5t-95 84t-41.5 125.5q-3 26 -3 52q0 50 12 105l145 752h246l-135 -699q-9 -45 -9 -80q0 -54 22 -84q34 -49 124 -49q60 0 123.5 28.5t105.5 63.5l160 820h246l-213 -1094 q-16 -80 -40 -145.5t-65.5 -127t-96.5 -103.5t-135.5 -67.5t-180.5 -25.5q-102 0 -202.5 24t-176.5 66z" />
<glyph unicode="z" horiz-adv-x="991" d="M84 0l35 178l635 742h-463l41 213h778l-33 -172l-637 -746h518l-40 -215h-834z" />
<glyph unicode="{" horiz-adv-x="849" d="M174 541l41 215h68q63 0 100.5 40.5t50.5 110.5l70 359q28 141 103.5 205.5t183.5 64.5h192l-41 -215h-104q-39 0 -64 -22t-33 -60l-63 -332q-41 -209 -207 -254l-2 -8q150 -46 109 -254l-66 -334q-14 -82 63 -82h105l-41 -213h-193q-108 0 -158 65t-24 204l70 360 q13 68 -10 109t-82 41h-68z" />
<glyph unicode="|" horiz-adv-x="507" d="M84 -238l352 1809h244l-352 -1809h-244z" />
<glyph unicode="}" horiz-adv-x="849" d="M117 -238l41 213h106q37 0 61.5 22.5t32.5 59.5l66 334q41 209 207 254l2 8q-150 45 -109 254l64 332q8 37 -8.5 59.5t-51.5 22.5h-108l41 215h192q109 0 161 -65t24 -205l-70 -359q-12 -68 13.5 -109.5t88.5 -41.5h56l-41 -215h-56q-66 0 -107 -41t-54 -109l-72 -360 q-28 -139 -103.5 -204t-183.5 -65h-192z" />
<glyph unicode="&#xa1;" horiz-adv-x="542" d="M70 -324l233 990h193l-152 -990h-274zM279 805l59 305h299l-59 -305h-299z" />
<glyph unicode="&#xa2;" horiz-adv-x="950" d="M186 541l66 329q37 185 131 285t281 127l28 152h201l-29 -154q64 -10 138 -40t120 -64l-102 -185q-169 84 -303 84q-95 0 -146.5 -41.5t-64.5 -107.5l-86 -441q-13 -66 22.5 -107.5t130.5 -41.5q81 0 151 18t173 62l53 -183q-152 -84 -311 -102l-25 -131h-200l24 129 q-324 50 -252 412z" />
<glyph unicode="&#xa3;" horiz-adv-x="1185" d="M76 0l37 190q72 34 114 59t82.5 63.5t58 89t17.5 118.5q0 39 -4 109h-219l35 180l168 25q-3 38 -3 96q0 113 29.5 202.5t80 148t122 97.5t151.5 55.5t173 16.5q117 0 231.5 -36t173.5 -83l-135 -186q-143 76 -291 76q-38 0 -73 -6t-75.5 -26t-70 -52.5t-49 -90.5 t-19.5 -135q0 -57 2 -75h467l-39 -207h-415q0 -10 1 -41t1 -41q0 -209 -166 -318l2 -8h631l-43 -221h-975z" />
<glyph unicode="&#xa4;" horiz-adv-x="1175" d="M102 266l205 172q-22 58 -22 146q0 191 106 325l-131 170l168 144l133 -172q101 55 242 55q136 0 213 -57l209 174l110 -144l-205 -172q21 -56 21 -141q0 -186 -115 -328l142 -172l-168 -143l-142 176q-95 -53 -233 -53q-143 0 -213 51l-209 -174zM485 618 q0 -86 46.5 -133t140.5 -47q139 0 208.5 82t69.5 213q0 86 -46 133t-140 47q-138 0 -208.5 -82t-70.5 -213z" />
<glyph unicode="&#xa5;" horiz-adv-x="1191" d="M231 248l35 182h283l20 105h-282l37 182h196l-209 717h269l155 -643h8l408 643h285l-488 -717h201l-37 -182h-285l-20 -105h285l-35 -182h-285l-47 -248h-258l47 248h-283z" />
<glyph unicode="&#xa6;" horiz-adv-x="505" d="M84 -238l162 828h243l-161 -828h-244zM274 743l162 828h244l-162 -828h-244z" />
<glyph unicode="&#xa7;" horiz-adv-x="1083" d="M55 -307l115 190q170 -84 328 -84q110 0 167.5 49t57.5 125q0 48 -30.5 82.5t-79.5 56.5t-107.5 42t-117.5 47t-108 63t-79.5 98t-30.5 144q0 106 44.5 182t123.5 148q-37 81 -37 163q0 210 125.5 330.5t376.5 120.5q124 0 234.5 -31.5t189.5 -83.5l-111 -194 q-176 84 -334 84q-110 0 -166.5 -48.5t-56.5 -125.5q0 -48 30.5 -82.5t79.5 -56.5t107.5 -42.5t117.5 -47t108 -62t79.5 -97t30.5 -143.5q0 -75 -25.5 -139.5t-59 -105.5t-85.5 -87q37 -72 37 -163q0 -210 -131 -330.5t-393 -120.5q-220 0 -400 119zM424 559q0 -49 23 -85.5 t65 -59.5t83.5 -38t97 -32.5t87.5 -32.5q78 68 78 154q0 49 -23 85.5t-65 59.5t-84 38t-97.5 32.5t-86.5 32.5q-78 -68 -78 -154z" />
<glyph unicode="&#xa8;" horiz-adv-x="901" d="M385 1284l49 248h246l-49 -248h-246zM770 1284l49 248h246l-49 -248h-246z" />
<glyph unicode="&#xa9;" horiz-adv-x="1763" d="M227 629q0 211 63 385.5t181 300.5t298 196t405 70q313 0 489 -172t176 -455q0 -209 -64 -386t-183 -306.5t-300.5 -202.5t-404.5 -73q-208 0 -359 84t-226 228t-75 331zM444 647q0 -220 118.5 -346.5t350.5 -126.5q168 0 303.5 58t223.5 160t135 239t47 297 q0 218 -120 339.5t-353 121.5q-169 0 -303.5 -55.5t-222 -155t-133.5 -235t-46 -296.5zM676 655l47 252q31 155 123 241.5t250 86.5q213 0 274 -184l-141 -86q-24 59 -59.5 83.5t-88.5 24.5q-82 0 -124 -43.5t-60 -136.5l-43 -223q-18 -93 7.5 -137t107.5 -44q53 0 95 23.5 t93 85.5l129 -84q-67 -93 -147.5 -139.5t-190.5 -46.5q-161 0 -231.5 88t-40.5 239z" />
<glyph unicode="&#xaa;" horiz-adv-x="958" d="M281 987l32 174q27 139 102.5 214t194.5 75q52 0 100.5 -22t71.5 -52l43 64h136l-103 -529q-9 -42 1 -64t34 -22q17 0 41 4l10 -114q-56 -27 -121 -27q-103 0 -133 68q-76 -72 -188 -72q-121 0 -184.5 83t-36.5 220zM457 991q-14 -77 6.5 -112t83.5 -35q62 0 139 57 l62 334q-47 55 -113 55q-65 0 -99.5 -36t-48.5 -111z" />
<glyph unicode="&#xab;" horiz-adv-x="1271" d="M186 541l29 143l637 379l-39 -195l-332 -256l232 -266l-37 -184zM729 541l29 143l637 379l-39 -195l-332 -256l231 -266l-36 -184z" />
<glyph unicode="&#xac;" horiz-adv-x="1093" d="M135 561l41 209h1041l-127 -653h-213l86 444h-828z" />
<glyph unicode="&#xad;" horiz-adv-x="696" d="M170 510l41 215h553l-41 -215h-553z" />
<glyph unicode="&#xae;" horiz-adv-x="1097" d="M260 893q0 165 64.5 292t193 201t305.5 74q187 0 293.5 -101.5t106.5 -273.5q0 -165 -65.5 -292.5t-194.5 -201t-304 -73.5q-188 0 -293.5 101.5t-105.5 273.5zM379 905q0 -131 73 -203.5t220 -72.5q211 0 321.5 123t110.5 321q0 131 -73 204t-220 73 q-211 0 -321.5 -123.5t-110.5 -321.5zM516 721l107 539h159q80 0 128 -37t48 -105q0 -77 -36 -125.5t-95 -68.5l82 -203h-118l-70 186h-59l-37 -186h-109zM680 1006h63q50 0 76.5 25.5t26.5 72.5q0 59 -80 59h-55z" />
<glyph unicode="&#xaf;" horiz-adv-x="784" d="M369 1337l37 189h565l-37 -189h-565z" />
<glyph unicode="&#xb0;" horiz-adv-x="712" d="M305 1182q0 134 93.5 228.5t242.5 94.5q110 0 177 -65.5t67 -163.5q0 -134 -93.5 -229t-242.5 -95q-110 0 -177 66t-67 164zM467 1204q0 -46 26.5 -75t75.5 -29q67 0 110.5 44.5t43.5 108.5q0 46 -26.5 75.5t-75.5 29.5q-66 0 -110 -45t-44 -109z" />
<glyph unicode="&#xb1;" horiz-adv-x="1013" d="M27 0l41 209h960l-41 -209h-960zM154 655l41 209h372l72 373h213l-72 -373h375l-41 -209h-375l-71 -372h-213l71 372h-372z" />
<glyph unicode="&#xb2;" horiz-adv-x="829" d="M190 502l25 129q15 76 72 148t127.5 124.5t139 99t115 89.5t46.5 79q0 30 -25.5 47t-68.5 17q-99 0 -226 -68l-65 168q73 49 163.5 79t178.5 30q126 0 201 -60.5t75 -158.5q0 -77 -41 -144t-103.5 -116t-126.5 -90.5t-121.5 -84.5t-78.5 -81h377l-41 -207h-623z" />
<glyph unicode="&#xb3;" horiz-adv-x="829" d="M193 608l112 164q128 -70 225 -70q77 0 109.5 35.5t32.5 77.5q0 32 -23 53t-67 21h-195l35 184h172q58 0 91.5 27.5t33.5 70.5q0 30 -21 47t-61 17q-99 0 -227 -68l-66 168q77 50 171 79.5t177 29.5q128 0 193 -58.5t65 -158.5q0 -143 -123 -228q68 -47 68 -151 q0 -56 -10.5 -104.5t-37.5 -96.5t-69.5 -82t-111.5 -55t-158 -21q-85 0 -170 35t-145 84z" />
<glyph unicode="&#xb4;" horiz-adv-x="866" d="M508 1262l176 354h254l-264 -354h-166z" />
<glyph unicode="&#xb5;" d="M47 -414l301 1547h244l-135 -699q-22 -115 12.5 -164t124.5 -49q60 0 123.5 28.5t105.5 63.5l160 820h246l-221 -1133h-201l2 121q-167 -137 -346 -137q-48 0 -90 10l-80 -408h-246z" />
<glyph unicode="&#xb6;" horiz-adv-x="1193" d="M256 946q0 132 64 243t181 178t263 67h661l-41 -211h-143l-319 -1637h-211l319 1637h-129l-319 -1637h-211l198 1022q-140 0 -226.5 95t-86.5 243z" />
<glyph unicode="&#xb7;" horiz-adv-x="481" d="M182 477l60 305h299l-60 -305h-299z" />
<glyph unicode="&#xb8;" horiz-adv-x="880" d="M156 -393l57 108q78 -28 139 -28q56 0 79.5 17.5t23.5 59.5q0 48 -60 48q-31 0 -84 -15l-43 53l49 175h148l-47 -109q23 4 41 4q60 0 100.5 -31.5t40.5 -97.5q0 -113 -61 -172t-195 -59q-107 0 -188 47z" />
<glyph unicode="&#xb9;" horiz-adv-x="829" d="M244 502l41 207h202l95 485l-201 -74l-41 183l336 131h172l-139 -725h161l-41 -207h-585z" />
<glyph unicode="&#xba;" horiz-adv-x="794" d="M291 977l33 176q57 297 346 297q149 0 213.5 -78.5t36.5 -218.5l-35 -176q-28 -143 -109 -218t-235 -75q-146 0 -211.5 78.5t-38.5 214.5zM471 985q-26 -141 90 -141q64 0 99 34t49 107l30 162q14 74 -7.5 108.5t-82.5 34.5q-63 0 -98 -34.5t-49 -108.5z" />
<glyph unicode="&#xbb;" horiz-adv-x="1271" d="M113 162l37 192l333 258l-233 265l39 186l489 -379l-28 -143zM655 162l37 192l334 258l-233 265l38 186l490 -379l-29 -143z" />
<glyph unicode="&#xbc;" horiz-adv-x="1994" d="M244 502l41 207h202l95 485l-201 -74l-41 183l336 131h172l-139 -725h161l-41 -207h-585zM647 -51l821 1536h242l-821 -1536h-242zM1225 182l32 174l369 576h227l-348 -547h162l39 205h203l-39 -205h102l-39 -203h-102l-37 -182h-203l37 182h-403z" />
<glyph unicode="&#xbd;" horiz-adv-x="1996" d="M244 502l41 207h202l95 485l-201 -74l-41 183l336 131h172l-139 -725h161l-41 -207h-585zM639 -51l821 1536h242l-821 -1536h-242zM1274 0l24 129q11 56 44.5 109.5t78 96t96.5 82t101.5 73t89.5 64t65 60.5t25 56q0 30 -25 46.5t-69 16.5q-100 0 -225 -67l-66 168 q73 48 163.5 78t178.5 30q126 0 201.5 -60.5t75.5 -158.5q0 -77 -41 -144t-103.5 -116t-126.5 -90.5t-121.5 -84.5t-78.5 -81h376l-41 -207h-622z" />
<glyph unicode="&#xbe;" horiz-adv-x="1994" d="M203 608l112 164q128 -70 226 -70q41 0 70.5 11t43.5 29.5t20.5 36.5t6.5 36q0 32 -23 53t-67 21h-195l35 184h172q58 0 91.5 27.5t33.5 70.5q0 30 -21 47t-61 17q-99 0 -227 -68l-66 168q77 50 171 79.5t177 29.5q128 0 193.5 -58.5t65.5 -158.5q0 -143 -123 -228 q67 -46 67 -151q0 -56 -10.5 -104.5t-37.5 -96.5t-69.5 -82t-111.5 -55t-158 -21q-85 0 -170 35t-145 84zM627 -51l823 1536h242l-824 -1536h-241zM1225 182l32 174l369 576h227l-348 -547h162l39 205h203l-39 -205h102l-39 -203h-102l-37 -182h-203l37 182h-403z" />
<glyph unicode="&#xbf;" horiz-adv-x="1046" d="M92 -16q0 79 26 141.5t68.5 103t94.5 74t106 61.5t101 56.5t81.5 69t44.5 90.5l21 100h237l-28 -145q-15 -79 -72.5 -144.5t-127.5 -109.5t-138 -84.5t-114 -88.5t-46 -102q0 -127 197 -127q141 0 329 98l95 -172q-97 -65 -225.5 -105t-260.5 -40q-182 0 -285.5 92.5 t-103.5 231.5zM627 805l59 305h299l-59 -305h-299z" />
<glyph unicode="&#xc0;" horiz-adv-x="1245" d="M39 0l741 1434h242l184 -1434h-262l-37 317h-446l-162 -317h-260zM565 545h328l-57 526h-9zM725 1923h254l37 -354h-156z" />
<glyph unicode="&#xc1;" horiz-adv-x="1245" d="M39 0l741 1434h242l184 -1434h-262l-37 317h-446l-162 -317h-260zM565 545h328l-57 526h-9zM817 1569l176 354h254l-264 -354h-166z" />
<glyph unicode="&#xc2;" horiz-adv-x="1245" d="M39 0l741 1434h242l184 -1434h-262l-37 317h-446l-162 -317h-260zM565 545h328l-57 526h-9zM604 1569l299 354h193l159 -354h-161l-127 162l-189 -162h-174z" />
<glyph unicode="&#xc3;" horiz-adv-x="1245" d="M39 0l741 1434h242l184 -1434h-262l-37 317h-446l-162 -317h-260zM565 545h328l-57 526h-9zM578 1642q123 218 270 218q50 0 95.5 -26t82.5 -51.5t68 -25.5q28 0 54.5 19.5t68.5 76.5l112 -69q-122 -217 -262 -217q-39 0 -77 16t-62 35t-53 35t-54 16q-28 0 -54.5 -19.5 t-70.5 -76.5z" />
<glyph unicode="&#xc4;" horiz-adv-x="1245" d="M39 0l741 1434h242l184 -1434h-262l-37 317h-446l-162 -317h-260zM565 545h328l-57 526h-9zM618 1591l50 248h245l-49 -248h-246zM1004 1591l49 248h245l-49 -248h-245z" />
<glyph unicode="&#xc5;" horiz-adv-x="1245" d="M39 0l741 1434h242l184 -1434h-262l-37 317h-446l-162 -317h-260zM565 545h328l-57 526h-9zM725 1700q0 118 74.5 190t195.5 72q90 0 146.5 -48.5t56.5 -131.5q0 -120 -73.5 -191t-198.5 -71q-89 0 -145 48.5t-56 131.5zM866 1724q0 -34 20.5 -53.5t57.5 -19.5 q51 0 81 30.5t30 77.5q0 34 -20 53t-56 19q-53 0 -83 -30t-30 -77z" />
<glyph unicode="&#xc6;" horiz-adv-x="1683" d="M39 0l745 1434h1057l-43 -226h-741l45 -364h579l-43 -226h-510l43 -393h435l-43 -225h-617l-39 317h-446l-162 -317h-260zM565 545h328l-57 526h-9z" />
<glyph unicode="&#xc7;" horiz-adv-x="1130" d="M215 535l72 364q24 128 69.5 226t117.5 172.5t178 113.5t243 39q164 0 270.5 -79.5t149.5 -215.5l-230 -104q-35 89 -90 126t-137 37q-251 0 -309 -294l-80 -406q-58 -295 201 -295q84 0 151.5 35t134.5 127l201 -98q-98 -149 -222.5 -221.5t-287.5 -77.5l-29 -68 q23 4 41 4q60 0 101 -31.5t41 -97.5q0 -113 -61 -172t-195 -59q-43 0 -96 12t-93 35l58 108q78 -28 139 -28q56 0 79 17t23 60q0 48 -59 48q-32 0 -84 -15l-43 53l39 144q-188 32 -262 174.5t-31 366.5z" />
<glyph unicode="&#xc8;" horiz-adv-x="1087" d="M162 0l278 1434h805l-43 -226h-547l-71 -364h501l-43 -226h-501l-78 -393h547l-43 -225h-805zM700 1923h254l37 -354h-155z" />
<glyph unicode="&#xc9;" horiz-adv-x="1087" d="M162 0l278 1434h805l-43 -226h-547l-71 -364h501l-43 -226h-501l-78 -393h547l-43 -225h-805zM748 1569l176 354h254l-265 -354h-165z" />
<glyph unicode="&#xca;" horiz-adv-x="1087" d="M162 0l278 1434h805l-43 -226h-547l-71 -364h501l-43 -226h-501l-78 -393h547l-43 -225h-805zM549 1569l299 354h192l160 -354h-162l-127 162l-188 -162h-174z" />
<glyph unicode="&#xcb;" horiz-adv-x="1087" d="M162 0l278 1434h805l-43 -226h-547l-71 -364h501l-43 -226h-501l-78 -393h547l-43 -225h-805zM567 1591l49 248h246l-49 -248h-246zM952 1591l49 248h246l-49 -248h-246z" />
<glyph unicode="&#xcc;" horiz-adv-x="581" d="M162 0l278 1434h258l-278 -1434h-258zM416 1923h254l37 -354h-156z" />
<glyph unicode="&#xcd;" horiz-adv-x="581" d="M162 0l278 1434h258l-278 -1434h-258zM483 1569l176 354h254l-264 -354h-166z" />
<glyph unicode="&#xce;" horiz-adv-x="581" d="M162 0l278 1434h258l-278 -1434h-258zM279 1569l299 354h192l160 -354h-162l-127 162l-188 -162h-174z" />
<glyph unicode="&#xcf;" horiz-adv-x="581" d="M162 0l278 1434h258l-278 -1434h-258zM293 1591l49 248h246l-49 -248h-246zM678 1591l49 248h246l-49 -248h-246z" />
<glyph unicode="&#xd0;" horiz-adv-x="1304" d="M154 625l41 215h131l114 594h443q223 0 353 -134.5t130 -390.5q0 -264 -86.5 -471.5t-242.5 -322.5t-355 -115h-520l121 625h-129zM461 225h190q205 0 327 172t122 477q0 67 -13 123.5t-41 105.5t-79.5 77t-122.5 28h-191l-73 -368h266l-41 -215h-266z" />
<glyph unicode="&#xd1;" horiz-adv-x="1363" d="M162 0l278 1434h222l391 -945h8l184 945h244l-279 -1434h-225l-387 944h-8l-184 -944h-244zM651 1642q123 218 271 218q39 0 76.5 -16t61.5 -35.5t53 -35.5t54 -16q28 0 54.5 19.5t68.5 76.5l113 -69q-122 -217 -262 -217q-39 0 -77 16t-62 35t-53 35t-54 16 q-28 0 -54.5 -19.5t-70.5 -76.5z" />
<glyph unicode="&#xd2;" horiz-adv-x="1243" d="M207 492l88 448q98 510 598 510q167 0 272.5 -66.5t141 -180t6.5 -263.5l-88 -448q-98 -508 -596 -508q-167 0 -273 65.5t-142 179t-7 263.5zM469 514q-29 -149 16 -222t179 -73q135 0 206.5 72.5t100.5 222.5l80 406q29 148 -14.5 221t-178.5 73q-134 0 -207 -73.5 t-102 -220.5zM737 1923h254l37 -354h-156z" />
<glyph unicode="&#xd3;" horiz-adv-x="1243" d="M207 492l88 448q98 510 598 510q167 0 272.5 -66.5t141 -180t6.5 -263.5l-88 -448q-98 -508 -596 -508q-167 0 -273 65.5t-142 179t-7 263.5zM469 514q-29 -149 16 -222t179 -73q135 0 206.5 72.5t100.5 222.5l80 406q29 148 -14.5 221t-178.5 73q-134 0 -207 -73.5 t-102 -220.5zM805 1569l176 354h254l-264 -354h-166z" />
<glyph unicode="&#xd4;" horiz-adv-x="1243" d="M207 492l88 448q98 510 598 510q167 0 272.5 -66.5t141 -180t6.5 -263.5l-88 -448q-98 -508 -596 -508q-167 0 -273 65.5t-142 179t-7 263.5zM469 514q-29 -149 16 -222t179 -73q135 0 206.5 72.5t100.5 222.5l80 406q29 148 -14.5 221t-178.5 73q-134 0 -207 -73.5 t-102 -220.5zM602 1569l299 354h193l159 -354h-161l-127 162l-189 -162h-174z" />
<glyph unicode="&#xd5;" horiz-adv-x="1243" d="M207 492l88 448q98 510 598 510q167 0 272.5 -66.5t141 -180t6.5 -263.5l-88 -448q-98 -508 -596 -508q-167 0 -273 65.5t-142 179t-7 263.5zM469 514q-29 -149 16 -222t179 -73q135 0 206.5 72.5t100.5 222.5l80 406q29 148 -14.5 221t-178.5 73q-134 0 -207 -73.5 t-102 -220.5zM580 1642q123 218 270 218q50 0 95.5 -26t82.5 -51.5t68 -25.5q28 0 54.5 19.5t68.5 76.5l112 -69q-122 -217 -262 -217q-39 0 -77 16t-62 35t-53 35t-54 16q-28 0 -54.5 -19.5t-70.5 -76.5z" />
<glyph unicode="&#xd6;" horiz-adv-x="1243" d="M207 492l88 448q98 510 598 510q167 0 272.5 -66.5t141 -180t6.5 -263.5l-88 -448q-98 -508 -596 -508q-167 0 -273 65.5t-142 179t-7 263.5zM469 514q-29 -149 16 -222t179 -73q135 0 206.5 72.5t100.5 222.5l80 406q29 148 -14.5 221t-178.5 73q-134 0 -207 -73.5 t-102 -220.5zM631 1591l49 248h246l-49 -248h-246zM1016 1591l49 248h246l-49 -248h-246z" />
<glyph unicode="&#xd7;" horiz-adv-x="1001" d="M154 344l338 279l-218 268l160 137l219 -270l328 270l119 -149l-326 -269l221 -266l-159 -137l-224 268l-340 -280z" />
<glyph unicode="&#xd8;" horiz-adv-x="1243" d="M176 -100l117 196q-137 137 -86 396l88 448q98 510 598 510q103 0 192 -29l68 113h182l-114 -195q143 -137 92 -399l-88 -448q-98 -508 -596 -508q-106 0 -201 30l-68 -114h-184zM459 373l495 829q-40 12 -96 12q-134 0 -207 -73.5t-102 -220.5l-80 -406 q-15 -85 -10 -141zM559 233q41 -14 105 -14q135 0 206.5 72.5t100.5 222.5l80 406q18 86 8 151z" />
<glyph unicode="&#xd9;" horiz-adv-x="1314" d="M248 467l188 967h258l-184 -947q-27 -134 12.5 -203t175.5 -69t202 69t93 203l185 947h258l-189 -967q-47 -247 -178.5 -365t-390.5 -118q-247 0 -360.5 126.5t-69.5 356.5zM784 1923h254l37 -354h-155z" />
<glyph unicode="&#xda;" horiz-adv-x="1314" d="M248 467l188 967h258l-184 -947q-27 -134 12.5 -203t175.5 -69t202 69t93 203l185 947h258l-189 -967q-47 -247 -178.5 -365t-390.5 -118q-247 0 -360.5 126.5t-69.5 356.5zM854 1569l176 354h254l-264 -354h-166z" />
<glyph unicode="&#xdb;" horiz-adv-x="1314" d="M248 467l188 967h258l-184 -947q-27 -134 12.5 -203t175.5 -69t202 69t93 203l185 947h258l-189 -967q-47 -247 -178.5 -365t-390.5 -118q-247 0 -360.5 126.5t-69.5 356.5zM643 1569l299 354h193l159 -354h-161l-127 162l-189 -162h-174z" />
<glyph unicode="&#xdc;" horiz-adv-x="1316" d="M248 467l188 967h258l-184 -947q-27 -134 12.5 -203t175.5 -69t202 69t93 203l185 947h258l-189 -967q-47 -247 -178.5 -365t-390.5 -118q-247 0 -360.5 126.5t-69.5 356.5zM664 1591l49 248h245l-49 -248h-245zM1049 1591l49 248h245l-49 -248h-245z" />
<glyph unicode="&#xdd;" horiz-adv-x="1191" d="M311 1434h267l155 -643h8l408 643h287l-607 -893l-104 -541h-258l104 541zM801 1569l176 354h254l-264 -354h-166z" />
<glyph unicode="&#xde;" horiz-adv-x="1198" d="M162 0l278 1434h258l-41 -207h164q214 0 331.5 -86.5t117.5 -259.5q0 -301 -151 -446.5t-435 -145.5h-209l-55 -289h-258zM520 514h172q169 0 240.5 84.5t71.5 235.5q0 87 -55.5 127t-176.5 40h-158z" />
<glyph unicode="&#xdf;" horiz-adv-x="1226" d="M133 0l217 1112q86 442 555 442q102 0 182.5 -28.5t130.5 -77.5t75.5 -111.5t25.5 -134.5q0 -120 -62 -216.5t-153 -158.5q69 -36 102 -112t33 -166q0 -256 -161.5 -402.5t-420.5 -146.5h-163l41 215h163q70 0 128 28.5t93 74t53.5 97t18.5 101.5q0 88 -50 139.5 t-155 51.5h-98l41 211h78q87 0 149.5 40t89.5 94t27 111q0 74 -51.5 126t-149.5 52q-123 0 -190 -60t-86 -153l-219 -1128h-244z" />
<glyph unicode="&#xe0;" horiz-adv-x="1175" d="M176 444l53 267q42 209 158.5 323.5t296.5 114.5q78 0 142.5 -32.5t101.5 -80.5l69 97h197l-156 -803q-23 -129 54 -129q36 0 63 6l16 -176q-92 -41 -186 -41q-147 0 -190 104q-114 -110 -287 -110q-182 0 -277.5 128.5t-54.5 331.5zM424 449q-24 -120 11 -177t136 -57 q54 0 111.5 26t103.5 66l101 520q-30 39 -77 65t-101 26q-101 0 -157.5 -57t-80.5 -177zM602 1616h254l37 -354h-156z" />
<glyph unicode="&#xe1;" horiz-adv-x="1175" d="M176 444l53 267q42 209 158.5 323.5t296.5 114.5q78 0 142.5 -32.5t101.5 -80.5l69 97h197l-156 -803q-23 -129 54 -129q36 0 63 6l16 -176q-92 -41 -186 -41q-147 0 -190 104q-114 -110 -287 -110q-182 0 -277.5 128.5t-54.5 331.5zM424 449q-24 -120 11 -177t136 -57 q54 0 111.5 26t103.5 66l101 520q-30 39 -77 65t-101 26q-101 0 -157.5 -57t-80.5 -177zM676 1262l176 354h254l-264 -354h-166z" />
<glyph unicode="&#xe2;" horiz-adv-x="1175" d="M176 444l53 267q42 209 158.5 323.5t296.5 114.5q78 0 142.5 -32.5t101.5 -80.5l69 97h197l-156 -803q-23 -129 54 -129q36 0 63 6l16 -176q-92 -41 -186 -41q-147 0 -190 104q-114 -110 -287 -110q-182 0 -277.5 128.5t-54.5 331.5zM424 449q-24 -120 11 -177t136 -57 q54 0 111.5 26t103.5 66l101 520q-30 39 -77 65t-101 26q-101 0 -157.5 -57t-80.5 -177zM479 1262l299 354h193l159 -354h-161l-127 161l-189 -161h-174z" />
<glyph unicode="&#xe3;" horiz-adv-x="1175" d="M176 444l53 267q42 209 158.5 323.5t296.5 114.5q78 0 142.5 -32.5t101.5 -80.5l69 97h197l-156 -803q-23 -129 54 -129q36 0 63 6l16 -176q-92 -41 -186 -41q-147 0 -190 104q-114 -110 -287 -110q-182 0 -277.5 128.5t-54.5 331.5zM424 449q-24 -120 11 -177t136 -57 q54 0 111.5 26t103.5 66l101 520q-30 39 -77 65t-101 26q-101 0 -157.5 -57t-80.5 -177zM432 1335q122 217 270 217q39 0 77 -16t62 -35t53 -35t54 -16q28 0 54.5 19.5t68.5 76.5l113 -69q-122 -217 -262 -217q-39 0 -77 16t-62 35t-53 35t-54 16q-28 0 -54.5 -19.5 t-70.5 -76.5z" />
<glyph unicode="&#xe4;" horiz-adv-x="1175" d="M176 444l53 267q42 209 158.5 323.5t296.5 114.5q78 0 142.5 -32.5t101.5 -80.5l69 97h197l-156 -803q-23 -129 54 -129q36 0 63 6l16 -176q-92 -41 -186 -41q-147 0 -190 104q-114 -110 -287 -110q-182 0 -277.5 128.5t-54.5 331.5zM424 449q-24 -120 11 -177t136 -57 q54 0 111.5 26t103.5 66l101 520q-30 39 -77 65t-101 26q-101 0 -157.5 -57t-80.5 -177zM489 1284l50 248h245l-49 -248h-246zM874 1284l50 248h245l-49 -248h-246z" />
<glyph unicode="&#xe5;" horiz-adv-x="1175" d="M176 444l53 267q42 209 158.5 323.5t296.5 114.5q78 0 142.5 -32.5t101.5 -80.5l69 97h197l-156 -803q-23 -129 54 -129q36 0 63 6l16 -176q-92 -41 -186 -41q-147 0 -190 104q-114 -110 -287 -110q-182 0 -277.5 128.5t-54.5 331.5zM424 449q-24 -120 11 -177t136 -57 q54 0 111.5 26t103.5 66l101 520q-30 39 -77 65t-101 26q-101 0 -157.5 -57t-80.5 -177zM598 1393q0 118 74.5 190t195.5 72q90 0 146.5 -48.5t56.5 -131.5q0 -120 -74 -191.5t-198 -71.5q-89 0 -145 49t-56 132zM739 1417q0 -34 21 -54t57 -20q51 0 81 31t30 78 q0 34 -20 53t-56 19q-53 0 -83 -30t-30 -77z" />
<glyph unicode="&#xe6;" horiz-adv-x="1644" d="M141 276q0 101 44 181.5t114.5 131.5t165 85t189.5 47.5t194 13.5l10 49q15 71 -22 112.5t-142 41.5q-134 0 -313 -78l-66 170q101 57 214.5 88t215.5 31q210 0 297 -96q132 96 320 96q422 0 338 -438l-45 -234h-608l-21 -110q-13 -73 26.5 -121.5t143.5 -48.5 q78 0 139.5 19t161.5 67l64 -183q-105 -58 -201 -87t-217 -29q-251 0 -330 155q-31 -32 -60 -55t-73.5 -48t-104 -38.5t-129.5 -13.5q-136 0 -220.5 83.5t-84.5 208.5zM397 313q0 -52 39 -82t99 -30q72 0 136 36.5t101 88.5l45 237q-75 0 -146.5 -14.5t-134 -42.5 t-101 -78.5t-38.5 -114.5zM1083 670h369q31 134 3.5 200t-134.5 66t-158 -60t-80 -206z" />
<glyph unicode="&#xe7;" horiz-adv-x="958" d="M176 424l55 285q41 209 171.5 324.5t351.5 115.5q131 0 222 -56t136 -151l-199 -137q-56 125 -186 125q-209 0 -254 -242l-47 -244q-22 -110 15 -175.5t151 -65.5q66 0 120.5 26t123.5 101l139 -137q-87 -101 -188 -155t-244 -54l-29 -68q23 4 41 4q60 0 100.5 -31.5 t40.5 -97.5q0 -113 -61 -172t-195 -59q-107 0 -188 47l57 108q78 -28 140 -28q56 0 79 17t23 60q0 48 -59 48q-32 0 -84 -15l-43 53l43 150q-141 39 -202.5 150t-29.5 274z" />
<glyph unicode="&#xe8;" horiz-adv-x="1028" d="M168 389l61 322q39 208 166 323t340 115t300.5 -114t47.5 -324l-45 -234h-608l-20 -110q-13 -73 26.5 -121.5t143.5 -48.5q79 0 147 20t164 66l63 -183q-106 -58 -201 -87t-216 -29q-217 0 -311.5 107t-57.5 298zM469 670h369q17 89 13.5 148t-38.5 88.5t-108 29.5 q-107 0 -158 -60.5t-78 -205.5zM586 1616h254l37 -354h-156z" />
<glyph unicode="&#xe9;" horiz-adv-x="1028" d="M168 389l61 322q39 208 166 323t340 115t300.5 -114t47.5 -324l-45 -234h-608l-20 -110q-13 -73 26.5 -121.5t143.5 -48.5q79 0 147 20t164 66l63 -183q-106 -58 -201 -87t-216 -29q-217 0 -311.5 107t-57.5 298zM469 670h369q17 89 13.5 148t-38.5 88.5t-108 29.5 q-107 0 -158 -60.5t-78 -205.5zM653 1262l176 354h254l-264 -354h-166z" />
<glyph unicode="&#xea;" horiz-adv-x="1028" d="M168 389l61 322q39 208 166 323t340 115t300.5 -114t47.5 -324l-45 -234h-608l-20 -110q-13 -73 26.5 -121.5t143.5 -48.5q79 0 147 20t164 66l63 -183q-106 -58 -201 -87t-216 -29q-217 0 -311.5 107t-57.5 298zM451 1262l299 354h192l160 -354h-162l-127 161l-188 -161 h-174zM469 670h369q17 89 13.5 148t-38.5 88.5t-108 29.5q-107 0 -158 -60.5t-78 -205.5z" />
<glyph unicode="&#xeb;" horiz-adv-x="1028" d="M168 389l61 322q39 208 166 323t340 115t300.5 -114t47.5 -324l-45 -234h-608l-20 -110q-13 -73 26.5 -121.5t143.5 -48.5q79 0 147 20t164 66l63 -183q-106 -58 -201 -87t-216 -29q-217 0 -311.5 107t-57.5 298zM461 1284l49 248h246l-49 -248h-246zM469 670h369 q17 89 13.5 148t-38.5 88.5t-108 29.5q-107 0 -158 -60.5t-78 -205.5zM846 1284l49 248h246l-49 -248h-246z" />
<glyph unicode="&#xec;" horiz-adv-x="681" d="M227 926l39 207h436l-157 -803q-12 -64 8 -96.5t63 -32.5q28 0 58 6l26 -176q-70 -41 -172 -41q-138 0 -200.5 89t-30.5 251l117 596h-187zM420 1616h254l37 -354h-156z" />
<glyph unicode="&#xed;" horiz-adv-x="681" d="M227 926l39 207h436l-157 -803q-12 -64 8 -96.5t63 -32.5q28 0 58 6l26 -176q-70 -41 -172 -41q-138 0 -200.5 89t-30.5 251l117 596h-187zM506 1262l176 354h254l-264 -354h-166z" />
<glyph unicode="&#xee;" horiz-adv-x="681" d="M217 1262l299 354h193l159 -354h-161l-127 161l-189 -161h-174zM227 926l39 207h436l-157 -803q-12 -64 8 -96.5t63 -32.5q28 0 58 6l26 -176q-70 -41 -172 -41q-138 0 -200.5 89t-30.5 251l117 596h-187z" />
<glyph unicode="&#xef;" horiz-adv-x="681" d="M223 1284l49 248h246l-49 -248h-246zM227 926l39 207h436l-157 -803q-12 -64 8 -96.5t63 -32.5q28 0 58 6l26 -176q-70 -41 -172 -41q-138 0 -200.5 89t-30.5 251l117 596h-187zM608 1284l49 248h246l-49 -248h-246z" />
<glyph unicode="&#xf0;" horiz-adv-x="1060" d="M170 420l23 121q83 442 514 442q59 0 113.5 -13t84.5 -34q30 144 -10 207l-139 -107l-101 121l125 103q-42 14 -92 14q-97 0 -190 -41l-47 164q65 31 146.5 50t152.5 19q136 0 223 -49l157 133l101 -123l-139 -116q100 -153 47 -420q-55 -295 -90 -471 q-20 -105 -57.5 -183.5t-97.5 -136t-148.5 -87t-204.5 -29.5q-221 0 -315.5 115.5t-55.5 320.5zM418 434q-24 -122 9.5 -177.5t139.5 -55.5t161 55.5t79 177.5l18 96q24 123 -9.5 178.5t-139.5 55.5t-161 -55.5t-79 -178.5z" />
<glyph unicode="&#xf1;" horiz-adv-x="1146" d="M137 0l219 1133h201v-121q167 137 338 137q85 0 146 -32.5t90.5 -87.5t39.5 -127t-8 -150l-145 -752h-246l135 698q21 106 -14.5 159.5t-122.5 53.5q-60 0 -123.5 -28.5t-103.5 -63.5l-160 -819h-246zM487 1335q122 217 271 217q39 0 77 -16t62 -35t53 -35t54 -16 q28 0 54 19.5t68 76.5l113 -69q-122 -217 -262 -217q-39 0 -77 16t-62 35t-53 35t-54 16q-28 0 -54.5 -19.5t-70.5 -76.5z" />
<glyph unicode="&#xf2;" horiz-adv-x="1064" d="M174 420l55 287q41 213 169 327.5t347 114.5q218 0 312.5 -117t52.5 -325l-57 -287q-42 -216 -167.5 -326t-346.5 -110q-215 0 -309.5 116t-55.5 320zM422 434q-24 -122 9.5 -177.5t139.5 -55.5t161 55.5t79 177.5l51 262q24 123 -9.5 178.5t-139.5 55.5t-161 -55.5 t-79 -178.5zM594 1616h254l37 -354h-156z" />
<glyph unicode="&#xf3;" horiz-adv-x="1064" d="M174 420l55 287q41 213 169 327.5t347 114.5q218 0 312.5 -117t52.5 -325l-57 -287q-42 -216 -167.5 -326t-346.5 -110q-215 0 -309.5 116t-55.5 320zM422 434q-24 -122 9.5 -177.5t139.5 -55.5t161 55.5t79 177.5l51 262q24 123 -9.5 178.5t-139.5 55.5t-161 -55.5 t-79 -178.5zM657 1262l177 354h253l-264 -354h-166z" />
<glyph unicode="&#xf4;" horiz-adv-x="1064" d="M174 420l55 287q41 213 169 327.5t347 114.5q218 0 312.5 -117t52.5 -325l-57 -287q-42 -216 -167.5 -326t-346.5 -110q-215 0 -309.5 116t-55.5 320zM422 434q-24 -122 9.5 -177.5t139.5 -55.5t161 55.5t79 177.5l51 262q24 123 -9.5 178.5t-139.5 55.5t-161 -55.5 t-79 -178.5zM457 1262l299 354h192l160 -354h-162l-127 161l-188 -161h-174z" />
<glyph unicode="&#xf5;" horiz-adv-x="1064" d="M174 420l55 287q41 213 169 327.5t347 114.5q218 0 312.5 -117t52.5 -325l-57 -287q-42 -216 -167.5 -326t-346.5 -110q-215 0 -309.5 116t-55.5 320zM422 434q-24 -122 9.5 -177.5t139.5 -55.5t161 55.5t79 177.5l51 262q24 123 -9.5 178.5t-139.5 55.5t-161 -55.5 t-79 -178.5zM434 1335q122 217 271 217q50 0 95 -25.5t82 -51t68 -25.5q28 0 54.5 19.5t68.5 76.5l113 -69q-122 -217 -262 -217q-39 0 -77 16t-62 35t-53 35t-54 16q-28 0 -54.5 -19.5t-70.5 -76.5z" />
<glyph unicode="&#xf6;" horiz-adv-x="1064" d="M174 420l55 287q41 213 169 327.5t347 114.5q218 0 312.5 -117t52.5 -325l-57 -287q-42 -216 -167.5 -326t-346.5 -110q-215 0 -309.5 116t-55.5 320zM422 434q-24 -122 9.5 -177.5t139.5 -55.5t161 55.5t79 177.5l51 262q24 123 -9.5 178.5t-139.5 55.5t-161 -55.5 t-79 -178.5zM477 1284l49 248h246l-49 -248h-246zM862 1284l49 248h246l-49 -248h-246z" />
<glyph unicode="&#xf7;" horiz-adv-x="1013" d="M125 508l41 209h960l-41 -209h-960zM403 231q0 75 45 127t138 52q64 0 94.5 -31t30.5 -82q0 -75 -45 -125.5t-138 -50.5q-64 0 -94.5 30t-30.5 80zM539 924q0 76 43.5 127t136.5 51q64 0 95.5 -31t31.5 -82q0 -75 -44.5 -125.5t-137.5 -50.5q-64 0 -94.5 30t-30.5 81z " />
<glyph unicode="&#xf8;" horiz-adv-x="1064" d="M174 420l55 287q41 213 169 327.5t347 114.5q80 0 148 -19l51 87h164l-88 -148q140 -116 90 -362l-57 -287q-42 -216 -167.5 -326t-346.5 -110q-87 0 -152 18l-47 -80h-162l84 144q-135 114 -88 354zM412 317l358 607q-24 6 -57 6q-106 0 -161 -55.5t-79 -178.5l-51 -262 q-13 -63 -10 -117zM508 207q27 -6 63 -6q106 0 161 55.5t79 177.5l51 262q13 78 8 121z" />
<glyph unicode="&#xf9;" d="M192.5 224.5q-9.5 72.5 8.5 156.5l145 752h246l-135 -699q-22 -115 12.5 -164t124.5 -49q60 0 123.5 28.5t105.5 63.5l160 820h246l-221 -1133h-201l2 121q-153 -137 -328 -137q-89 0 -152.5 30.5t-95 84t-41 126zM647 1616h254l37 -354h-156z" />
<glyph unicode="&#xfa;" d="M192.5 224.5q-9.5 72.5 8.5 156.5l145 752h246l-135 -699q-22 -115 12.5 -164t124.5 -49q60 0 123.5 28.5t105.5 63.5l160 820h246l-221 -1133h-201l2 121q-153 -137 -328 -137q-89 0 -152.5 30.5t-95 84t-41 126zM705 1262l176 354h254l-265 -354h-165z" />
<glyph unicode="&#xfb;" d="M192.5 224.5q-9.5 72.5 8.5 156.5l145 752h246l-135 -699q-22 -115 12.5 -164t124.5 -49q60 0 123.5 28.5t105.5 63.5l160 820h246l-221 -1133h-201l2 121q-153 -137 -328 -137q-89 0 -152.5 30.5t-95 84t-41 126zM502 1262l299 354h192l160 -354h-162l-127 161 l-188 -161h-174z" />
<glyph unicode="&#xfc;" d="M192.5 224.5q-9.5 72.5 8.5 156.5l145 752h246l-135 -699q-22 -115 12.5 -164t124.5 -49q60 0 123.5 28.5t105.5 63.5l160 820h246l-221 -1133h-201l2 121q-153 -137 -328 -137q-89 0 -152.5 30.5t-95 84t-41 126zM514 1284l49 248h246l-49 -248h-246zM899 1284l49 248 h246l-49 -248h-246z" />
<glyph unicode="&#xfd;" d="M119 -340l100 188q164 -61 295 -61q204 0 250 225l16 84q-129 -112 -299 -112q-89 0 -152.5 30.5t-95 84t-41 126t8.5 156.5l145 752h246l-135 -699q-22 -115 12.5 -164t124.5 -49q60 0 123.5 28.5t105.5 63.5l160 820h246l-213 -1094q-16 -80 -40 -145.5t-65.5 -127 t-96.5 -103.5t-135.5 -67.5t-180.5 -25.5q-102 0 -202.5 24t-176.5 66zM719 1262l176 354h254l-264 -354h-166z" />
<glyph unicode="&#xfe;" horiz-adv-x="1110" d="M57 -414l379 1950h246l-94 -489q55 45 129 73.5t149 28.5q184 0 258.5 -116t32.5 -324l-57 -287q-41 -213 -151 -325.5t-302 -112.5q-78 0 -143 32t-103 80l-98 -510h-246zM442 305q31 -39 79 -64.5t102 -25.5q101 0 157 57t80 177l45 235q24 120 -11 177t-136 57 q-54 0 -111 -26.5t-102 -66.5z" />
<glyph unicode="&#xff;" d="M119 -340l100 188q164 -61 295 -61q204 0 250 225l16 84q-129 -112 -299 -112q-89 0 -152.5 30.5t-95 84t-41 126t8.5 156.5l145 752h246l-135 -699q-22 -115 12.5 -164t124.5 -49q60 0 123.5 28.5t105.5 63.5l160 820h246l-213 -1094q-16 -80 -40 -145.5t-65.5 -127 t-96.5 -103.5t-135.5 -67.5t-180.5 -25.5q-102 0 -202.5 24t-176.5 66zM504 1284l49 248h246l-49 -248h-246zM889 1284l49 248h246l-49 -248h-246z" />
<glyph unicode="&#x100;" horiz-adv-x="1245" d="M39 0l741 1434h242l184 -1434h-262l-37 317h-446l-162 -317h-260zM565 545h328l-57 526h-9zM659 1638l37 189h566l-37 -189h-566z" />
<glyph unicode="&#x101;" horiz-adv-x="1079" d="M176 444l53 267q42 209 158.5 323.5t296.5 114.5q78 0 142.5 -32.5t101.5 -80.5l69 97h197l-156 -803q-23 -129 54 -129q36 0 63 6l16 -176q-92 -41 -186 -41q-147 0 -190 104q-114 -110 -287 -110q-182 0 -277.5 128.5t-54.5 331.5zM424 449q-24 -120 11 -177t136 -57 q54 0 111.5 26t103.5 66l101 520q-30 39 -77 65t-101 26q-101 0 -157.5 -57t-80.5 -177zM526 1337l37 189h565l-36 -189h-566z" />
<glyph unicode="&#x102;" horiz-adv-x="1245" d="M39 0l741 1434h242l184 -1434h-262l-37 317h-446l-162 -317h-260zM565 545h328l-57 526h-9zM656 1732q-9 49 6 115l8 39h194l-8 -41q-22 -119 102 -119q120 0 142 119l8 41h201l-9 -39q-59 -291 -376 -291q-53 0 -96.5 9t-81.5 29.5t-59.5 54.5t-30.5 83z" />
<glyph unicode="&#x103;" horiz-adv-x="1079" d="M176 444l53 267q42 209 158.5 323.5t296.5 114.5q78 0 142.5 -32.5t101.5 -80.5l69 97h197l-156 -803q-23 -129 54 -129q36 0 63 6l16 -176q-92 -41 -186 -41q-147 0 -190 104q-114 -110 -287 -110q-182 0 -277.5 128.5t-54.5 331.5zM424 449q-24 -120 11 -177t136 -57 q54 0 111.5 26t103.5 66l101 520q-30 39 -77 65t-101 26q-101 0 -157.5 -57t-80.5 -177zM516 1431q-9 49 6 115l8 39h195l-8 -41q-22 -119 102 -119q120 0 142 119l8 41h200l-8 -39q-59 -291 -377 -291q-53 0 -96.5 9t-81.5 29.5t-59.5 54.5t-30.5 83z" />
<glyph unicode="&#x104;" horiz-adv-x="1245" d="M39 0l741 1434h242l184 -1434q-97 -39 -167 -96t-70 -119q0 -25 16 -40t45 -15q40 0 86 22l35 -135q-95 -57 -219 -57q-77 0 -128.5 39t-51.5 110q0 91 71.5 169.5t192.5 121.5h-72l-37 317h-446l-162 -317h-260zM565 545h328l-57 526h-9z" />
<glyph unicode="&#x105;" horiz-adv-x="1175" d="M176 444l53 267q42 209 158.5 323.5t296.5 114.5q78 0 142.5 -32.5t101.5 -80.5l69 97h197l-156 -803q-23 -129 54 -129q36 0 63 6l16 -176q-64 -19 -119.5 -42.5t-105.5 -54.5t-79 -69.5t-29 -79.5q0 -25 16 -40t45 -15q40 0 86 22l35 -135q-95 -57 -219 -57 q-77 0 -128.5 39t-51.5 110q0 91 74.5 170.5t197.5 122.5q-71 24 -98 92q-114 -110 -287 -110q-182 0 -277.5 128.5t-54.5 331.5zM424 449q-24 -120 11 -177t136 -57q54 0 111.5 26t103.5 66l101 520q-30 39 -77 65t-101 26q-101 0 -157.5 -57t-80.5 -177z" />
<glyph unicode="&#x106;" horiz-adv-x="1130" d="M215 535l72 364q24 128 69.5 226t117.5 172.5t178 113.5t243 39q164 0 270.5 -79.5t149.5 -215.5l-230 -104q-35 89 -90 126t-137 37q-251 0 -309 -294l-80 -406q-58 -295 201 -295q84 0 151.5 35t134.5 127l201 -98q-101 -153 -231 -226t-301 -73q-168 0 -272 69.5 t-137 192t-1 289.5zM823 1569l176 354h254l-264 -354h-166z" />
<glyph unicode="&#x107;" horiz-adv-x="958" d="M176 424l55 285q41 209 171.5 324.5t351.5 115.5q131 0 222 -56t136 -151l-199 -137q-56 125 -186 125q-209 0 -254 -242l-47 -244q-22 -110 15 -175.5t151 -65.5q66 0 120.5 26t123.5 101l139 -137q-86 -101 -185.5 -155t-236.5 -54q-214 0 -315.5 118.5t-61.5 321.5z M676 1262l176 354h254l-264 -354h-166z" />
<glyph unicode="&#x108;" horiz-adv-x="1130" d="M215 535l72 364q24 128 69.5 226t117.5 172.5t178 113.5t243 39q164 0 270.5 -79.5t149.5 -215.5l-230 -104q-35 89 -90 126t-137 37q-251 0 -309 -294l-80 -406q-58 -295 201 -295q84 0 151.5 35t134.5 127l201 -98q-101 -153 -231 -226t-301 -73q-168 0 -272 69.5 t-137 192t-1 289.5zM600 1563l299 354h193l159 -354h-161l-127 161l-189 -161h-174z" />
<glyph unicode="&#x109;" horiz-adv-x="958" d="M176 424l55 285q41 209 171.5 324.5t351.5 115.5q131 0 222 -56t136 -151l-199 -137q-56 125 -186 125q-209 0 -254 -242l-47 -244q-22 -110 15 -175.5t151 -65.5q66 0 120.5 26t123.5 101l139 -137q-86 -101 -185.5 -155t-236.5 -54q-214 0 -315.5 118.5t-61.5 321.5z M459 1262l299 354h192l160 -354h-162l-127 161l-188 -161h-174z" />
<glyph unicode="&#x10a;" horiz-adv-x="1130" d="M215 535l72 364q24 128 69.5 226t117.5 172.5t178 113.5t243 39q164 0 270.5 -79.5t149.5 -215.5l-230 -104q-35 89 -90 126t-137 37q-251 0 -309 -294l-80 -406q-58 -295 201 -295q84 0 151.5 35t134.5 127l201 -98q-101 -153 -231 -226t-301 -73q-168 0 -272 69.5 t-137 192t-1 289.5zM799 1567l53 270h268l-53 -270h-268z" />
<glyph unicode="&#x10b;" horiz-adv-x="958" d="M176 424l55 285q41 209 171.5 324.5t351.5 115.5q131 0 222 -56t136 -151l-199 -137q-56 125 -186 125q-209 0 -254 -242l-47 -244q-22 -110 15 -175.5t151 -65.5q66 0 120.5 26t123.5 101l139 -137q-86 -101 -185.5 -155t-236.5 -54q-214 0 -315.5 118.5t-61.5 321.5z M659 1266l54 270h268l-53 -270h-269z" />
<glyph unicode="&#x10c;" horiz-adv-x="1130" d="M215 535l72 364q24 128 69.5 226t117.5 172.5t178 113.5t243 39q164 0 270.5 -79.5t149.5 -215.5l-230 -104q-35 89 -90 126t-137 37q-251 0 -309 -294l-80 -406q-58 -295 201 -295q84 0 151.5 35t134.5 127l201 -98q-101 -153 -231 -226t-301 -73q-168 0 -272 69.5 t-137 192t-1 289.5zM686 1917h162l127 -162l188 162h174l-299 -354h-192z" />
<glyph unicode="&#x10d;" horiz-adv-x="958" d="M176 424l55 285q41 209 171.5 324.5t351.5 115.5q131 0 222 -56t136 -151l-199 -137q-56 125 -186 125q-209 0 -254 -242l-47 -244q-22 -110 15 -175.5t151 -65.5q66 0 120.5 26t123.5 101l139 -137q-86 -101 -185.5 -155t-236.5 -54q-214 0 -315.5 118.5t-61.5 321.5z M516 1616h162l127 -162l188 162h174l-299 -354h-192z" />
<glyph unicode="&#x10e;" horiz-adv-x="1304" d="M162 0l278 1434h443q223 0 353 -134.5t130 -390.5q0 -264 -86.5 -471.5t-242.5 -322.5t-355 -115h-520zM461 225h190q205 0 327 172t122 477q0 67 -13 123.5t-41 105.5t-79.5 77t-122.5 28h-191zM647 1917h162l127 -162l188 162h174l-299 -354h-192z" />
<glyph unicode="&#x10f;" horiz-adv-x="1298" d="M174 424l55 287q41 210 152.5 324t290.5 114q88 0 153.5 -32t102.5 -81l98 500h246l-234 -1206q-23 -129 54 -129q36 0 63 6l16 -176q-92 -41 -186 -41q-160 0 -199 127q-148 -133 -307 -133q-185 0 -265 116.5t-40 323.5zM424 449q-24 -120 11 -177t136 -57 q54 0 111.5 26t103.5 66l101 520q-30 39 -77 65t-101 26q-101 0 -157.5 -57t-80.5 -177zM1270 1118l119 418h241l-188 -418h-172z" />
<glyph unicode="&#x110;" horiz-adv-x="1304" d="M154 625l41 215h131l114 594h443q223 0 353 -134.5t130 -390.5q0 -264 -86.5 -471.5t-242.5 -322.5t-355 -115h-520l121 625h-129zM461 225h190q205 0 327 172t122 477q0 67 -13 123.5t-41 105.5t-79.5 77t-122.5 28h-191l-73 -368h266l-41 -215h-266z" />
<glyph unicode="&#x111;" horiz-adv-x="1175" d="M174 424l55 287q41 210 152.5 324t290.5 114q88 0 153.5 -32t102.5 -81l37 189h-250l37 184h249l25 127h246l-25 -127h133l-37 -184h-133l-172 -895q-23 -129 54 -129q36 0 63 6l16 -176q-92 -41 -186 -41q-160 0 -199 127q-148 -133 -307 -133q-185 0 -265 116.5 t-40 323.5zM424 449q-24 -120 11 -177t136 -57q54 0 111.5 26t103.5 66l101 520q-30 39 -77 65t-101 26q-101 0 -157.5 -57t-80.5 -177z" />
<glyph unicode="&#x112;" horiz-adv-x="1087" d="M162 0l278 1434h805l-43 -226h-547l-71 -364h501l-43 -226h-501l-78 -393h547l-43 -225h-805zM623 1638l36 189h566l-37 -189h-565z" />
<glyph unicode="&#x113;" horiz-adv-x="1028" d="M168 389l61 322q39 208 166 323t340 115t300.5 -114t47.5 -324l-45 -234h-608l-20 -110q-13 -73 26.5 -121.5t143.5 -48.5q79 0 147 20t164 66l63 -183q-106 -58 -201 -87t-216 -29q-217 0 -311.5 107t-57.5 298zM469 670h369q17 89 13.5 148t-38.5 88.5t-108 29.5 q-107 0 -158 -60.5t-78 -205.5zM512 1337l37 189h565l-37 -189h-565z" />
<glyph unicode="&#x114;" horiz-adv-x="1087" d="M162 0l278 1434h805l-43 -226h-547l-71 -364h501l-43 -226h-501l-78 -393h547l-43 -225h-805zM608 1732q-9 49 6 115l9 39h194l-8 -41q-22 -119 102 -119q120 0 142 119l8 41h201l-9 -39q-59 -291 -376 -291q-53 0 -96.5 9t-81.5 29.5t-60 54.5t-31 83z" />
<glyph unicode="&#x115;" horiz-adv-x="1028" d="M168 389l61 322q39 208 166 323t340 115t300.5 -114t47.5 -324l-45 -234h-608l-20 -110q-13 -73 26.5 -121.5t143.5 -48.5q79 0 147 20t164 66l63 -183q-106 -58 -201 -87t-216 -29q-217 0 -311.5 107t-57.5 298zM469 670h369q17 89 13.5 148t-38.5 88.5t-108 29.5 q-107 0 -158 -60.5t-78 -205.5zM512 1431q-9 49 6 115l8 39h195l-8 -41q-22 -119 102 -119q119 0 141 119l9 41h200l-8 -39q-59 -291 -377 -291q-53 0 -96.5 9t-81.5 29.5t-59.5 54.5t-30.5 83z" />
<glyph unicode="&#x116;" horiz-adv-x="1087" d="M162 0l278 1434h805l-43 -226h-547l-71 -364h501l-43 -226h-501l-78 -393h547l-43 -225h-805zM770 1567l53 270h269l-54 -270h-268z" />
<glyph unicode="&#x117;" horiz-adv-x="1028" d="M168 389l61 322q39 208 166 323t340 115t300.5 -114t47.5 -324l-45 -234h-608l-20 -110q-13 -73 26.5 -121.5t143.5 -48.5q79 0 147 20t164 66l63 -183q-106 -58 -201 -87t-216 -29q-217 0 -311.5 107t-57.5 298zM469 670h369q17 89 13.5 148t-38.5 88.5t-108 29.5 q-107 0 -158 -60.5t-78 -205.5zM641 1266l53 270h269l-54 -270h-268z" />
<glyph unicode="&#x118;" horiz-adv-x="1087" d="M162 0l278 1434h805l-43 -226h-547l-71 -364h501l-43 -226h-501l-78 -393h547l-43 -225q-97 -39 -167.5 -96t-70.5 -119q0 -25 16.5 -40t45.5 -15q40 0 86 22l34 -135q-95 -57 -219 -57q-77 0 -128.5 39t-51.5 110q0 92 72.5 170t197.5 121h-620z" />
<glyph unicode="&#x119;" horiz-adv-x="1028" d="M168 389l61 322q39 208 166 323t340 115t300.5 -114t47.5 -324l-45 -234h-608l-20 -110q-13 -73 26.5 -121.5t143.5 -48.5q79 0 147 20t164 66l63 -183q-9 -5 -48 -23.5t-59.5 -29t-60.5 -32.5t-63 -38t-54 -41t-48 -47t-29 -49.5t-12 -54.5q0 -25 16 -40t45 -15 q40 0 86 22l35 -135q-95 -57 -219 -57q-77 0 -129 39t-52 110q0 72 50.5 144t140.5 131h-16q-217 0 -311.5 107t-57.5 298zM469 670h369q17 89 13.5 148t-38.5 88.5t-108 29.5q-107 0 -158 -60.5t-78 -205.5z" />
<glyph unicode="&#x11a;" horiz-adv-x="1087" d="M162 0l278 1434h805l-43 -226h-547l-71 -364h501l-43 -226h-501l-78 -393h547l-43 -225h-805zM633 1923h162l127 -162l188 162h174l-299 -354h-192z" />
<glyph unicode="&#x11b;" horiz-adv-x="1028" d="M168 389l61 322q39 208 166 323t340 115t300.5 -114t47.5 -324l-45 -234h-608l-20 -110q-13 -73 26.5 -121.5t143.5 -48.5q79 0 147 20t164 66l63 -183q-106 -58 -201 -87t-216 -29q-217 0 -311.5 107t-57.5 298zM469 670h369q17 89 13.5 148t-38.5 88.5t-108 29.5 q-107 0 -158 -60.5t-78 -205.5zM516 1616h162l127 -162l188 162h174l-299 -354h-192z" />
<glyph unicode="&#x11c;" horiz-adv-x="1241" d="M217 537l72 362q52 260 203.5 405.5t412.5 145.5q164 0 270.5 -79.5t149.5 -215.5l-229 -104q-35 89 -90.5 126t-137.5 37q-259 0 -317 -294l-80 -404q-58 -295 201 -295q89 0 156.5 33t111.5 78l47 241h-256l43 222h498l-109 -553q-30 -39 -55 -66.5t-74 -66.5 t-100.5 -64t-129.5 -43t-167 -18q-263 0 -367 148.5t-53 404.5zM612 1569l299 354h193l160 -354h-162l-127 162l-189 -162h-174z" />
<glyph unicode="&#x11d;" horiz-adv-x="1093" d="M82 -340l100 188q164 -61 295 -61q204 0 250 225l21 99q-117 -113 -273 -113q-182 0 -260.5 116t-38.5 322l53 273q85 440 459 440q83 0 151.5 -34.5t104.5 -86.5l51 105h197l-213 -1094q-16 -80 -40 -145.5t-65.5 -127t-96.5 -103.5t-135.5 -67.5t-180.5 -25.5 q-102 0 -202.5 24t-176.5 66zM426 463q-24 -120 11 -177t136 -57q54 0 111.5 25.5t103.5 64.5l99 506q-32 40 -79 66.5t-101 26.5q-101 0 -157.5 -57t-80.5 -177zM467 1262l299 354h192l160 -354h-162l-127 161l-188 -161h-174z" />
<glyph unicode="&#x11e;" horiz-adv-x="1241" d="M217 537l72 362q52 260 203.5 405.5t412.5 145.5q164 0 270.5 -79.5t149.5 -215.5l-229 -104q-35 89 -90.5 126t-137.5 37q-259 0 -317 -294l-80 -404q-58 -295 201 -295q89 0 156.5 33t111.5 78l47 241h-256l43 222h498l-109 -553q-30 -39 -55 -66.5t-74 -66.5 t-100.5 -64t-129.5 -43t-167 -18q-263 0 -367 148.5t-53 404.5zM666 1738q-9 49 6 115l8 39h194l-8 -41q-22 -118 103 -118q119 0 141 118l8 41h201l-8 -39q-59 -290 -377 -290q-53 0 -96.5 9t-81.5 29.5t-59.5 54t-30.5 82.5z" />
<glyph unicode="&#x11f;" horiz-adv-x="1093" d="M82 -340l100 188q164 -61 295 -61q204 0 250 225l21 99q-117 -113 -273 -113q-182 0 -260.5 116t-38.5 322l53 273q85 440 459 440q83 0 151.5 -34.5t104.5 -86.5l51 105h197l-213 -1094q-16 -80 -40 -145.5t-65.5 -127t-96.5 -103.5t-135.5 -67.5t-180.5 -25.5 q-102 0 -202.5 24t-176.5 66zM426 463q-24 -120 11 -177t136 -57q54 0 111.5 25.5t103.5 64.5l99 506q-32 40 -79 66.5t-101 26.5q-101 0 -157.5 -57t-80.5 -177zM529 1431q-9 49 6 115l8 39h194l-8 -41q-22 -119 102 -119q120 0 142 119l8 41h201l-8 -39 q-59 -291 -377 -291q-53 0 -96.5 9t-81.5 29.5t-59.5 54.5t-30.5 83z" />
<glyph unicode="&#x120;" horiz-adv-x="1241" d="M217 537l72 362q52 260 203.5 405.5t412.5 145.5q164 0 270.5 -79.5t149.5 -215.5l-229 -104q-35 89 -90.5 126t-137.5 37q-259 0 -317 -294l-80 -404q-58 -295 201 -295q89 0 156.5 33t111.5 78l47 241h-256l43 222h498l-109 -553q-30 -39 -55 -66.5t-74 -66.5 t-100.5 -64t-129.5 -43t-167 -18q-263 0 -367 148.5t-53 404.5zM803 1567l53 270h268l-53 -270h-268z" />
<glyph unicode="&#x121;" horiz-adv-x="1093" d="M82 -340l100 188q164 -61 295 -61q204 0 250 225l21 99q-117 -113 -273 -113q-182 0 -260.5 116t-38.5 322l53 273q85 440 459 440q83 0 151.5 -34.5t104.5 -86.5l51 105h197l-213 -1094q-16 -80 -40 -145.5t-65.5 -127t-96.5 -103.5t-135.5 -67.5t-180.5 -25.5 q-102 0 -202.5 24t-176.5 66zM426 463q-24 -120 11 -177t136 -57q54 0 111.5 25.5t103.5 64.5l99 506q-32 40 -79 66.5t-101 26.5q-101 0 -157.5 -57t-80.5 -177zM694 1266l54 270h268l-53 -270h-269z" />
<glyph unicode="&#x122;" horiz-adv-x="1241" d="M217 537l72 362q52 260 203.5 405.5t412.5 145.5q164 0 270.5 -79.5t149.5 -215.5l-229 -104q-35 89 -90.5 126t-137.5 37q-259 0 -317 -294l-80 -404q-58 -295 201 -295q89 0 156.5 33t111.5 78l47 241h-256l43 222h498l-109 -553q-30 -39 -55 -66.5t-74 -66.5 t-100.5 -64t-129.5 -43t-167 -18q-263 0 -367 148.5t-53 404.5zM373 -532q125 86 143 174h-96l49 260h258l-43 -219q-36 -184 -235 -318z" />
<glyph unicode="&#x123;" horiz-adv-x="1093" d="M82 -340l100 188q164 -61 295 -61q204 0 250 225l21 99q-117 -113 -273 -113q-182 0 -260.5 116t-38.5 322l53 273q85 440 459 440q83 0 151.5 -34.5t104.5 -86.5l51 105h197l-213 -1094q-16 -80 -40 -145.5t-65.5 -127t-96.5 -103.5t-135.5 -67.5t-180.5 -25.5 q-102 0 -202.5 24t-176.5 66zM426 463q-24 -120 11 -177t136 -57q54 0 111.5 25.5t103.5 64.5l99 506q-32 40 -79 66.5t-101 26.5q-101 0 -157.5 -57t-80.5 -177zM643 1268l43 219q36 183 236 317l75 -102q-125 -86 -143 -174h96l-49 -260h-258z" />
<glyph unicode="&#x124;" horiz-adv-x="1341" d="M162 0l278 1434h258l-114 -588h501l115 588h258l-278 -1434h-258l120 618h-501l-121 -618h-258zM662 1569l299 354h192l160 -354h-162l-127 162l-188 -162h-174z" />
<glyph unicode="&#x125;" horiz-adv-x="1153" d="M137 0l299 1536h246l-98 -504q157 117 323 117q71 0 124.5 -22t84 -59.5t48 -88t16.5 -108t-11 -119.5l-145 -752h-246l135 698q20 105 -16 159t-123 54q-60 0 -125.5 -29t-105.5 -63l-160 -819h-246zM262 1638l299 355h193l159 -355h-161l-127 162l-189 -162h-174z" />
<glyph unicode="&#x126;" horiz-adv-x="1341" d="M162 0l205 1049h-131l34 188h131l39 197h258l-39 -197h502l39 197h258l-39 -197h131l-34 -188h-132l-204 -1049h-258l120 618h-501l-121 -618h-258zM584 846h501l41 203h-501z" />
<glyph unicode="&#x127;" horiz-adv-x="1153" d="M137 0l238 1225h-150l37 184h150l24 127h246l-25 -127h263l-37 -184h-262l-37 -193q157 117 323 117q71 0 125 -21.5t84.5 -58.5t48 -87.5t16.5 -108.5t-12 -121l-145 -752h-246l135 698q22 114 -13.5 163.5t-125.5 49.5q-60 0 -125.5 -29t-105.5 -63l-160 -819h-246z " />
<glyph unicode="&#x128;" horiz-adv-x="581" d="M162 0l278 1434h258l-278 -1434h-258zM254 1642q123 218 270 218q50 0 95.5 -26t82.5 -51.5t68 -25.5q28 0 54.5 19.5t68.5 76.5l113 -69q-122 -217 -263 -217q-50 0 -95 25.5t-82 51t-68 25.5q-28 0 -54.5 -19.5t-70.5 -76.5z" />
<glyph unicode="&#x129;" horiz-adv-x="679" d="M182 1335q122 217 271 217q50 0 95 -25.5t82 -51t68 -25.5q28 0 54.5 19.5t68.5 76.5l113 -69q-122 -217 -262 -217q-39 0 -77 16t-62 35t-53 35t-54 16q-28 0 -54.5 -19.5t-70.5 -76.5zM227 926l39 207h436l-157 -803q-12 -64 8 -96.5t63 -32.5q28 0 58 6l26 -176 q-70 -41 -172 -41q-138 0 -200.5 89t-30.5 251l117 596h-187z" />
<glyph unicode="&#x12a;" horiz-adv-x="581" d="M162 0l278 1434h258l-278 -1434h-258zM336 1638l37 189h565l-37 -189h-565z" />
<glyph unicode="&#x12b;" horiz-adv-x="681" d="M227 926l39 207h436l-157 -803q-12 -64 8 -96.5t63 -32.5q28 0 58 6l26 -176q-70 -41 -172 -41q-138 0 -200.5 89t-30.5 251l117 596h-187zM256 1337l37 189h565l-37 -189h-565z" />
<glyph unicode="&#x12c;" horiz-adv-x="581" d="M162 0l278 1434h258l-278 -1434h-258zM334 1732q-9 49 6 115l8 39h195l-8 -41q-22 -119 102 -119q119 0 141 119l8 41h201l-8 -39q-59 -291 -377 -291q-53 0 -96.5 9t-81.5 29.5t-59.5 54.5t-30.5 83z" />
<glyph unicode="&#x12d;" horiz-adv-x="681" d="M227 926l39 207h436l-157 -803q-12 -64 8 -96.5t63 -32.5q28 0 58 6l26 -176q-70 -41 -172 -41q-138 0 -200.5 89t-30.5 251l117 596h-187zM297 1431q-9 49 6 115l8 39h195l-8 -41q-22 -119 102 -119q119 0 141 119l9 41h200l-8 -39q-59 -291 -377 -291q-53 0 -96.5 9 t-81.5 29.5t-59.5 54.5t-30.5 83z" />
<glyph unicode="&#x12e;" horiz-adv-x="581" d="M-35 -291q0 92 73 170t198 121h-74l278 1434h258l-278 -1434q-97 -39 -167.5 -96t-70.5 -119q0 -25 16.5 -40t45.5 -15q40 0 86 22l35 -135q-95 -57 -220 -57q-77 0 -128.5 39t-51.5 110z" />
<glyph unicode="&#x12f;" horiz-adv-x="681" d="M154 -291q0 92 75.5 172t200.5 123q-88 28 -123.5 112t-9.5 214l117 596h-187l39 207h436l-157 -803q-12 -64 8 -96.5t63 -32.5q28 0 58 6l26 -176q-65 -21 -119 -44.5t-103.5 -54.5t-78 -69t-28.5 -78q0 -25 16 -40t45 -15q40 0 86 22l35 -135q-95 -57 -219 -57 q-77 0 -128.5 39t-51.5 110zM469 1266l53 270h269l-54 -270h-268z" />
<glyph unicode="&#x130;" horiz-adv-x="581" d="M162 0l278 1434h258l-278 -1434h-258zM463 1567l53 270h268l-53 -270h-268z" />
<glyph unicode="&#x131;" horiz-adv-x="681" d="M227 926l39 207h436l-157 -803q-12 -64 8 -96.5t63 -32.5q28 0 58 6l26 -176q-70 -41 -172 -41q-138 0 -200.5 89t-30.5 251l117 596h-187z" />
<glyph unicode="&#x132;" horiz-adv-x="1421" d="M162 0l278 1434h258l-278 -1434h-258zM629 14l67 217q70 -16 140 -16q65 0 110.5 17t74.5 53.5t45.5 82t29.5 115.5l184 951h258l-184 -947q-12 -66 -25.5 -116.5t-35 -105t-48.5 -94t-66.5 -76.5t-88.5 -60.5t-116 -37t-147 -13.5q-110 0 -198 30z" />
<glyph unicode="&#x133;" horiz-adv-x="1294" d="M227 926l39 207h436l-157 -803q-12 -64 8 -96.5t63 -32.5q28 0 58 6l26 -176q-70 -41 -172 -41q-138 0 -200.5 89t-30.5 251l117 596h-187zM469 1266l53 270h269l-54 -270h-268zM520 -377l96 187q57 -17 109 -17q150 0 178 148l191 985h-189l39 207h436l-227 -1168 q-36 -186 -138.5 -285.5t-291.5 -99.5q-115 0 -203 43zM1149 1266l53 270h268l-53 -270h-268z" />
<glyph unicode="&#x134;" horiz-adv-x="839" d="M47 14l68 217q70 -16 139 -16q65 0 110.5 17t74.5 53.5t45.5 82t29.5 115.5l184 951h258l-184 -947q-12 -66 -25.5 -116.5t-35 -105t-48 -94t-66 -76.5t-89 -60.5t-116 -37t-146.5 -13.5q-111 0 -199 30zM514 1563l299 354h193l159 -354h-161l-127 161l-189 -161h-174z " />
<glyph unicode="&#x135;" horiz-adv-x="612" d="M-162 -377l96 187q57 -17 109 -17q150 0 178 148l191 985h-189l39 207h436l-227 -1168q-36 -186 -138.5 -285.5t-291.5 -99.5q-115 0 -203 43zM168 1262l299 354h192l160 -354h-162l-127 161l-188 -161h-174z" />
<glyph unicode="&#x136;" horiz-adv-x="1187" d="M162 0l278 1434h258l-112 -584h104l445 584h286l-532 -689l270 -745h-287l-219 623h-112l-121 -623h-258zM389 -532q125 86 143 174h-96l49 260h258l-43 -219q-36 -184 -235 -318z" />
<glyph unicode="&#x137;" horiz-adv-x="1032" d="M137 0l299 1536h246l-162 -825h94l334 422h262l-417 -523l100 -270q51 -141 125 -141q31 0 55 8l35 -172q-24 -18 -72 -31.5t-96 -13.5q-95 0 -155.5 52t-100.5 167l-100 295h-103l-98 -504h-246zM391 -532q127 87 144 174h-97l49 260h258l-43 -219q-36 -184 -235 -318z " />
<glyph unicode="&#x138;" horiz-adv-x="1032" d="M137 0l221 1133h246l-84 -422h94l334 422h262l-417 -523l100 -270q51 -141 125 -141q31 0 55 8l35 -172q-24 -18 -72 -31.5t-96 -13.5q-95 0 -155.5 52t-100.5 167l-100 295h-103l-98 -504h-246z" />
<glyph unicode="&#x139;" horiz-adv-x="1044" d="M162 0l278 1434h258l-235 -1209h547l-43 -225h-805zM496 1563l176 354h254l-264 -354h-166z" />
<glyph unicode="&#x13a;" horiz-adv-x="585" d="M201 330l235 1206h246l-233 -1206q-11 -63 8.5 -96t60.5 -33q33 0 60 6l26 -176q-70 -41 -172 -41q-138 0 -200.5 89t-30.5 251zM487 1612l177 354h254l-265 -354h-166z" />
<glyph unicode="&#x13b;" horiz-adv-x="1044" d="M162 0l278 1434h258l-235 -1209h547l-43 -225h-805zM322 -532q125 86 143 174h-96l49 260h258l-43 -219q-36 -184 -236 -318z" />
<glyph unicode="&#x13c;" horiz-adv-x="585" d="M127 -532q125 86 143 174h-96l49 260h258l-43 -219q-36 -184 -235 -318zM201 330l235 1206h246l-233 -1206q-11 -63 8.5 -96t60.5 -33q33 0 60 6l26 -176q-70 -41 -172 -41q-138 0 -200.5 89t-30.5 251z" />
<glyph unicode="&#x13d;" horiz-adv-x="1044" d="M162 0l278 1434h258l-235 -1209h547l-43 -225h-805zM811 1016l119 418h241l-188 -418h-172z" />
<glyph unicode="&#x13e;" horiz-adv-x="649" d="M201 330l235 1206h246l-233 -1206q-11 -63 8.5 -96t60.5 -33q33 0 60 6l26 -176q-70 -41 -172 -41q-138 0 -200.5 89t-30.5 251zM682 1118l119 418h241l-188 -418h-172z" />
<glyph unicode="&#x13f;" horiz-adv-x="1044" d="M162 0l278 1434h258l-235 -1209h547l-43 -225h-805zM711 618l59 306h299l-59 -306h-299z" />
<glyph unicode="&#x140;" horiz-adv-x="870" d="M201 330l235 1206h246l-233 -1206q-11 -63 8.5 -96t60.5 -33q33 0 60 6l26 -176q-70 -41 -172 -41q-138 0 -200.5 89t-30.5 251zM635 618l59 306h299l-59 -306h-299z" />
<glyph unicode="&#x141;" horiz-adv-x="1107" d="M186 530l41 215l154 62l123 627h258l-100 -516l370 149l-41 -215l-373 -150l-92 -477h547l-43 -225h-805l115 592z" />
<glyph unicode="&#x142;" horiz-adv-x="585" d="M104 604l43 217l162 66l127 649h246l-104 -541l225 92l-43 -217l-225 -92l-86 -448q-11 -63 8.5 -96t60.5 -33q33 0 60 6l26 -176q-70 -41 -172 -41q-138 0 -200.5 89t-30.5 251l65 340z" />
<glyph unicode="&#x143;" horiz-adv-x="1372" d="M162 0l278 1434h222l391 -945h8l184 945h244l-279 -1434h-225l-387 944h-8l-184 -944h-244zM883 1563l176 354h254l-264 -354h-166z" />
<glyph unicode="&#x144;" horiz-adv-x="1146" d="M137 0l219 1133h201v-121q167 137 338 137q85 0 146 -32.5t90.5 -87.5t39.5 -127t-8 -150l-145 -752h-246l135 698q21 106 -14.5 159.5t-122.5 53.5q-60 0 -123.5 -28.5t-103.5 -63.5l-160 -819h-246zM739 1262l176 354h254l-264 -354h-166z" />
<glyph unicode="&#x145;" horiz-adv-x="1372" d="M162 0l278 1434h222l391 -945h8l184 945h244l-279 -1434h-225l-387 944h-8l-184 -944h-244zM457 -532q125 86 143 174h-96l49 260h258l-43 -219q-36 -184 -236 -318z" />
<glyph unicode="&#x146;" horiz-adv-x="1146" d="M137 0l219 1133h201v-121q167 137 338 137q85 0 146 -32.5t90.5 -87.5t39.5 -127t-8 -150l-145 -752h-246l135 698q21 106 -14.5 159.5t-122.5 53.5q-60 0 -123.5 -28.5t-103.5 -63.5l-160 -819h-246zM338 -532q125 86 143 174h-96l49 260h258l-43 -219 q-36 -184 -235 -318z" />
<glyph unicode="&#x147;" horiz-adv-x="1372" d="M162 0l278 1434h222l391 -945h8l184 945h244l-279 -1434h-225l-387 944h-8l-184 -944h-244zM750 1917h161l127 -162l189 162h174l-299 -354h-193z" />
<glyph unicode="&#x148;" horiz-adv-x="1146" d="M137 0l219 1133h201v-121q167 137 338 137q85 0 146 -32.5t90.5 -87.5t39.5 -127t-8 -150l-145 -752h-246l135 698q21 106 -14.5 159.5t-122.5 53.5q-60 0 -123.5 -28.5t-103.5 -63.5l-160 -819h-246zM561 1616h162l127 -162l188 162h174l-299 -354h-192z" />
<glyph unicode="&#x149;" horiz-adv-x="1208" d="M166 1188q125 86 143 174h-96l49 260h258l-43 -219q-36 -184 -235 -318zM199 0l219 1133h200v-121q167 137 338 137q68 0 121.5 -21t86 -58.5t52 -87.5t20 -108.5t-10.5 -121.5l-146 -752h-245l135 698q21 106 -14.5 159.5t-123.5 53.5q-60 0 -123.5 -28.5t-103.5 -63.5 l-160 -819h-245z" />
<glyph unicode="&#x14a;" horiz-adv-x="1372" d="M162 0l278 1434h222l391 -945h8l184 945h244l-264 -1360q-17 -90 -40.5 -160.5t-65 -137t-96.5 -110t-138 -70t-187 -26.5q-107 0 -192 29l61 217q74 -15 140 -15q117 0 176.5 56.5t87.5 173.5l-373 913h-8l-184 -944h-244z" />
<glyph unicode="&#x14b;" horiz-adv-x="1146" d="M137 0l219 1133h201v-121q160 137 344 137q71 0 125 -21.5t84.5 -58.5t48 -87.5t16.5 -108.5t-12 -121l-151 -787q-73 -385 -432 -385q-115 0 -203 43l96 187q57 -17 109 -17q150 0 178 148l147 757q22 115 -12.5 164t-124.5 49q-60 0 -123.5 -28.5t-103.5 -63.5 l-160 -819h-246z" />
<glyph unicode="&#x14c;" horiz-adv-x="1243" d="M207 492l88 448q98 510 598 510q167 0 272.5 -66.5t141 -180t6.5 -263.5l-88 -448q-98 -508 -596 -508q-167 0 -273 65.5t-142 179t-7 263.5zM469 514q-29 -149 16 -222t179 -73q135 0 206.5 72.5t100.5 222.5l80 406q29 148 -14.5 221t-178.5 73q-134 0 -207 -73.5 t-102 -220.5zM668 1638l37 189h565l-37 -189h-565z" />
<glyph unicode="&#x14d;" horiz-adv-x="1064" d="M174 420l55 287q41 213 169 327.5t347 114.5q218 0 312.5 -117t52.5 -325l-57 -287q-42 -216 -167.5 -326t-346.5 -110q-215 0 -309.5 116t-55.5 320zM422 434q-24 -122 9.5 -177.5t139.5 -55.5t161 55.5t79 177.5l51 262q24 123 -9.5 178.5t-139.5 55.5t-161 -55.5 t-79 -178.5zM518 1337l37 189h565l-37 -189h-565z" />
<glyph unicode="&#x14e;" horiz-adv-x="1243" d="M207 492l88 448q98 510 598 510q167 0 272.5 -66.5t141 -180t6.5 -263.5l-88 -448q-98 -508 -596 -508q-167 0 -273 65.5t-142 179t-7 263.5zM469 514q-29 -149 16 -222t179 -73q135 0 206.5 72.5t100.5 222.5l80 406q29 148 -14.5 221t-178.5 73q-134 0 -207 -73.5 t-102 -220.5zM666 1732q-9 49 6 115l8 39h194l-8 -41q-22 -119 103 -119q119 0 141 119l8 41h201l-8 -39q-59 -291 -377 -291q-53 0 -96.5 9t-81.5 29.5t-59.5 54.5t-30.5 83z" />
<glyph unicode="&#x14f;" horiz-adv-x="1064" d="M174 420l55 287q41 213 169 327.5t347 114.5q218 0 312.5 -117t52.5 -325l-57 -287q-42 -216 -167.5 -326t-346.5 -110q-215 0 -309.5 116t-55.5 320zM422 434q-24 -122 9.5 -177.5t139.5 -55.5t161 55.5t79 177.5l51 262q24 123 -9.5 178.5t-139.5 55.5t-161 -55.5 t-79 -178.5zM516 1431q-9 49 6 115l8 39h195l-8 -41q-22 -119 102 -119q120 0 142 119l8 41h200l-8 -39q-59 -291 -377 -291q-53 0 -96.5 9t-81.5 29.5t-59.5 54.5t-30.5 83z" />
<glyph unicode="&#x150;" horiz-adv-x="1243" d="M207 492l88 448q98 510 598 510q167 0 272.5 -66.5t141 -180t6.5 -263.5l-88 -448q-98 -508 -596 -508q-167 0 -273 65.5t-142 179t-7 263.5zM469 514q-29 -149 16 -222t179 -73q135 0 206.5 72.5t100.5 222.5l80 406q29 148 -14.5 221t-178.5 73q-134 0 -207 -73.5 t-102 -220.5zM664 1569l176 354h254l-265 -354h-165zM985 1569l176 354h254l-264 -354h-166z" />
<glyph unicode="&#x151;" horiz-adv-x="1064" d="M174 420l55 287q41 213 169 327.5t347 114.5q218 0 312.5 -117t52.5 -325l-57 -287q-42 -216 -167.5 -326t-346.5 -110q-215 0 -309.5 116t-55.5 320zM422 434q-24 -122 9.5 -177.5t139.5 -55.5t161 55.5t79 177.5l51 262q24 123 -9.5 178.5t-139.5 55.5t-161 -55.5 t-79 -178.5zM500 1262l176 354h254l-264 -354h-166zM821 1262l176 354h254l-264 -354h-166z" />
<glyph unicode="&#x152;" horiz-adv-x="1798" d="M207 492l88 448q23 119 67 210t115.5 159.5t178.5 104.5t247 36q146 0 238 -59l10 43h805l-45 -226h-547l-70 -364h502l-45 -226h-502l-75 -393h546l-43 -225h-805l9 43q-105 -59 -263 -59q-164 0 -267.5 66.5t-138 179.5t-5.5 262zM469 514q-29 -149 16 -222t179 -73 q131 0 205 73.5t102 221.5l82 420q27 139 -20 209.5t-175 70.5q-134 0 -207 -73.5t-102 -220.5z" />
<glyph unicode="&#x153;" horiz-adv-x="1662" d="M174 420l55 287q41 213 169 327.5t347 114.5q206 0 299 -107q122 107 326 107q213 0 300.5 -114t47.5 -324l-45 -234h-608l-21 -110q-13 -73 26.5 -121.5t143.5 -48.5q79 0 147.5 20t164.5 66l63 -183q-105 -58 -201 -87t-217 -29q-211 0 -303 100q-121 -100 -329 -100 q-215 0 -309.5 116t-55.5 320zM422 434q-24 -122 9.5 -177.5t139.5 -55.5t161 55.5t79 177.5l51 262q24 123 -9.5 178.5t-139.5 55.5t-161 -55.5t-79 -178.5zM1104 670h369q17 89 13.5 148t-38.5 88.5t-109 29.5q-107 0 -157.5 -60t-77.5 -206z" />
<glyph unicode="&#x154;" horiz-adv-x="1212" d="M162 0l278 1434h432q210 0 324.5 -88.5t114.5 -264.5q0 -392 -342 -518l198 -563h-286l-166 526h-195l-102 -526h-256zM563 752h185q299 0 299 286q0 170 -230 170h-164zM788 1569l177 354h254l-265 -354h-166z" />
<glyph unicode="&#x155;" horiz-adv-x="798" d="M137 0l219 1133h203l-8 -150q161 166 313 166q75 0 119 -23l-92 -237q-54 20 -111 20q-132 0 -243 -118l-154 -791h-246zM555 1262l176 354h254l-264 -354h-166z" />
<glyph unicode="&#x156;" horiz-adv-x="1212" d="M162 0l278 1434h432q210 0 324.5 -88.5t114.5 -264.5q0 -392 -342 -518l198 -563h-286l-166 526h-195l-102 -526h-256zM381 -532q125 86 143 174h-96l49 260h258l-43 -219q-36 -184 -235 -318zM563 752h185q299 0 299 286q0 170 -230 170h-164z" />
<glyph unicode="&#x157;" horiz-adv-x="798" d="M47 -532q125 86 143 174h-96l49 260h258l-43 -219q-36 -184 -235 -318zM137 0l219 1133h203l-8 -150q161 166 313 166q75 0 119 -23l-92 -237q-54 20 -111 20q-132 0 -243 -118l-154 -791h-246z" />
<glyph unicode="&#x158;" horiz-adv-x="1212" d="M162 0l278 1434h432q210 0 324.5 -88.5t114.5 -264.5q0 -392 -342 -518l198 -563h-286l-166 526h-195l-102 -526h-256zM563 752h185q299 0 299 286q0 170 -230 170h-164zM655 1923h162l127 -162l189 162h174l-299 -354h-193z" />
<glyph unicode="&#x159;" horiz-adv-x="798" d="M137 0l219 1133h203l-8 -150q161 166 313 166q75 0 119 -23l-92 -237q-54 20 -111 20q-132 0 -243 -118l-154 -791h-246zM428 1616h162l127 -162l188 162h174l-299 -354h-192z" />
<glyph unicode="&#x15a;" horiz-adv-x="1099" d="M80 137l145 185q186 -109 342 -109q143 0 214 64t71 155q0 49 -24 86t-63.5 58.5t-90 43t-103 37.5t-103 43t-90 59.5t-63.5 87t-24 124.5q0 235 130 357t380 122q124 0 241 -38.5t191 -98.5l-150 -191q-83 50 -154 74.5t-149 24.5q-55 0 -97 -12.5t-66.5 -32t-40.5 -46 t-21.5 -50.5t-5.5 -50q0 -46 31 -79t81 -55t110.5 -42.5t120.5 -48t110 -65t81 -101t31 -147.5q0 -243 -144 -375.5t-411 -132.5q-284 0 -479 153zM758 1569l176 354h254l-264 -354h-166z" />
<glyph unicode="&#x15b;" horiz-adv-x="923" d="M78 92l104 180q174 -82 307 -82q104 0 153.5 43.5t49.5 118.5q0 35 -25 61.5t-65 44t-88 34t-96 38.5t-88 50t-65 76t-25 110q0 189 115 286t323 97q103 0 201 -27t163 -73l-110 -183q-151 76 -260 76q-189 0 -189 -125q0 -31 25 -55t65.5 -41t89.5 -34t97.5 -39.5 t89 -51.5t65.5 -76.5t25 -109.5q0 -101 -23.5 -176t-76.5 -133t-145.5 -87.5t-223.5 -29.5q-102 0 -215.5 31.5t-177.5 76.5zM610 1262l176 354h254l-264 -354h-166z" />
<glyph unicode="&#x15c;" horiz-adv-x="1099" d="M80 137l145 185q186 -109 342 -109q143 0 214 64t71 155q0 49 -24 86t-63.5 58.5t-90 43t-103 37.5t-103 43t-90 59.5t-63.5 87t-24 124.5q0 235 130 357t380 122q124 0 241 -38.5t191 -98.5l-150 -191q-83 50 -154 74.5t-149 24.5q-55 0 -97 -12.5t-66.5 -32t-40.5 -46 t-21.5 -50.5t-5.5 -50q0 -46 31 -79t81 -55t110.5 -42.5t120.5 -48t110 -65t81 -101t31 -147.5q0 -243 -144 -375.5t-411 -132.5q-284 0 -479 153zM543 1569l299 354h192l160 -354h-162l-127 162l-188 -162h-174z" />
<glyph unicode="&#x15d;" horiz-adv-x="923" d="M78 92l104 180q174 -82 307 -82q104 0 153.5 43.5t49.5 118.5q0 35 -25 61.5t-65 44t-88 34t-96 38.5t-88 50t-65 76t-25 110q0 189 115 286t323 97q103 0 201 -27t163 -73l-110 -183q-151 76 -260 76q-189 0 -189 -125q0 -31 25 -55t65.5 -41t89.5 -34t97.5 -39.5 t89 -51.5t65.5 -76.5t25 -109.5q0 -101 -23.5 -176t-76.5 -133t-145.5 -87.5t-223.5 -29.5q-102 0 -215.5 31.5t-177.5 76.5zM403 1262l299 354h193l160 -354h-162l-127 161l-188 -161h-175z" />
<glyph unicode="&#x15e;" horiz-adv-x="1099" d="M80 137l145 185q186 -109 342 -109q143 0 214 64t71 155q0 49 -24 86t-63.5 58.5t-90 43t-103 37.5t-103 43t-90 59.5t-63.5 87t-24 124.5q0 235 130 357t380 122q124 0 241 -38.5t191 -98.5l-150 -191q-83 50 -154 74.5t-149 24.5q-55 0 -97 -12.5t-66.5 -32t-40.5 -46 t-21.5 -50.5t-5.5 -50q0 -46 31 -79t81 -55t110.5 -42.5t120.5 -48t110 -65t81 -101t31 -147.5q0 -236 -136 -368.5t-390 -139.5l-29 -68q23 4 41 4q60 0 100.5 -31.5t40.5 -97.5q0 -113 -61 -172t-195 -59q-107 0 -188 47l57 108q78 -28 140 -28q56 0 79 17t23 60 q0 48 -59 48q-31 0 -84 -15l-43 53l39 140q-211 23 -369 147z" />
<glyph unicode="&#x15f;" horiz-adv-x="923" d="M78 92l104 180q174 -82 307 -82q104 0 153.5 43.5t49.5 118.5q0 35 -25 61.5t-65 44t-88 34t-96 38.5t-88 50t-65 76t-25 110q0 189 115 286t323 97q103 0 201 -27t163 -73l-110 -183q-151 76 -260 76q-189 0 -189 -125q0 -31 25 -55t65.5 -41t89.5 -34t97.5 -39.5 t89 -51.5t65.5 -76.5t25 -109.5q0 -98 -22 -171t-71 -130.5t-134.5 -89t-206.5 -35.5l-29 -68q23 4 41 4q60 0 100.5 -31.5t40.5 -97.5q0 -113 -61 -172t-195 -59q-107 0 -188 47l57 108q78 -28 140 -28q56 0 79 17t23 60q0 48 -59 48q-31 0 -84 -15l-43 53l39 142 q-82 10 -161.5 38t-127.5 62z" />
<glyph unicode="&#x160;" horiz-adv-x="1099" d="M80 137l145 185q186 -109 342 -109q143 0 214 64t71 155q0 49 -24 86t-63.5 58.5t-90 43t-103 37.5t-103 43t-90 59.5t-63.5 87t-24 124.5q0 235 130 357t380 122q124 0 241 -38.5t191 -98.5l-150 -191q-83 50 -154 74.5t-149 24.5q-55 0 -97 -12.5t-66.5 -32t-40.5 -46 t-21.5 -50.5t-5.5 -50q0 -46 31 -79t81 -55t110.5 -42.5t120.5 -48t110 -65t81 -101t31 -147.5q0 -243 -144 -375.5t-411 -132.5q-284 0 -479 153zM616 1923h162l127 -162l189 162h174l-299 -354h-193z" />
<glyph unicode="&#x161;" horiz-adv-x="923" d="M78 92l104 180q174 -82 307 -82q104 0 153.5 43.5t49.5 118.5q0 35 -25 61.5t-65 44t-88 34t-96 38.5t-88 50t-65 76t-25 110q0 189 115 286t323 97q103 0 201 -27t163 -73l-110 -183q-151 76 -260 76q-189 0 -189 -125q0 -31 25 -55t65.5 -41t89.5 -34t97.5 -39.5 t89 -51.5t65.5 -76.5t25 -109.5q0 -101 -23.5 -176t-76.5 -133t-145.5 -87.5t-223.5 -29.5q-102 0 -215.5 31.5t-177.5 76.5zM471 1616h162l127 -162l188 162h174l-299 -354h-192z" />
<glyph unicode="&#x162;" horiz-adv-x="1177" d="M315 1208l43 226h1016l-43 -226h-379l-235 -1208h-99l-36 -84q23 4 41 4q60 0 100.5 -31.5t40.5 -97.5q0 -113 -61 -172t-195 -59q-43 0 -96 12t-93 35l58 108q78 -28 139 -28q56 0 79 17t23 60q0 48 -59 48q-31 0 -84 -15l-43 53l41 150h-14l235 1208h-379z" />
<glyph unicode="&#x163;" horiz-adv-x="882" d="M227 926l37 194l197 13l41 217l248 26l-48 -243h297l-41 -207h-296l-115 -592q-12 -67 9.5 -96t88.5 -29q72 0 170 27l16 -187q-113 -59 -237 -59l-43 2l-33 -76q23 4 41 4q60 0 100.5 -31.5t40.5 -97.5q0 -113 -61 -172t-195 -59q-107 0 -188 47l57 108q78 -28 140 -28 q56 0 79 17t23 60q0 48 -59 48q-31 0 -84 -15l-43 53l49 173q-79 39 -110.5 117t-8.5 190l117 596h-189z" />
<glyph unicode="&#x164;" horiz-adv-x="1177" d="M315 1208l43 226h1016l-43 -226h-379l-235 -1208h-258l235 1208h-379zM647 1923h162l127 -162l188 162h174l-299 -354h-192z" />
<glyph unicode="&#x165;" horiz-adv-x="882" d="M227 926l37 194l197 13l41 217l248 26l-48 -243h297l-41 -207h-296l-115 -592q-12 -67 9.5 -96t88.5 -29q72 0 170 27l16 -187q-113 -59 -237 -59q-171 0 -249 88.5t-46 251.5l117 596h-189zM827 1235l119 418h242l-189 -418h-172z" />
<glyph unicode="&#x166;" horiz-adv-x="1177" d="M315 1208l43 226h1016l-43 -226h-379l-59 -303h256l-37 -188h-256l-139 -717h-258l139 717h-256l37 188h256l59 303h-379z" />
<glyph unicode="&#x167;" horiz-adv-x="882" d="M176 590l37 188h174l29 148h-189l37 194l197 13l41 217l248 26l-48 -243h297l-41 -207h-296l-29 -148h258l-37 -188h-258l-49 -256q-12 -67 9.5 -96t88.5 -29q72 0 170 27l16 -187q-113 -59 -237 -59q-171 0 -249 88.5t-46 251.5l51 260h-174z" />
<glyph unicode="&#x168;" horiz-adv-x="1314" d="M248 467l188 967h258l-184 -947q-27 -134 12.5 -203t175.5 -69t202 69t93 203l185 947h258l-189 -967q-47 -247 -178.5 -365t-390.5 -118q-247 0 -360.5 126.5t-69.5 356.5zM621 1642q123 218 270 218q50 0 95.5 -26t82.5 -51.5t68 -25.5q28 0 54.5 19.5t68.5 76.5 l112 -69q-122 -217 -262 -217q-39 0 -77 16t-62 35t-53 35t-54 16q-28 0 -54.5 -19.5t-70.5 -76.5z" />
<glyph unicode="&#x169;" d="M192.5 224.5q-9.5 72.5 8.5 156.5l145 752h246l-135 -699q-22 -115 12.5 -164t124.5 -49q60 0 123.5 28.5t105.5 63.5l160 820h246l-221 -1133h-201l2 121q-153 -137 -328 -137q-89 0 -152.5 30.5t-95 84t-41 126zM473 1335q122 217 270 217q39 0 77 -16t62 -35t53 -35 t54 -16q28 0 54.5 19.5t68.5 76.5l113 -69q-122 -217 -262 -217q-39 0 -77 16t-62 35t-53 35t-54 16q-28 0 -54.5 -19.5t-70.5 -76.5z" />
<glyph unicode="&#x16a;" horiz-adv-x="1314" d="M248 467l188 967h258l-184 -947q-27 -134 12.5 -203t175.5 -69t202 69t93 203l185 947h258l-189 -967q-47 -247 -178.5 -365t-390.5 -118q-247 0 -360.5 126.5t-69.5 356.5zM702 1638l37 189h566l-37 -189h-566z" />
<glyph unicode="&#x16b;" d="M192.5 224.5q-9.5 72.5 8.5 156.5l145 752h246l-135 -699q-22 -115 12.5 -164t124.5 -49q60 0 123.5 28.5t105.5 63.5l160 820h246l-221 -1133h-201l2 121q-153 -137 -328 -137q-89 0 -152.5 30.5t-95 84t-41 126zM557 1337l37 189h565l-37 -189h-565z" />
<glyph unicode="&#x16c;" horiz-adv-x="1314" d="M248 467l188 967h258l-184 -947q-27 -134 12.5 -203t175.5 -69t202 69t93 203l185 947h258l-189 -967q-47 -247 -178.5 -365t-390.5 -118q-247 0 -360.5 126.5t-69.5 356.5zM699 1732q-9 49 6 115l8 39h194l-8 -41q-22 -119 102 -119q120 0 142 119l8 41h201l-9 -39 q-59 -291 -376 -291q-53 0 -96.5 9t-81.5 29.5t-59.5 54.5t-30.5 83z" />
<glyph unicode="&#x16d;" d="M192.5 224.5q-9.5 72.5 8.5 156.5l145 752h246l-135 -699q-22 -115 12.5 -164t124.5 -49q60 0 123.5 28.5t105.5 63.5l160 820h246l-221 -1133h-201l2 121q-153 -137 -328 -137q-89 0 -152.5 30.5t-95 84t-41 126zM559 1431q-9 49 6 115l8 39h195l-8 -41 q-22 -119 102 -119q120 0 142 119l8 41h200l-8 -39q-59 -291 -377 -291q-53 0 -96.5 9t-81.5 29.5t-59.5 54.5t-30.5 83z" />
<glyph unicode="&#x16e;" horiz-adv-x="1314" d="M248 467l188 967h258l-184 -947q-27 -134 12.5 -203t175.5 -69t202 69t93 203l185 947h258l-189 -967q-47 -247 -178.5 -365t-390.5 -118q-247 0 -360.5 126.5t-69.5 356.5zM766 1700q0 118 74.5 190t195.5 72q90 0 146.5 -48.5t56.5 -131.5q0 -120 -73.5 -191 t-198.5 -71q-89 0 -145 48.5t-56 131.5zM907 1724q0 -34 20.5 -53.5t57.5 -19.5q51 0 81 30.5t30 77.5q0 34 -20 53t-56 19q-53 0 -83 -30t-30 -77z" />
<glyph unicode="&#x16f;" d="M192.5 224.5q-9.5 72.5 8.5 156.5l145 752h246l-135 -699q-22 -115 12.5 -164t124.5 -49q60 0 123.5 28.5t105.5 63.5l160 820h246l-221 -1133h-201l2 121q-153 -137 -328 -137q-89 0 -152.5 30.5t-95 84t-41 126zM625 1393q0 118 74.5 190t195.5 72q90 0 146.5 -48.5 t56.5 -131.5q0 -120 -74 -191.5t-199 -71.5q-89 0 -144.5 49t-55.5 132zM766 1417q0 -34 21 -54t57 -20q51 0 80.5 31t29.5 78q0 34 -19.5 53t-55.5 19q-53 0 -83 -30t-30 -77z" />
<glyph unicode="&#x170;" horiz-adv-x="1314" d="M248 467l188 967h258l-184 -947q-27 -134 12.5 -203t175.5 -69t202 69t93 203l185 947h258l-189 -967q-47 -247 -178.5 -365t-390.5 -118q-247 0 -360.5 126.5t-69.5 356.5zM702 1569l177 354h254l-265 -354h-166zM1024 1569l176 354h254l-264 -354h-166z" />
<glyph unicode="&#x171;" d="M192.5 224.5q-9.5 72.5 8.5 156.5l145 752h246l-135 -699q-22 -115 12.5 -164t124.5 -49q60 0 123.5 28.5t105.5 63.5l160 820h246l-221 -1133h-201l2 121q-153 -137 -328 -137q-89 0 -152.5 30.5t-95 84t-41 126zM535 1262l176 354h254l-265 -354h-165zM856 1262 l176 354h254l-264 -354h-166z" />
<glyph unicode="&#x172;" horiz-adv-x="1314" d="M248 467l188 967h258l-184 -947q-27 -134 12.5 -203t175.5 -69t202 69t93 203l185 947h258l-189 -967q-33 -168 -97.5 -266t-195.5 -170q-217 -120 -217 -246q0 -25 16.5 -40t45.5 -15q40 0 86 22l35 -135q-95 -57 -220 -57q-77 0 -128.5 39t-51.5 110q0 74 55.5 149.5 t145.5 127.5q-14 -2 -43 -2q-247 0 -360.5 126.5t-69.5 356.5z" />
<glyph unicode="&#x173;" d="M192.5 224.5q-9.5 72.5 8.5 156.5l145 752h246l-135 -699q-22 -115 12.5 -164t124.5 -49q60 0 123.5 28.5t105.5 63.5l160 820h246l-221 -1133q-97 -39 -167.5 -96t-70.5 -119q0 -25 16 -40t45 -15q41 0 87 22l34 -135q-95 -57 -219 -57q-77 0 -128.5 39t-51.5 110 q0 90 68 168.5t186 122.5l2 121q-153 -137 -328 -137q-89 0 -152.5 30.5t-95 84t-41 126z" />
<glyph unicode="&#x174;" horiz-adv-x="1759" d="M326 1434h258l8 -1057h8l434 1057h236l26 -1057h9l415 1057h271l-619 -1434h-268l-47 901h-8l-394 -901h-268zM858 1569l299 354h193l159 -354h-161l-127 162l-189 -162h-174z" />
<glyph unicode="&#x175;" horiz-adv-x="1478" d="M258 1133h260l-4 -779h8l326 779h211l24 -779h9l297 779h272l-500 -1133h-262l-33 616h-8l-268 -616h-271zM662 1262l299 354h192l160 -354h-162l-127 161l-188 -161h-174z" />
<glyph unicode="&#x176;" horiz-adv-x="1191" d="M311 1434h267l155 -643h8l408 643h287l-607 -893l-104 -541h-258l104 541zM580 1569l299 354h192l160 -354h-162l-127 162l-188 -162h-174z" />
<glyph unicode="&#x177;" d="M119 -340l100 188q164 -61 295 -61q204 0 250 225l16 84q-129 -112 -299 -112q-89 0 -152.5 30.5t-95 84t-41 126t8.5 156.5l145 752h246l-135 -699q-22 -115 12.5 -164t124.5 -49q60 0 123.5 28.5t105.5 63.5l160 820h246l-213 -1094q-16 -80 -40 -145.5t-65.5 -127 t-96.5 -103.5t-135.5 -67.5t-180.5 -25.5q-102 0 -202.5 24t-176.5 66zM489 1262l299 354h193l160 -354h-162l-127 161l-188 -161h-175z" />
<glyph unicode="&#x178;" horiz-adv-x="1191" d="M311 1434h267l155 -643h8l408 643h287l-607 -893l-104 -541h-258l104 541zM594 1591l49 248h246l-49 -248h-246zM979 1591l49 248h246l-49 -248h-246z" />
<glyph unicode="&#x179;" horiz-adv-x="1118" d="M102 0l37 195l805 1013h-575l43 226h878l-37 -193l-804 -1016h606l-43 -225h-910zM772 1569l176 354h254l-264 -354h-166z" />
<glyph unicode="&#x17a;" horiz-adv-x="991" d="M84 0l35 178l635 742h-463l41 213h778l-33 -172l-637 -746h518l-40 -215h-834zM625 1262l176 354h254l-264 -354h-166z" />
<glyph unicode="&#x17b;" horiz-adv-x="1118" d="M102 0l37 195l805 1013h-575l43 226h878l-37 -193l-804 -1016h606l-43 -225h-910zM748 1567l53 270h268l-53 -270h-268z" />
<glyph unicode="&#x17c;" horiz-adv-x="991" d="M84 0l35 178l635 742h-463l41 213h778l-33 -172l-637 -746h518l-40 -215h-834zM659 1266l54 270h268l-53 -270h-269z" />
<glyph unicode="&#x17d;" horiz-adv-x="1118" d="M102 0l37 195l805 1013h-575l43 226h878l-37 -193l-804 -1016h606l-43 -225h-910zM629 1923h162l127 -162l188 162h174l-299 -354h-193z" />
<glyph unicode="&#x17e;" horiz-adv-x="991" d="M84 0l35 178l635 742h-463l41 213h778l-33 -172l-637 -746h518l-40 -215h-834zM494 1616h161l127 -162l189 162h174l-299 -354h-193z" />
<glyph unicode="&#x192;" horiz-adv-x="1060" d="M-203 -379l80 193q82 -23 129 -23q89 0 129 46.5t53 135.5l127 820h-184l35 194l184 12l25 144q33 198 132 300.5t277 102.5q132 0 226 -51l-78 -192q-68 22 -129 22q-88 0 -127.5 -46.5t-54.5 -135.5l-25 -144h283l-37 -206h-281l-127 -820q-32 -200 -132.5 -301.5 t-293.5 -101.5q-120 0 -211 51z" />
<glyph unicode="&#x1e2;" horiz-adv-x="1683" d="M39 0l745 1434h1057l-43 -226h-741l45 -364h579l-43 -226h-510l43 -393h435l-43 -225h-617l-39 317h-446l-162 -317h-260zM565 545h328l-57 526h-9zM1016 1638l37 189h565l-37 -189h-565z" />
<glyph unicode="&#x1e3;" horiz-adv-x="1644" d="M141 276q0 101 44 181.5t114.5 131.5t165 85t189.5 47.5t194 13.5l10 49q15 71 -22 112.5t-142 41.5q-134 0 -313 -78l-66 170q101 57 214.5 88t215.5 31q210 0 297 -96q132 96 320 96q422 0 338 -438l-45 -234h-608l-21 -110q-13 -73 26.5 -121.5t143.5 -48.5 q78 0 139.5 19t161.5 67l64 -183q-105 -58 -201 -87t-217 -29q-251 0 -330 155q-31 -32 -60 -55t-73.5 -48t-104 -38.5t-129.5 -13.5q-136 0 -220.5 83.5t-84.5 208.5zM397 313q0 -52 39 -82t99 -30q72 0 136 36.5t101 88.5l45 237q-75 0 -146.5 -14.5t-134 -42.5 t-101 -78.5t-38.5 -114.5zM809 1337l37 189h565l-37 -189h-565zM1083 670h369q31 134 3.5 200t-134.5 66t-158 -60t-80 -206z" />
<glyph unicode="&#x1fa;" horiz-adv-x="1245" d="M39 0l696 1346q-47 44 -47 131q0 119 77.5 192.5t195.5 73.5q88 0 138 -47.5t50 -130.5q0 -68 -31 -125.5t-86 -93.5l174 -1346h-262l-37 317h-446l-162 -317h-260zM565 545h328l-57 526h-9zM823 1505q0 -34 20.5 -53.5t57.5 -19.5q51 0 82 30.5t31 77.5q0 34 -20 53 t-58 19q-52 0 -82.5 -30t-30.5 -77zM893 1782l176 354h254l-264 -354h-166z" />
<glyph unicode="&#x1fb;" horiz-adv-x="1079" d="M176 444l53 267q42 209 158.5 323.5t296.5 114.5q78 0 142.5 -32.5t101.5 -80.5l69 97h197l-156 -803q-23 -129 54 -129q36 0 63 6l16 -176q-92 -41 -186 -41q-147 0 -190 104q-114 -110 -287 -110q-182 0 -277.5 128.5t-54.5 331.5zM424 449q-24 -120 11 -177t136 -57 q54 0 111.5 26t103.5 66l101 520q-30 39 -77 65t-101 26q-101 0 -157.5 -57t-80.5 -177zM586 1391q0 114 66.5 184.5t183.5 77.5l110 227h254l-201 -272q50 -47 50 -131q0 -121 -73 -193t-202 -72q-87 0 -137.5 47.5t-50.5 131.5zM723 1417q0 -34 21 -54t57 -20 q51 0 80.5 31t29.5 78q0 34 -19.5 53t-55.5 19q-53 0 -83 -30t-30 -77z" />
<glyph unicode="&#x1fc;" horiz-adv-x="1683" d="M39 0l745 1434h1057l-43 -226h-741l45 -364h579l-43 -226h-510l43 -393h435l-43 -225h-617l-39 317h-446l-162 -317h-260zM565 545h328l-57 526h-9zM1053 1569l176 354h254l-264 -354h-166z" />
<glyph unicode="&#x1fd;" horiz-adv-x="1644" d="M141 276q0 101 44 181.5t114.5 131.5t165 85t189.5 47.5t194 13.5l10 49q15 71 -22 112.5t-142 41.5q-134 0 -313 -78l-66 170q101 57 214.5 88t215.5 31q210 0 297 -96q132 96 320 96q422 0 338 -438l-45 -234h-608l-21 -110q-13 -73 26.5 -121.5t143.5 -48.5 q78 0 139.5 19t161.5 67l64 -183q-105 -58 -201 -87t-217 -29q-251 0 -330 155q-31 -32 -60 -55t-73.5 -48t-104 -38.5t-129.5 -13.5q-136 0 -220.5 83.5t-84.5 208.5zM397 313q0 -52 39 -82t99 -30q72 0 136 36.5t101 88.5l45 237q-75 0 -146.5 -14.5t-134 -42.5 t-101 -78.5t-38.5 -114.5zM967 1262l176 354h254l-264 -354h-166zM1083 670h369q31 134 3.5 200t-134.5 66t-158 -60t-80 -206z" />
<glyph unicode="&#x1fe;" horiz-adv-x="1243" d="M176 -100l117 196q-137 137 -86 396l88 448q98 510 598 510q103 0 192 -29l68 113h182l-114 -195q143 -137 92 -399l-88 -448q-98 -508 -596 -508q-106 0 -201 30l-68 -114h-184zM459 373l495 829q-40 12 -96 12q-134 0 -207 -73.5t-102 -220.5l-80 -406 q-15 -85 -10 -141zM559 233q41 -14 105 -14q135 0 206.5 72.5t100.5 222.5l80 406q18 86 8 151zM805 1569l176 354h254l-264 -354h-166z" />
<glyph unicode="&#x1ff;" horiz-adv-x="1064" d="M174 420l55 287q41 213 169 327.5t347 114.5q80 0 148 -19l51 87h164l-88 -148q140 -116 90 -362l-57 -287q-42 -216 -167.5 -326t-346.5 -110q-87 0 -152 18l-47 -80h-162l84 144q-135 114 -88 354zM412 317l358 607q-24 6 -57 6q-106 0 -161 -55.5t-79 -178.5l-51 -262 q-13 -63 -10 -117zM508 207q27 -6 63 -6q106 0 161 55.5t79 177.5l51 262q13 78 8 121zM664 1262l176 354h254l-265 -354h-165z" />
<glyph unicode="&#x218;" horiz-adv-x="1099" d="M80 137l145 185q186 -109 342 -109q143 0 214 64t71 155q0 49 -24 86t-63.5 58.5t-90 43t-103 37.5t-103 43t-90 59.5t-63.5 87t-24 124.5q0 235 130 357t380 122q124 0 241 -38.5t191 -98.5l-150 -191q-83 50 -154 74.5t-149 24.5q-55 0 -97 -12.5t-66.5 -32t-40.5 -46 t-21.5 -50.5t-5.5 -50q0 -46 31 -79t81 -55t110.5 -42.5t120.5 -48t110 -65t81 -101t31 -147.5q0 -243 -144 -375.5t-411 -132.5q-284 0 -479 153zM307 -532q127 87 144 174h-97l49 260h259l-44 -219q-36 -184 -235 -318z" />
<glyph unicode="&#x219;" horiz-adv-x="923" d="M78 92l104 180q174 -82 307 -82q104 0 153.5 43.5t49.5 118.5q0 35 -25 61.5t-65 44t-88 34t-96 38.5t-88 50t-65 76t-25 110q0 189 115 286t323 97q103 0 201 -27t163 -73l-110 -183q-151 76 -260 76q-189 0 -189 -125q0 -31 25 -55t65.5 -41t89.5 -34t97.5 -39.5 t89 -51.5t65.5 -76.5t25 -109.5q0 -101 -23.5 -176t-76.5 -133t-145.5 -87.5t-223.5 -29.5q-102 0 -215.5 31.5t-177.5 76.5zM221 -532q127 87 144 174h-97l49 260h258l-43 -219q-36 -184 -235 -318z" />
<glyph unicode="&#x21a;" horiz-adv-x="1177" d="M315 1208l43 226h1016l-43 -226h-379l-235 -1208h-258l235 1208h-379zM342 -532q125 86 143 174h-96l49 260h258l-43 -219q-36 -184 -235 -318z" />
<glyph unicode="&#x21b;" horiz-adv-x="882" d="M227 926l37 194l197 13l41 217l248 26l-48 -243h297l-41 -207h-296l-115 -592q-12 -67 9.5 -96t88.5 -29q72 0 170 27l16 -187q-113 -59 -237 -59q-171 0 -249 88.5t-46 251.5l117 596h-189zM236 -532q125 86 143 174h-96l49 260h258l-43 -219q-36 -184 -236 -318z" />
<glyph unicode="&#x237;" horiz-adv-x="612" d="M-162 -377l96 187q57 -17 109 -17q150 0 178 148l191 985h-189l39 207h436l-227 -1168q-36 -186 -138.5 -285.5t-291.5 -99.5q-115 0 -203 43z" />
<glyph unicode="&#x2c6;" horiz-adv-x="968" d="M403 1262l299 354h193l160 -354h-162l-127 161l-188 -161h-175z" />
<glyph unicode="&#x2c7;" horiz-adv-x="968" d="M471 1616h162l127 -162l188 162h174l-299 -354h-192z" />
<glyph unicode="&#x2d8;" horiz-adv-x="806" d="M379 1431q-9 49 6 115l8 39h195l-8 -41q-22 -119 102 -119q119 0 141 119l8 41h201l-8 -39q-59 -291 -377 -291q-53 0 -96.5 9t-81.5 29.5t-59.5 54.5t-30.5 83z" />
<glyph unicode="&#x2d9;" horiz-adv-x="456" d="M340 1266l53 270h269l-54 -270h-268z" />
<glyph unicode="&#x2da;" horiz-adv-x="944" d="M514 1393q0 118 74.5 190t195.5 72q90 0 146.5 -48.5t56.5 -131.5q0 -120 -74 -191.5t-198 -71.5q-89 0 -145 49t-56 132zM655 1417q0 -34 21 -54t57 -20q51 0 81 31t30 78q0 34 -20 53t-56 19q-53 0 -83 -30t-30 -77z" />
<glyph unicode="&#x2db;" horiz-adv-x="849" d="M170 -291q0 92 72.5 170t197.5 121h185q-97 -39 -167.5 -96t-70.5 -119q0 -25 16.5 -40t45.5 -15q40 0 86 22l34 -135q-95 -57 -219 -57q-77 0 -128.5 39t-51.5 110z" />
<glyph unicode="&#x2dc;" horiz-adv-x="849" d="M319 1335q122 217 271 217q39 0 77 -16t62 -35t53 -35t54 -16q28 0 54 19.5t68 76.5l113 -69q-122 -217 -262 -217q-39 0 -77 16t-62 35t-53 35t-54 16q-28 0 -54.5 -19.5t-70.5 -76.5z" />
<glyph unicode="&#x2dd;" horiz-adv-x="866" d="M338 1262l176 354h254l-264 -354h-166zM659 1262l177 354h254l-265 -354h-166z" />
<glyph unicode="&#x1e80;" horiz-adv-x="1759" d="M326 1434h258l8 -1057h8l434 1057h236l26 -1057h9l415 1057h271l-619 -1434h-268l-47 901h-8l-394 -901h-268zM1006 1923h254l36 -354h-155z" />
<glyph unicode="&#x1e81;" horiz-adv-x="1478" d="M258 1133h260l-4 -779h8l326 779h211l24 -779h9l297 779h272l-500 -1133h-262l-33 616h-8l-268 -616h-271zM795 1616h254l36 -354h-155z" />
<glyph unicode="&#x1e82;" horiz-adv-x="1759" d="M326 1434h258l8 -1057h8l434 1057h236l26 -1057h9l415 1057h271l-619 -1434h-268l-47 901h-8l-394 -901h-268zM1073 1569l176 354h254l-264 -354h-166z" />
<glyph unicode="&#x1e83;" horiz-adv-x="1478" d="M258 1133h260l-4 -779h8l326 779h211l24 -779h9l297 779h272l-500 -1133h-262l-33 616h-8l-268 -616h-271zM891 1262l176 354h254l-264 -354h-166z" />
<glyph unicode="&#x1e84;" horiz-adv-x="1759" d="M326 1434h258l8 -1057h8l434 1057h236l26 -1057h9l415 1057h271l-619 -1434h-268l-47 901h-8l-394 -901h-268zM874 1591l50 248h245l-49 -248h-246zM1260 1591l49 248h245l-49 -248h-245z" />
<glyph unicode="&#x1e85;" horiz-adv-x="1478" d="M258 1133h260l-4 -779h8l326 779h211l24 -779h9l297 779h272l-500 -1133h-262l-33 616h-8l-268 -616h-271zM678 1284l49 248h246l-49 -248h-246zM1063 1284l49 248h246l-49 -248h-246z" />
<glyph unicode="&#x1ef2;" horiz-adv-x="1191" d="M311 1434h267l155 -643h8l408 643h287l-607 -893l-104 -541h-258l104 541zM717 1923h254l37 -354h-156z" />
<glyph unicode="&#x1ef3;" d="M119 -340l100 188q164 -61 295 -61q204 0 250 225l16 84q-129 -112 -299 -112q-89 0 -152.5 30.5t-95 84t-41 126t8.5 156.5l145 752h246l-135 -699q-22 -115 12.5 -164t124.5 -49q60 0 123.5 28.5t105.5 63.5l160 820h246l-213 -1094q-16 -80 -40 -145.5t-65.5 -127 t-96.5 -103.5t-135.5 -67.5t-180.5 -25.5q-102 0 -202.5 24t-176.5 66zM629 1616h254l37 -354h-156z" />
<glyph unicode="&#x2000;" horiz-adv-x="1068" />
<glyph unicode="&#x2001;" horiz-adv-x="2136" />
<glyph unicode="&#x2002;" horiz-adv-x="1068" />
<glyph unicode="&#x2003;" horiz-adv-x="2136" />
<glyph unicode="&#x2004;" horiz-adv-x="712" />
<glyph unicode="&#x2005;" horiz-adv-x="534" />
<glyph unicode="&#x2006;" horiz-adv-x="356" />
<glyph unicode="&#x2007;" horiz-adv-x="356" />
<glyph unicode="&#x2008;" horiz-adv-x="267" />
<glyph unicode="&#x2009;" horiz-adv-x="427" />
<glyph unicode="&#x200a;" horiz-adv-x="118" />
<glyph unicode="&#x2010;" horiz-adv-x="696" d="M170 510l41 215h553l-41 -215h-553z" />
<glyph unicode="&#x2011;" horiz-adv-x="696" d="M170 510l41 215h553l-41 -215h-553z" />
<glyph unicode="&#x2012;" horiz-adv-x="696" d="M170 510l41 215h553l-41 -215h-553z" />
<glyph unicode="&#x2013;" horiz-adv-x="1019" d="M160 510l41 215h897l-41 -215h-897z" />
<glyph unicode="&#x2014;" horiz-adv-x="1681" d="M178 510l41 215h1520l-41 -215h-1520z" />
<glyph unicode="&#x2018;" horiz-adv-x="559" d="M309 993l49 250q45 221 279 381l98 -119q-40 -27 -67.5 -49.5t-61 -67t-41.5 -90.5h103l-60 -305h-299z" />
<glyph unicode="&#x2019;" horiz-adv-x="559" d="M328 1090q29 20 49.5 36t48.5 43t46.5 59.5t25.5 67.5h-103l60 306h299l-49 -250q-45 -221 -279 -381z" />
<glyph unicode="&#x201a;" horiz-adv-x="577" d="M72 -207q39 27 67 49.5t61 67t42 90.5h-103l60 305h299l-49 -250q-45 -221 -279 -381z" />
<glyph unicode="&#x201c;" horiz-adv-x="989" d="M303 993l49 250q45 221 279 381l98 -119q-40 -27 -67.5 -49.5t-61 -67t-41.5 -90.5h103l-60 -305h-299zM743 993l50 250q45 222 278 381l98 -119q-40 -27 -67.5 -49.5t-61 -67t-41.5 -90.5h103l-60 -305h-299z" />
<glyph unicode="&#x201d;" horiz-adv-x="989" d="M324 1090q29 20 49.5 36t48.5 43t46.5 59.5t25.5 67.5h-103l60 306h299l-50 -250q-45 -222 -278 -381zM764 1090q29 20 49.5 36t48.5 43t46.5 59.5t25.5 67.5h-103l60 306h299l-49 -250q-45 -221 -279 -381z" />
<glyph unicode="&#x201e;" horiz-adv-x="1017" d="M72 -207q39 27 67 49.5t61 67t42 90.5h-103l60 305h299l-49 -250q-45 -221 -279 -381zM512 -207q39 27 67 49.5t61 67t42 90.5h-102l59 305h299l-49 -250q-45 -221 -279 -381z" />
<glyph unicode="&#x2020;" horiz-adv-x="980" d="M305 885l43 223l240 -6l71 407h248l-84 -407l240 6l-43 -223l-236 6l-198 -975h-224l183 975z" />
<glyph unicode="&#x2021;" horiz-adv-x="980" d="M195 317l43 224l241 -6l68 356l-242 -6l43 223l238 -6l73 407h248l-86 -407l242 6l-43 -223l-242 6l-67 -356l241 6l-43 -224l-237 7l-74 -408h-248l86 408z" />
<glyph unicode="&#x2022;" horiz-adv-x="835" d="M258 573q0 140 96 233t238 93q106 0 166.5 -61t60.5 -162q0 -140 -96 -233t-238 -93q-105 0 -166 61t-61 162z" />
<glyph unicode="&#x202f;" horiz-adv-x="427" />
<glyph unicode="&#x2030;" horiz-adv-x="2486" d="M291 958l35 189q28 150 117.5 226.5t236.5 76.5q142 0 211 -81t41 -222l-37 -189q-59 -299 -348 -299q-142 0 -212 80.5t-44 218.5zM494 -59l839 1552h226l-840 -1552h-225zM504 969q-23 -115 71 -115q52 0 77 31t36 84l33 170q23 116 -68 116q-50 0 -77 -27.5t-39 -88.5 zM1120 281l35 188q28 150 117.5 226.5t236.5 76.5q142 0 211 -81t41 -222l-37 -188q-59 -299 -348 -299q-142 0 -212 80.5t-44 218.5zM1333 291q-23 -115 72 -115q52 0 77 31t36 84l32 170q23 117 -67 117q-50 0 -77.5 -28t-39.5 -89zM1831 281l35 188q28 150 117.5 226.5 t236.5 76.5q142 0 211 -81t41 -222l-37 -188q-59 -299 -348 -299q-142 0 -212 80.5t-44 218.5zM2044 291q-23 -115 72 -115q52 0 76.5 31t35.5 84l33 170q23 117 -68 117q-50 0 -77 -28t-39 -89z" />
<glyph unicode="&#x2039;" horiz-adv-x="729" d="M186 541l29 143l637 379l-39 -195l-332 -256l232 -266l-37 -184z" />
<glyph unicode="&#x203a;" horiz-adv-x="729" d="M113 162l37 192l333 258l-233 265l39 186l489 -379l-28 -143z" />
<glyph unicode="&#x2044;" horiz-adv-x="788" d="M0 -51l823 1536h242l-823 -1536h-242z" />
<glyph unicode="&#x205f;" horiz-adv-x="534" />
<glyph unicode="&#x20ac;" horiz-adv-x="1251" d="M162 496l33 168h106l21 104h-107l33 168h106l6 29q48 230 190.5 357.5t387.5 127.5q223 0 410 -119l-123 -188q-156 78 -307 78q-248 0 -306 -267l-4 -18h363l-33 -168h-363l-20 -104h363l-33 -168h-363l-2 -15q-21 -132 26 -199t175 -67q145 0 336 80l57 -184 q-223 -125 -442 -125q-243 0 -345 129.5t-63 355.5l4 25h-106z" />
<glyph unicode="&#x2122;" horiz-adv-x="1486" d="M328 1288l28 146h551l-28 -146h-195l-121 -616h-162l121 616h-194zM856 672l150 762h131l123 -416h8l282 416h136l-150 -762h-147l81 411h-8l-194 -295h-94l-80 295h-9l-81 -411h-148z" />
<glyph unicode="&#x2190;" horiz-adv-x="1755" d="M236 709l671 649l154 -154l-414 -389h1079v-215h-1079l414 -391l-150 -152z" />
<glyph unicode="&#x2191;" horiz-adv-x="1482" d="M252 819l649 672l651 -676l-151 -149l-391 413v-1079h-215v1079l-389 -413z" />
<glyph unicode="&#x2192;" horiz-adv-x="1755" d="M281 600v215h1079l-414 389l154 154l672 -649l-676 -652l-150 152l414 391h-1079z" />
<glyph unicode="&#x2193;" horiz-adv-x="1482" d="M219 651l154 154l389 -414v1079h215v-1079l391 414l152 -150l-652 -675z" />
<glyph unicode="&#x2212;" horiz-adv-x="1013" d="M125 508l41 209h960l-41 -209h-960z" />
<glyph unicode="&#x2260;" horiz-adv-x="1009" d="M84 291l41 209h354l115 227h-426l41 209h489l80 158h172l-80 -158h299l-41 -209h-362l-115 -227h434l-41 -209h-497l-78 -154h-172l78 154h-291z" />
<glyph unicode="&#x25fc;" d="M0 0v1137h1137v-1137h-1137z" />
<glyph unicode="&#xf6c3;" horiz-adv-x="536" d="M29 -532q125 86 143 174h-96l49 260h258l-43 -219q-36 -184 -236 -318z" />
<glyph horiz-adv-x="1183" d="M213 520l76 393q47 243 197 390t376 147q221 0 326 -149.5t59 -387.5l-76 -393q-47 -243 -197 -389.5t-376 -146.5q-221 0 -326 149t-59 387zM457 373l415 848q-18 6 -43 6q-113 0 -186.5 -86.5t-103.5 -243.5l-72 -360q-19 -97 -10 -164zM580 213q24 -6 51 -6 q113 0 186 86t105 244l71 360q19 107 8 174z" />
<glyph horiz-adv-x="1196" d="M219 520l76 393q47 243 197 390t376 147q221 0 326 -149.5t59 -387.5l-75 -393q-47 -243 -197.5 -389.5t-376.5 -146.5q-221 0 -326 149t-59 387zM479 541q-30 -155 9 -239.5t151 -84.5t184.5 85t102.5 239l67 352q30 155 -9 239.5t-150 84.5q-112 0 -184.5 -85 t-102.5 -239z" />
<glyph horiz-adv-x="1196" d="M205 0l43 221h340l186 955l-354 -127l-60 196l533 189h186l-235 -1213h250l-43 -221h-846z" />
<glyph horiz-adv-x="1196" d="M143 0l31 160q19 98 74.5 187.5t129 157.5t158 130.5t165.5 116.5t147 105t106.5 107.5t40.5 112.5q0 72 -51.5 109t-144.5 37q-84 0 -161.5 -25t-180.5 -74l-88 181q97 62 226 103.5t251 41.5q188 0 298.5 -87t110.5 -239q0 -90 -41.5 -174t-108.5 -150.5t-148.5 -129 t-165.5 -118t-155 -107t-121 -107t-60 -107.5h641l-45 -231h-908z" />
<glyph horiz-adv-x="1196" d="M147 135l129 180q161 -102 328 -102q155 0 227 66.5t72 185.5q0 78 -52.5 119t-152.5 41h-243l43 219h215q266 0 266 229q0 150 -172 150q-157 0 -344 -97l-76 172q85 62 213 107t248 45q193 0 295 -86.5t102 -235.5q0 -109 -51 -209.5t-162 -160.5q125 -70 125 -254 q0 -77 -15.5 -147.5t-56 -140t-102 -119.5t-161.5 -81.5t-228 -31.5q-122 0 -255.5 47t-191.5 104z" />
<glyph horiz-adv-x="1196" d="M123 274l35 177l604 983h276l-585 -938h321l78 397h250l-78 -397h199l-43 -222h-199l-53 -274h-250l53 274h-608z" />
<glyph horiz-adv-x="1196" d="M143 135l133 180q155 -102 318 -102q159 0 237 80t78 213q0 88 -51 142t-153 54q-135 0 -267 -71l-119 94l185 709h749l-45 -232h-542l-80 -309q85 33 186 33q188 0 290.5 -104t102.5 -269q0 -86 -16.5 -163.5t-58.5 -153t-106 -130.5t-167 -88.5t-233 -33.5 q-141 0 -260.5 45.5t-180.5 105.5z" />
<glyph horiz-adv-x="1196" d="M203 479l69 389q19 104 50 189t81 159.5t116.5 125t159 79.5t206.5 29q127 0 237.5 -39.5t175.5 -97.5l-135 -187q-154 97 -307 97q-127 0 -209 -76.5t-108 -220.5l-17 -88q53 46 130.5 79t166.5 33q178 0 275.5 -98t97.5 -272q0 -124 -38 -231t-109.5 -189t-184.5 -129 t-254 -47q-223 0 -333 134.5t-70 360.5zM453 479q-26 -132 23 -200t159 -68q131 0 214 86t83 242q0 98 -52 146t-143 48q-72 0 -140.5 -34t-117.5 -83z" />
<glyph horiz-adv-x="1196" d="M250 0l776 1202h-668l45 232h947l-37 -195l-787 -1239h-276z" />
<glyph horiz-adv-x="1196" d="M174 324q0 154 84.5 257t235.5 171q-71 44 -112.5 115t-41.5 155q0 89 35 166.5t100.5 136t167 92t225.5 33.5q187 0 296.5 -88t109.5 -229q0 -123 -76.5 -221t-202.5 -160q183 -102 183 -291q0 -217 -149 -347t-419 -130q-203 0 -319.5 91t-116.5 249zM428 375 q0 -78 57 -123t154 -45q124 0 205.5 65t81.5 170q0 137 -203 195q-163 -42 -229 -107t-66 -155zM592 1030q0 -67 44.5 -110.5t125.5 -81.5q60 25 98.5 44.5t78.5 49.5t59.5 69.5t19.5 88.5q0 64 -45.5 101.5t-134.5 37.5q-116 0 -181 -55.5t-65 -143.5z" />
<glyph horiz-adv-x="1196" d="M174 121l135 186q152 -96 307 -96q127 0 209.5 76.5t108.5 220.5l16 88q-53 -46 -130.5 -79.5t-166.5 -33.5q-177 0 -274.5 98.5t-97.5 272.5q0 124 37.5 231t109 189t184.5 129t254 47q223 0 333.5 -135t70.5 -361l-70 -389q-19 -104 -49.5 -189t-81 -159.5 t-116.5 -124.5t-158.5 -79t-206.5 -29q-127 0 -238.5 39.5t-175.5 97.5zM541 895q0 -98 51.5 -146.5t142.5 -48.5q72 0 140.5 34t117.5 83l27 137q26 132 -23 200.5t-159 68.5q-131 0 -214 -86t-83 -242z" />
<glyph horiz-adv-x="1196" d="M219 520l76 393q47 243 197 390t376 147q221 0 326 -149.5t59 -387.5l-75 -393q-47 -243 -197.5 -389.5t-376.5 -146.5q-221 0 -326 149t-59 387zM463 373l416 848q-18 6 -43 6q-113 0 -187 -86.5t-104 -243.5l-72 -360q-19 -97 -10 -164zM586 213q24 -6 51 -6 q113 0 186 86t105 244l71 360q20 110 9 174z" />
<glyph horiz-adv-x="1196" d="M133 137l146 185q186 -109 342 -109q143 0 213.5 64t70.5 155q0 49 -24 86t-63.5 58.5t-90 43t-103 37.5t-103 43t-90 59.5t-63.5 87t-24 124.5q0 217 110.5 337.5t325.5 137.5l29 145h201l-31 -153q187 -30 307 -125l-149 -191q-83 50 -154 74.5t-149 24.5 q-67 0 -115.5 -18.5t-72.5 -48.5t-34 -60.5t-10 -63.5q0 -46 31 -79t81 -55t110 -42.5t120.5 -48t110.5 -65t81 -101t31 -147.5q0 -222 -121 -353t-348 -151l-34 -183h-201l35 185q-207 23 -365 147z" />
<glyph horiz-adv-x="1196" d="M129 0l37 190q72 34 114 59t82.5 63.5t58 89t17.5 118.5q0 39 -4 109h-219l35 180l168 25q-2 25 -2 96q0 140 44 243.5t122.5 162.5t175 86.5t213.5 27.5t231.5 -36t173.5 -83l-135 -186q-143 76 -291 76q-38 0 -73 -6t-75.5 -26t-69.5 -52.5t-48.5 -90.5t-19.5 -135 q0 -57 2 -75h467l-39 -207h-416q0 -10 1 -41t1 -41q0 -209 -166 -318l2 -8h631l-43 -221h-975z" />
<glyph horiz-adv-x="1196" d="M231 248l35 182h283l20 105h-282l37 182h196l-209 717h269l155 -643h8l408 643h285l-488 -717h201l-37 -182h-285l-20 -105h285l-35 -182h-285l-47 -248h-258l47 248h-283z" />
<glyph horiz-adv-x="1196" d="M162 496l33 168h106l21 104h-107l33 168h106l6 29q48 230 190.5 357.5t387.5 127.5q223 0 410 -119l-123 -188q-156 78 -307 78q-248 0 -306 -267l-4 -18h363l-33 -168h-363l-20 -104h363l-33 -168h-363l-2 -15q-21 -132 26 -199t175 -67q145 0 336 80l57 -184 q-223 -125 -442 -125q-243 0 -345 129.5t-63 355.5l4 25h-106z" />
<glyph horiz-adv-x="563" d="M336 1016l119 418h241l-188 -418h-172z" />
</font>
</defs>
</svg>
