<?xml version="1.0" standalone="no"?>
<!DOCTYPE svg PUBLIC "-//W3C//DTD SVG 1.1//EN" "http://www.w3.org/Graphics/SVG/1.1/DTD/svg11.dtd" >
<svg xmlns="http://www.w3.org/2000/svg" xmlns:xlink="http://www.w3.org/1999/xlink" version="1.1">
<metadata></metadata>
<defs>
<font id="nowaylight_italic" horiz-adv-x="1107" >
<font-face units-per-em="2048" ascent="1536" descent="-512" />
<missing-glyph horiz-adv-x="559" />
<glyph unicode="&#x2e;&#x2e;&#x2e;" horiz-adv-x="1404" d="M137 0l31 154h143l-30 -154h-144zM631 0l31 154h143l-31 -154h-143zM1126 0l31 154h143l-30 -154h-144z" />
<glyph unicode="&#xd;" horiz-adv-x="534" />
<glyph unicode=" "  horiz-adv-x="559" />
<glyph unicode="&#x09;" horiz-adv-x="559" />
<glyph unicode="&#xa0;" horiz-adv-x="559" />
<glyph unicode="!" horiz-adv-x="428" d="M143 0l31 154h143l-30 -154h-144zM244 350l192 1084h111l-230 -1084h-73z" />
<glyph unicode="&#x22;" horiz-adv-x="614" d="M322 950l84 484h102l-105 -484h-81zM580 950l84 484h102l-104 -484h-82z" />
<glyph unicode="#" horiz-adv-x="1040" d="M135 504l35 82h213l100 268h-221l35 82h219l119 313h84l-119 -313h277l118 313h84l-118 -313h223l-35 -82h-221l-101 -268h230l-35 -82h-225l-119 -316h-84l119 316h-277l-119 -316h-84l119 316h-217zM467 586h276l101 268h-277z" />
<glyph unicode="$" horiz-adv-x="1040" d="M117 117l61 84q71 -50 164 -83.5t188 -33.5q93 0 165.5 21.5t116 55t71.5 80.5t38.5 92.5t10.5 96.5q0 62 -26 109.5t-68 76.5t-96 55.5t-110 45.5t-110 47t-96 60t-68 85t-26 121q0 112 34.5 194t96.5 129t137 70t166 25l31 143h82l-31 -143q180 -15 319 -123l-57 -88 q-140 113 -322 113q-183 0 -268.5 -84.5t-85.5 -223.5q0 -61 33.5 -106.5t86.5 -74t117.5 -53t129 -53.5t117.5 -66t86.5 -99t33.5 -144q0 -68 -13 -128.5t-46.5 -120t-85 -103.5t-135.5 -73.5t-191 -34.5l-37 -181h-81l34 181q-108 6 -206 44t-160 87z" />
<glyph unicode="%" horiz-adv-x="1550" d="M299 975l37 190q28 145 103 215t202 70q129 0 184.5 -71.5t28.5 -213.5l-37 -190q-28 -145 -102.5 -215t-200.5 -70q-130 0 -186 71.5t-29 213.5zM383.5 879.5q2.5 -50.5 35.5 -77t101 -26.5q98 0 144 54t69 174l27 133q23 120 -2 173.5t-123 53.5q-99 0 -144.5 -54 t-68.5 -173l-27 -133q-14 -74 -11.5 -124.5zM424 -59l876 1552h101l-877 -1552h-100zM971 268l37 191q28 145 102.5 214.5t202.5 69.5q129 0 184.5 -71t28.5 -213l-37 -191q-28 -145 -102.5 -214.5t-200.5 -69.5q-130 0 -186 71t-29 213zM1055.5 172.5q2.5 -50.5 35.5 -76.5 t101 -26q98 0 144 53.5t69 173.5l27 133q23 120 -2 173.5t-123 53.5q-99 0 -145.5 -54.5t-69.5 -172.5l-25 -133q-14 -74 -11.5 -124.5z" />
<glyph unicode="&#x26;" horiz-adv-x="1243" d="M164 315q0 163 86 276.5t289 176.5l-60 88q-69 101 -69 221q0 170 116.5 271.5t300.5 101.5q194 0 330 -102l-49 -82q-127 86 -289 86q-130 0 -217.5 -70t-87.5 -192q0 -108 70 -211l383 -560q60 78 120 201t89 228h102q-84 -305 -254 -506l166 -242h-125l-109 160 q-95 -90 -192.5 -133t-251.5 -43q-157 0 -252.5 90.5t-95.5 240.5zM270 313q0 -115 66.5 -175t189.5 -60q125 0 212.5 42.5t160.5 117.5l-305 450q-324 -81 -324 -375z" />
<glyph unicode="'" horiz-adv-x="356" d="M322 950l84 484h102l-105 -484h-81z" />
<glyph unicode="(" horiz-adv-x="616" d="M213 416q0 138 26.5 270t86 274.5t166 290.5t256.5 293l67 -47q-174 -167 -288 -359.5t-161 -369t-47 -354.5q0 -167 40.5 -338.5t123.5 -298.5l-77 -47q-95 148 -144 331t-49 355z" />
<glyph unicode=")" horiz-adv-x="616" d="M45 -223q257 247 377.5 528t120.5 555q0 167 -40.5 338.5t-123.5 298.5l72 47q96 -149 147 -332t51 -354q0 -607 -538 -1128z" />
<glyph unicode="*" horiz-adv-x="847" d="M326 1243l53 98l252 -120l43 315h98l-80 -315l297 120l17 -98l-312 -84l170 -248l-94 -61l-129 270l-231 -270l-70 61l264 248z" />
<glyph unicode="+" horiz-adv-x="960" d="M129 559l18 92h414l82 428h92l-82 -428h414l-18 -92h-414l-82 -426h-92l82 426h-414z" />
<glyph unicode="," horiz-adv-x="417" d="M70 -223q104 100 129 223h-62l31 154h143l-28 -150q-11 -60 -55 -134t-107 -136z" />
<glyph unicode="-" horiz-adv-x="669" d="M197 586l18 90h504l-19 -90h-503z" />
<glyph unicode="." horiz-adv-x="417" d="M137 0l31 154h143l-30 -154h-144z" />
<glyph unicode="/" horiz-adv-x="571" d="M-55 -162l864 1757h100l-864 -1757h-100z" />
<glyph unicode="0" horiz-adv-x="1105" d="M203.5 339q0.5 78 15.5 165l84 428q22 112 61 202t100.5 163t153 113t205.5 40q89 0 157.5 -26.5t109.5 -73.5t64.5 -112.5t23.5 -142.5t-15 -163l-84 -428q-22 -113 -62 -204t-101.5 -163.5t-152 -112.5t-204.5 -40q-90 0 -158.5 26.5t-109.5 73.5t-64.5 112t-23 143z M310 343q4 -78 28.5 -135.5t83 -90.5t147.5 -33q325 0 408 428l80 410q82 428 -242 428q-92 0 -163 -32t-119 -91.5t-78 -134t-49 -170.5l-80 -410q-20 -91 -16 -169z" />
<glyph unicode="1" horiz-adv-x="972" d="M152 0l18 96h375l239 1227l-442 -166l-16 84l499 193h84l-260 -1338h279l-19 -96h-757z" />
<glyph unicode="2" horiz-adv-x="1026" d="M113 0l24 129q15 81 72.5 162t136.5 149.5t171 137.5t181 135.5t161.5 131.5t117.5 138.5t45 144.5q0 224 -279 224q-159 0 -340 -111l-49 78q209 131 410 131q168 0 266 -80t98 -223q0 -89 -45.5 -176t-119.5 -158.5t-163.5 -141t-182 -136t-171 -130.5t-134.5 -136 t-68 -142l-4 -25h692l-21 -102h-798z" />
<glyph unicode="3" horiz-adv-x="1030" d="M104 109l60 75q159 -102 325 -102q208 0 314 102.5t106 280.5q0 108 -70.5 167.5t-207.5 59.5h-172l18 94h172q147 0 244.5 88t97.5 246q0 109 -63 170.5t-195 61.5q-165 0 -330 -97l-41 80q191 115 392 115q173 0 259.5 -82t86.5 -223q0 -157 -72 -260t-194 -148 q82 -26 129 -97t47 -165q0 -55 -10.5 -108.5t-33 -110.5t-64 -104.5t-98.5 -86t-142 -60t-189 -21.5q-206 0 -369 125z" />
<glyph unicode="4" horiz-adv-x="1126" d="M162 336l16 88l639 1010h107l-629 -1002h500l90 461h104l-90 -461h227l-18 -96h-227l-66 -336h-104l65 336h-614z" />
<glyph unicode="5" horiz-adv-x="1060" d="M131 109l55 75q159 -102 326 -102q107 0 188 34t125 82t71.5 111.5t35.5 111.5t8 93q0 122 -71 197t-212 75q-84 0 -154.5 -21.5t-148.5 -64.5l-55 41l176 693h668l-21 -103h-579l-133 -512q128 66 270 66q181 0 271.5 -96t90.5 -254q0 -74 -14.5 -145t-53.5 -146.5 t-98 -131.5t-157 -92t-223 -36q-108 0 -204.5 37t-160.5 88z" />
<glyph unicode="6" horiz-adv-x="1112" d="M207 457l84 436q52 273 198 415t369 142q186 0 342 -107l-53 -81q-77 44 -146 66t-157 22q-168 0 -286.5 -110t-158.5 -322l-30 -164q67 65 164 113t212 48q170 0 259.5 -101t89.5 -255q0 -117 -32 -219t-94.5 -182.5t-166.5 -127t-238 -46.5q-209 0 -303.5 130 t-52.5 343zM311 457q-35 -175 30 -275t230 -100q139 0 234 60t138.5 162t43.5 241q0 131 -68.5 204.5t-203.5 73.5q-107 0 -201.5 -51t-165.5 -129z" />
<glyph unicode="7" horiz-adv-x="1075" d="M272 0l840 1333h-750l19 101h868l-16 -80l-840 -1354h-121z" />
<glyph unicode="8" horiz-adv-x="1110" d="M162 299q0 91 30 164.5t86.5 128t128.5 94t166 70.5q-37 19 -64.5 35.5t-61 44t-55 56.5t-36 69.5t-14.5 85.5q0 175 132 289t364 114q170 0 264 -82.5t94 -212.5q0 -50 -13 -95t-32 -78.5t-51 -66t-60 -54t-70 -45t-69.5 -36.5t-69.5 -32q261 -100 261 -314 q0 -207 -141 -328.5t-398 -121.5q-178 0 -284.5 83.5t-106.5 231.5zM266 317q0 -115 80 -176t225 -61q191 0 304.5 91.5t113.5 254.5q0 100 -71 167.5t-226 108.5q-229 -57 -327.5 -150.5t-98.5 -234.5zM446 1053q0 -44 17.5 -82t40.5 -63t64 -51t68.5 -39t72.5 -32 q39 14 56 20.5t56 22.5t59 27t53 30.5t51.5 36.5t41.5 42t35 50.5t20.5 58t8.5 67.5q0 98 -68 155.5t-203 57.5q-179 0 -276 -85.5t-97 -215.5z" />
<glyph unicode="9" horiz-adv-x="1112" d="M195 90l55 82q133 -88 295 -88q166 0 283 109.5t159 322.5l33 164q-68 -66 -164 -114t-211 -48q-173 0 -260.5 96t-87.5 260q0 94 18.5 177.5t60.5 157t103.5 126.5t152 84t202.5 31q140 0 229 -64t117 -169.5t2 -239.5l-84 -436q-54 -275 -199 -416t-367 -141 q-183 0 -337 106zM403 889q0 -131 68 -205t203 -74q107 0 202 51.5t164 129.5l37 186q35 175 -29.5 275t-228.5 100q-139 0 -234 -60t-138.5 -162t-43.5 -241z" />
<glyph unicode=":" horiz-adv-x="417" d="M137 0l31 154h143l-30 -154h-144zM311 899l31 154h143l-30 -154h-144z" />
<glyph unicode=";" horiz-adv-x="417" d="M70 -223q104 100 129 223h-62l31 154h143l-30 -154q-11 -60 -54 -132t-106 -134zM313 899l29 154h143l-28 -154h-144z" />
<glyph unicode="&#x3c;" horiz-adv-x="987" d="M213 571l12 66l865 432l-21 -106l-731 -361l592 -360l-21 -103z" />
<glyph unicode="=" horiz-adv-x="958" d="M90 360l19 93h919l-18 -93h-920zM170 770l18 92h920l-18 -92h-920z" />
<glyph unicode="&#x3e;" horiz-adv-x="987" d="M129 139l21 109l731 360l-592 361l20 100l697 -432l-13 -66z" />
<glyph unicode="?" horiz-adv-x="972" d="M315 0l31 154h143l-30 -154h-144zM328 1329q194 121 411 121q172 0 265.5 -75.5t93.5 -205.5q0 -85 -29 -153.5t-76 -115t-104.5 -85.5t-117.5 -73.5t-111.5 -70t-90 -85t-49.5 -109.5l-26 -139h-97l29 149q13 69 51.5 126t89.5 96t109 74.5t113.5 71t101 75.5t73 98 t27.5 129q0 99 -70.5 149t-199.5 50q-166 0 -352 -103z" />
<glyph unicode="@" horiz-adv-x="1540" d="M209 403q0 149 27 280.5t89.5 249.5t156 202t233.5 133t315 49q252 0 394.5 -138.5t142.5 -371.5q0 -96 -12 -179.5t-40.5 -158.5t-70.5 -128.5t-105.5 -84.5t-142.5 -31q-76 0 -119.5 24t-60.5 79h-8q-94 -97 -232 -97q-114 0 -158.5 70t-19.5 199l37 190 q53 275 274 275q64 0 114.5 -25t72.5 -59l22 73h78l-96 -497q-17 -86 12.5 -117t97.5 -31q72 0 125.5 46t81.5 121t40.5 153.5t12.5 161.5q0 436 -458 436q-154 0 -276 -44.5t-201.5 -120t-131.5 -180.5t-74 -219.5t-22 -244.5q0 -235 123.5 -348t384.5 -113q230 0 471 109 l25 -70q-77 -45 -226 -87t-290 -42q-288 0 -437 134.5t-149 401.5zM690 512q-20 -104 3 -153.5t112 -49.5q56 0 108 24.5t86 61.5l78 398q-49 86 -162 86q-89 0 -130.5 -49t-61.5 -154z" />
<glyph unicode="A" horiz-adv-x="1175" d="M66 0l755 1434h90l199 -1434h-106l-56 418h-549l-219 -418h-114zM444 514h496l-96 756h-8z" />
<glyph unicode="B" horiz-adv-x="1142" d="M199 0l278 1434h402q165 0 246 -77.5t81 -203.5q0 -147 -77.5 -257.5t-192.5 -147.5q87 -22 138.5 -91.5t51.5 -175.5q0 -63 -12 -123t-46 -127t-87.5 -116.5t-145 -82t-210.5 -32.5h-426zM322 96h299q397 0 397 371q0 231 -283 231h-297zM457 791h286q154 0 254.5 90.5 t100.5 255.5q0 200 -232 200h-303z" />
<glyph unicode="C" d="M240 465l96 504q43 227 175.5 354t360.5 127q281 0 365 -270l-92 -47q-33 112 -99.5 164.5t-183.5 52.5q-183 0 -285 -102.5t-139 -295.5l-92 -473q-14 -71 -13 -130q0 -101 39 -165q63 -102 246 -102q114 0 203 55t164 162l80 -45q-39 -56 -77.5 -98t-95 -84.5 t-130.5 -65t-162 -22.5q-220 0 -311 129q-62 88 -62 221q0 61 13 131z" />
<glyph unicode="D" horiz-adv-x="1257" d="M199 0l278 1434h393q204 0 314 -133t110 -367q0 -275 -78 -485t-230.5 -329.5t-360.5 -119.5h-426zM322 96h274q102 0 187.5 31t145 81.5t106 121t74.5 144t46 155t24.5 150t6.5 134.5q0 94 -19 169.5t-59.5 133.5t-108.5 89.5t-161 31.5h-275z" />
<glyph unicode="E" horiz-adv-x="1030" d="M199 0l278 1434h707l-19 -97h-602l-106 -549h563l-19 -96h-563l-116 -596h602l-19 -96h-706z" />
<glyph unicode="F" horiz-adv-x="1015" d="M199 0l278 1434h703l-19 -97h-598l-110 -569h559l-19 -96h-559l-131 -672h-104z" />
<glyph unicode="G" horiz-adv-x="1183" d="M240 465l96 504q43 227 175.5 354t360.5 127q70 0 127.5 -17t94 -43t65.5 -64t44 -71.5t28 -74.5l-86 -47q-33 112 -99.5 164.5t-183.5 52.5q-183 0 -285 -102.5t-139 -295.5l-92 -473q-14 -71 -14 -130q0 -100 40 -165q63 -102 246 -102q136 0 226.5 49t142.5 115 l76 395h-303l18 96h402l-97 -501q-17 -28 -38 -55t-64 -65t-93 -65.5t-126 -47t-162 -19.5q-220 0 -311 129q-62 88 -62 221q0 61 13 131z" />
<glyph unicode="H" horiz-adv-x="1304" d="M199 0l278 1434h105l-125 -639h698l125 639h104l-278 -1434h-105l136 698h-699l-135 -698h-104z" />
<glyph unicode="I" horiz-adv-x="501" d="M199 0l278 1434h105l-279 -1434h-104z" />
<glyph unicode="J" horiz-adv-x="743" d="M72 2l34 94q58 -14 107 -14q62 0 110 17.5t79.5 46t55.5 76t38 95.5t28 117l195 1000h104l-190 -979q-17 -88 -36 -152t-52.5 -127.5t-77.5 -103t-111 -64t-153 -24.5q-65 0 -131 18z" />
<glyph unicode="K" horiz-adv-x="1110" d="M199 0l278 1434h105l-125 -646h207l520 646h119l-555 -691l284 -743h-117l-260 692h-217l-135 -692h-104z" />
<glyph unicode="L" horiz-adv-x="989" d="M199 0l278 1434h105l-260 -1338h602l-19 -96h-706z" />
<glyph unicode="M" horiz-adv-x="1499" d="M195 0l278 1434h78l291 -959l657 959h84l-278 -1434h-101l226 1159h-9l-594 -864h-41l-256 864h-8l-225 -1159h-102z" />
<glyph unicode="N" horiz-adv-x="1316" d="M195 0l278 1434h78l508 -1201h8l233 1201h101l-279 -1434h-82l-503 1200h-9l-233 -1200h-100z" />
<glyph unicode="O" horiz-adv-x="1200" d="M238 465l98 504q43 227 175 354t361 127q154 0 247 -62t121 -168q14 -54 15 -117q0 -62 -14 -134l-98 -504q-92 -481 -535 -481q-153 0 -246.5 62t-122.5 168q-15 54 -15 119q0 61 14 132zM346 481q-14 -73 -14 -132q0 -101 39 -165q62 -102 245 -102q185 0 287 102.5 t139 296.5l93 471q14 72 14 132q1 100 -39 164q-62 102 -248 102q-183 0 -285 -102.5t-139 -295.5z" />
<glyph unicode="P" horiz-adv-x="1128" d="M199 0l278 1434h352q203 0 304.5 -89t101.5 -237q0 -124 -32 -222t-98.5 -171.5t-176.5 -112.5t-258 -39h-258l-109 -563h-104zM432 659h260q434 0 434 435q0 121 -73 182t-244 61h-246z" />
<glyph unicode="Q" horiz-adv-x="1202" d="M238 465l98 504q43 227 175 354t361 127q154 0 247 -62t121 -168q15 -54 15 -117t-14 -134l-98 -504q-43 -212 -150 -330l129 -145l-71 -68l-131 150q-124 -88 -312 -88q-153 0 -246.5 62t-122.5 168q-15 55 -15 119q0 61 14 132zM346 481q-14 -73 -14 -132 q0 -100 39 -165q62 -102 245 -102q141 0 238 63l-127 148l72 63l125 -149q81 94 118 274l93 471q14 72 14 132q0 100 -39 164q-63 102 -248 102q-183 0 -285 -102.5t-139 -295.5z" />
<glyph unicode="R" horiz-adv-x="1169" d="M199 0l278 1434h359q201 0 302 -88t101 -232q0 -218 -95 -339t-280 -165l201 -610h-117l-194 594h-336l-115 -594h-104zM438 690h258q105 0 183.5 22t126 58t76 90.5t38.5 110.5t10 127q0 121 -75.5 180t-243.5 59h-248z" />
<glyph unicode="S" horiz-adv-x="1040" d="M117 117l61 84q71 -50 164 -83.5t188 -33.5q93 0 165.5 21.5t116 55t71.5 80.5t38.5 92.5t10.5 96.5q0 62 -26 109.5t-68 76.5t-96 55.5t-110 45.5t-110 47t-96 60t-68 85t-26 121q0 94 25.5 167.5t68 120.5t103 77t126 42.5t142.5 12.5q209 0 370 -125l-57 -88 q-140 113 -322 113q-183 0 -268.5 -84.5t-85.5 -223.5q0 -61 33.5 -106.5t86.5 -74t117.5 -53t129 -53.5t117.5 -66t86.5 -99t33.5 -144q0 -71 -14 -133.5t-51 -124t-94 -105.5t-150 -71.5t-213 -27.5q-117 0 -224 40t-175 93z" />
<glyph unicode="T" horiz-adv-x="1075" d="M344 1337l18 97h908l-19 -97h-401l-260 -1337h-105l260 1337h-401z" />
<glyph unicode="U" horiz-adv-x="1241" d="M258 438l193 996h106l-190 -979q-14 -69 -13 -125q0 -94 37 -154q60 -94 246 -94t282 94.5t132 278.5l190 979h102l-192 -996q-43 -226 -168 -340t-362 -114q-216 0 -310 118q-65 83 -65 213q0 57 12 123z" />
<glyph unicode="V" horiz-adv-x="1130" d="M342 1434h109l131 -1303h8l639 1303h117l-717 -1434h-129z" />
<glyph unicode="W" horiz-adv-x="1683" d="M342 1434h109l49 -1297h8l555 1297h106l52 -1297h8l553 1297h116l-628 -1434h-135l-54 1217h-8l-524 -1217h-135z" />
<glyph unicode="X" horiz-adv-x="1007" d="M53 0l533 739l-230 695h115l186 -594h9l417 594h125l-501 -695l245 -739h-110l-207 637h-8l-453 -637h-121z" />
<glyph unicode="Y" horiz-adv-x="1120" d="M338 1434h111l233 -762h8l527 762h124l-620 -871l-109 -563h-104l108 563z" />
<glyph unicode="Z" horiz-adv-x="1042" d="M115 0l16 80l932 1259h-660l19 95h786l-14 -78l-934 -1262h688l-18 -94h-815z" />
<glyph unicode="[" horiz-adv-x="624" d="M133 -238l340 1749h344l-18 -92h-246l-303 -1564h246l-19 -93h-344z" />
<glyph unicode="\" horiz-adv-x="571" d="M285 1595h100l180 -1757h-100z" />
<glyph unicode="]" horiz-adv-x="624" d="M53 -238l19 93h245l304 1564h-246l18 92h344l-340 -1749h-344z" />
<glyph unicode="^" horiz-adv-x="989" d="M182 750l576 786h69l269 -786h-103l-219 667l-483 -667h-109z" />
<glyph unicode="_" horiz-adv-x="1046" d="M39 -162l16 80h906l-17 -80h-905z" />
<glyph unicode="`" horiz-adv-x="798" d="M594 1599h111l55 -331h-74z" />
<glyph unicode="a" horiz-adv-x="1087" d="M195 399l63 324q39 200 149.5 308t288.5 108q106 0 179.5 -44.5t113.5 -105.5l47 131h78l-160 -825q-14 -82 -14 -130q0 -25 4 -41q12 -46 53 -46q43 0 88 20l2 -69q-53 -35 -122 -35q-52 0 -92 32.5t-44 102.5q-68 -63 -149.5 -104t-196.5 -41q-176 0 -251 109 q-50 72 -50 183q0 57 13 123zM297 410q-13 -67 -13 -120q0 -82 30 -132q50 -82 202 -82q94 0 183 51t145 115l129 659q-101 146 -268 146q-151 0 -233.5 -83t-115.5 -251z" />
<glyph unicode="b" horiz-adv-x="1071" d="M176 0l299 1536h100l-106 -547q63 61 153.5 105.5t196.5 44.5q176 0 246 -113q46 -74 46 -181q0 -56 -13 -122l-64 -324q-39 -200 -150 -307.5t-290 -107.5q-106 0 -180 44.5t-115 104.5l-45 -133h-78zM319 221q97 -145 267 -145q151 0 234 82.5t116 251.5l59 303 q13 65 13 118q0 83 -32 133q-52 84 -202 83q-163 0 -321 -146z" />
<glyph unicode="c" horiz-adv-x="913" d="M197 412l57 297q40 208 151.5 319t313.5 111q209 0 307 -172l-80 -54q-35 67 -91 100.5t-144 33.5q-87 0 -149.5 -25.5t-104.5 -79t-67.5 -122.5t-45.5 -169l-45 -229q-14 -70 -14 -125q-1 -81 29 -133q50 -88 208 -88q172 0 289 127l63 -56q-74 -85 -163.5 -124 t-206.5 -39q-199 0 -273 112q-48 73 -48 184q0 60 14 132z" />
<glyph unicode="d" horiz-adv-x="1087" d="M195 399l63 324q39 200 149.5 308t288.5 108q106 0 179.5 -44.5t113.5 -105.5l107 547h100l-242 -1241q-15 -73 -15 -121q0 -96 58 -96q43 0 88 20l2 -69q-53 -35 -122 -35q-54 0 -93.5 33t-42.5 106q-161 -149 -358 -149q-179 0 -247 108q-44 68 -43 174q0 60 14 133z M297 410q-13 -67 -13 -120q0 -82 30 -132q50 -82 202 -82q170 0 328 166l129 659q-101 146 -268 146q-151 0 -233.5 -83t-115.5 -251z" />
<glyph unicode="e" horiz-adv-x="993" d="M195 393l59 316q39 207 151.5 318.5t317.5 111.5q193 0 267 -113q48 -74 48 -186q0 -60 -14 -131l-37 -187h-670l-26 -141q-11 -48 -11 -91q0 -16 2 -31q6 -56 28.5 -96.5t76.5 -63.5t137 -23q87 0 177.5 28t152.5 68l29 -76q-176 -112 -375 -112q-326 0 -326 284 q0 57 13 125zM336 608h571l19 90q15 72 15 129q0 80 -29 132q-49 88 -205 88q-154 0 -237.5 -88.5t-117.5 -260.5z" />
<glyph unicode="f" horiz-adv-x="718" d="M178 -414l283 1446h-195l15 78l196 10l17 86q65 336 346 336q84 0 143 -35l-43 -80q-48 23 -109 23q-103 0 -158 -58.5t-75 -164.5l-20 -107h294l-16 -88h-295l-282 -1446h-101z" />
<glyph unicode="g" horiz-adv-x="1050" d="M106 -326l56 72q73 -44 133 -64t156 -20q276 0 337 301l35 170q-33 -31 -60 -52t-69.5 -46t-94.5 -38t-112 -13q-183 0 -257 108q-48 71 -48 180q0 58 13 127l63 324q81 416 438 416q106 0 181 -45t116 -105l43 131h78l-215 -1104q-15 -79 -36.5 -142t-58 -121.5 t-86 -97.5t-122.5 -62t-164 -23q-99 0 -188 31.5t-138 72.5zM297 410q-13 -66 -13 -120q0 -81 30 -131q51 -83 202 -83q167 0 324 145l131 680q-94 146 -266 146q-151 0 -233.5 -82.5t-115.5 -251.5z" />
<glyph unicode="h" horiz-adv-x="1122" d="M176 0l299 1536h100l-108 -559q44 37 93.5 69t133.5 62.5t164 30.5q75 0 128 -21t82 -56q29 -34 41 -86q10 -44 10 -92v-16q-2 -56 -15 -123l-146 -745h-100l148 762q10 52 10 94q0 74 -30 116q-48 68 -181 68q-93 0 -187 -45t-167 -104l-175 -891h-100z" />
<glyph unicode="i" horiz-adv-x="561" d="M260 1032l14 88h306l-174 -882q-8 -51 -10 -82.5t8.5 -49t23.5 -23t33 -5.5q43 0 88 20l2 -69q-53 -35 -123 -35q-25 0 -46 6.5t-41.5 22.5t-30.5 43.5t-13 69.5q-1 8 -1 16q0 37 11 84l154 796h-201zM506 1339l29 144h135l-29 -144h-135z" />
<glyph unicode="j" horiz-adv-x="530" d="M-133 -393l39 82q65 -19 108 -19q185 0 228 224l219 1138h-201l14 88h306l-234 -1206q-16 -83 -41 -143t-65.5 -104.5t-99.5 -66.5t-138 -22q-82 0 -135 29zM506 1339l29 144h135l-29 -144h-135z" />
<glyph unicode="k" horiz-adv-x="978" d="M176 0l299 1536h100l-172 -887h209l404 471h114l-436 -508l156 -442q19 -53 40 -72.5t52 -19.5q29 0 74 20l2 -69q-39 -35 -107 -35q-60 0 -92.5 35t-58.5 108l-152 424h-223l-109 -561h-100z" />
<glyph unicode="l" horiz-adv-x="464" d="M223 225l252 1311h100l-249 -1274q-12 -60 -14 -98t7.5 -56t22.5 -24t35 -6q43 0 88 20l2 -69q-53 -35 -123 -35q-130 0 -130 144q0 38 9 87z" />
<glyph unicode="m" horiz-adv-x="1746" d="M174 0l217 1120h78l-14 -151q30 26 65 50.5t88 54t117.5 47.5t128.5 18q200 0 233 -170q43 36 96.5 70t144 67t173.5 33q243 0 243 -252q0 -63 -15 -142l-146 -745h-100l147 762q11 58 11 103q-1 67 -25 107q-42 68 -168 68q-162 0 -350 -147q-3 -78 -17 -148l-145 -745 h-100l147 762q11 58 11 103q0 67 -24 107q-42 68 -169 68q-166 0 -352 -149l-175 -891h-100z" />
<glyph unicode="n" horiz-adv-x="1116" d="M174 0l217 1120h78l-14 -151q30 26 65 50.5t88 54t117.5 47.5t128.5 18q75 0 128 -21t81.5 -56t40.5 -87q10 -43 9 -88q1 -9 1 -19q-2 -55 -16 -123l-146 -745h-100l147 762q10 53 10 95q0 71 -29 115q-47 68 -179 68q-166 0 -352 -149l-175 -891h-100z" />
<glyph unicode="o" horiz-adv-x="1013" d="M197 412l57 297q40 208 151 319t314 111t279 -112q50 -73 50 -187q0 -60 -14 -131l-57 -297q-41 -210 -149 -319t-314 -109q-200 0 -278 112q-52 75 -52 190q0 58 13 126zM299 422q-14 -70 -14 -125q-1 -81 29 -133q50 -88 208 -88q86 0 148.5 25.5t104.5 79t68.5 122 t45.5 166.5l45 229q14 70 14 127q0 82 -30 134q-50 88 -207 88q-87 0 -149.5 -25.5t-104.5 -79t-67.5 -122.5t-45.5 -169z" />
<glyph unicode="p" horiz-adv-x="1071" d="M94 -414l299 1534h78l-8 -131q65 60 156.5 105t197.5 45q172 0 245 -109q47 -72 47 -182q0 -57 -13 -125l-64 -324q-39 -200 -149.5 -307.5t-288.5 -107.5q-106 0 -180 44.5t-113 104.5l-106 -547h-101zM317 221q100 -145 267 -145q151 0 234 83t116 251l59 303 q13 64 13 116q0 83 -32 135q-53 83 -200 83q-169 0 -323 -146z" />
<glyph unicode="q" horiz-adv-x="1067" d="M195 399l63 324q39 200 149.5 308t288.5 108q106 0 181 -45t116 -105l43 131h78l-297 -1534h-100l106 547q-158 -149 -338 -149t-255 108q-48 72 -48 181q0 58 13 126zM297 410q-13 -66 -13 -120q0 -81 30 -131q51 -83 202 -83q167 0 324 145l133 680q-98 146 -268 146 q-151 0 -233.5 -82.5t-115.5 -251.5z" />
<glyph unicode="r" horiz-adv-x="735" d="M174 0l217 1120h78l-20 -180q29 32 65 63t86.5 63.5t114 52.5t127.5 20q41 0 82 -13l-37 -104q-44 12 -84 12q-103 0 -204.5 -56.5t-158.5 -125.5l-166 -852h-100z" />
<glyph unicode="s" horiz-adv-x="872" d="M96 86l56 76q147 -90 290 -90q89 0 155 22t102 61t52.5 84t16.5 99q0 55 -27.5 96t-72 65.5t-98 44.5t-107 41.5t-98 48.5t-72 72.5t-27.5 106.5q0 154 102.5 240t286.5 86q96 0 173.5 -26.5t125.5 -65.5l-45 -74q-116 78 -256 78q-149 0 -218.5 -63.5t-69.5 -162.5 q0 -48 27.5 -83.5t72 -58t98 -42t106.5 -42.5t97.5 -52t72 -77.5t27.5 -113.5q0 -79 -22 -143.5t-69.5 -117.5t-133.5 -82t-205 -29q-97 0 -189.5 31t-150.5 71z" />
<glyph unicode="t" horiz-adv-x="768" d="M260 1032l14 76l203 12l45 232l105 14l-49 -246h303l-17 -88h-303l-143 -737q-10 -50 -10 -87q0 -48 16 -74q29 -48 131 -48q55 0 137 20l10 -77q-28 -15 -73.5 -25t-85.5 -10q-145 0 -199 74q-34 46 -34 129q0 50 12 114l139 721h-201z" />
<glyph unicode="u" d="M233 348l150 772h100l-147 -762q-10 -52 -10 -95q0 -73 30 -115q48 -68 179 -68q166 0 352 149l174 891h100l-217 -1120h-78l15 152q-30 -27 -46.5 -40t-59 -42t-78.5 -45t-90 -29.5t-109 -13.5q-172 0 -235 98q-41 65 -41 160q0 50 11 108z" />
<glyph unicode="v" horiz-adv-x="954" d="M270 1120h103l119 -1001h8l508 1001h110l-583 -1120h-115q-3 6 -150 1120z" />
<glyph unicode="w" horiz-adv-x="1429" d="M276 1120h99l63 -1005h8l437 1005h86l55 -1005h8l449 1005h106l-518 -1120h-123l-53 903h-8l-402 -903h-123z" />
<glyph unicode="x" horiz-adv-x="909" d="M59 0l451 573l-213 547h104l170 -463h9l354 463h117l-430 -547l227 -573h-105l-182 494h-8l-379 -494h-115z" />
<glyph unicode="y" d="M154 -326l55 72q73 -44 133 -64t156 -20q277 0 338 301l38 182q-36 -31 -63 -51t-77.5 -50t-110.5 -46t-125 -16q-172 0 -235 98q-41 65 -41 160q0 50 11 108l150 772h100l-147 -762q-10 -52 -10 -95q0 -71 30 -115q47 -68 179 -68q166 0 352 149l174 891h100l-215 -1104 q-15 -79 -36.5 -142t-58 -121.5t-86 -97.5t-122.5 -62t-164 -23q-99 0 -187.5 31.5t-137.5 72.5z" />
<glyph unicode="z" horiz-adv-x="944" d="M98 0l17 84l807 948h-600l16 88h721l-15 -78l-804 -950h634l-18 -92h-758z" />
<glyph unicode="{" horiz-adv-x="739" d="M207 590l18 94h45q74 0 118.5 56.5t66.5 168.5l69 357q24 128 87.5 186.5t172.5 58.5h93l-17 -92h-92q-114 0 -141 -139l-66 -346q-26 -132 -70.5 -200.5t-128.5 -92.5l-2 -8q74 -24 92.5 -95t-8.5 -198l-67 -346q-27 -139 86 -139h92l-18 -93h-93q-99 0 -143 60.5 t-20 185.5l69 357q24 109 0.5 167t-98.5 58h-45z" />
<glyph unicode="|" horiz-adv-x="450" d="M127 -238l352 1809h101l-353 -1809h-100z" />
<glyph unicode="}" horiz-adv-x="739" d="M106 -238l19 93h92q112 0 139 139l68 346q26 132 70.5 200.5t128.5 92.5v8q-74 24 -92.5 95t8.5 198l67 346q27 139 -86 139h-92l18 92h93q100 0 145 -60.5t21 -184.5l-70 -357q-24 -109 -1 -167t97 -58h45l-16 -94h-45q-75 0 -120 -56.5t-67 -168.5l-69 -357 q-47 -246 -260 -246h-93z" />
<glyph unicode="&#xa1;" horiz-adv-x="428" d="M94 -324l230 1084h73l-192 -1084h-111zM328 956l30 154h144l-31 -154h-143z" />
<glyph unicode="&#xa2;" horiz-adv-x="880" d="M207 522l74 375q37 189 134.5 285.5t284.5 103.5l29 148h84l-29 -150q126 -10 265 -104l-52 -76q-134 90 -278 90q-74 0 -130 -17t-91 -44.5t-60.5 -74.5t-39.5 -93.5t-27 -114.5l-56 -281q-9 -48 -13.5 -83.5t-5 -73.5t6.5 -64t23.5 -51t43 -39.5t66.5 -23.5t94 -9 q142 0 299 92l37 -75q-155 -97 -305 -107l-26 -135h-84l26 133q-179 9 -242.5 106t-27.5 283z" />
<glyph unicode="&#xa3;" horiz-adv-x="1099" d="M104 0l19 90q52 20 99 52t93.5 83.5t74.5 130.5t28 174q0 73 -10 168h-201l14 68l178 18q-10 98 -10 160q0 135 41.5 235.5t113.5 157t158 83t187 26.5q180 0 352 -103l-47 -81q-159 86 -307 86q-57 0 -109 -10t-105.5 -38t-92.5 -72t-63.5 -117.5t-24.5 -168.5 q0 -74 10 -156h471l-19 -88h-444q6 -117 6 -139q0 -90 -21.5 -168.5t-58.5 -134.5t-75.5 -94.5t-81.5 -65.5h729l-19 -96h-885z" />
<glyph unicode="&#xa4;" horiz-adv-x="1175" d="M164 258l194 162q-34 61 -34 168q0 125 35 207t98 147l-129 154l80 63l127 -153q97 63 260 63q138 0 225 -74l197 164l55 -63l-197 -164q37 -62 37 -168q0 -125 -34.5 -206.5t-98.5 -145.5l129 -154l-80 -63l-127 153q-100 -65 -260 -65q-140 0 -229 73l-193 -161z M428 604q0 -106 57 -165.5t174 -59.5q171 0 260 102.5t89 266.5q0 106 -57.5 165.5t-174.5 59.5q-172 0 -260 -102.5t-88 -266.5z" />
<glyph unicode="&#xa5;" horiz-adv-x="1120" d="M233 328l19 92h338l28 145h-337l16 92h289l-248 777h111l233 -764h8l531 764h120l-553 -777h289l-16 -92h-338l-29 -145h338l-18 -92h-338l-64 -328h-104l63 328h-338z" />
<glyph unicode="&#xa6;" horiz-adv-x="448" d="M127 -238l162 828h100l-162 -828h-100zM317 743l162 828h101l-162 -828h-101z" />
<glyph unicode="&#xa7;" horiz-adv-x="1007" d="M61 -322l56 86q151 -90 319 -90t257 75t89 212q0 49 -20 87t-54 63.5t-78.5 46.5t-93 38.5t-97.5 36t-93.5 43.5t-78.5 56.5t-54 78.5t-20 107q0 198 186 338q-66 66 -66 184q0 195 122 302.5t351 107.5q212 0 359 -100l-49 -86q-153 88 -328 88q-169 0 -258.5 -75.5 t-89.5 -211.5q0 -49 20.5 -87t54.5 -63.5t78.5 -46.5t93.5 -38.5t98 -36t93.5 -44t78.5 -57t54.5 -79t20.5 -107.5q0 -196 -187 -336q64 -67 64 -184q0 -194 -120.5 -302t-342.5 -108q-204 0 -365 102zM297 541q0 -53 22 -94t56.5 -66.5t84 -48t96 -37t102 -35.5t92.5 -41 q71 42 113 112t42 152q0 63 -29 109t-82 75t-106.5 48.5t-123 44t-111.5 47.5q-70 -43 -113 -113.5t-43 -152.5z" />
<glyph unicode="&#xa8;" horiz-adv-x="833" d="M436 1331l29 144h139l-29 -144h-139zM772 1331l29 144h139l-29 -144h-139z" />
<glyph unicode="&#xa9;" horiz-adv-x="1665" d="M199 608q0 212 66.5 391.5t187 308t298 201t392.5 72.5q306 0 470.5 -167t164.5 -458q0 -211 -66.5 -390.5t-187 -308t-298 -201t-392.5 -72.5q-306 0 -470.5 166.5t-164.5 457.5zM295 623q0 -257 142.5 -402t414.5 -145q192 0 349 65t261 180t160.5 274t56.5 347 q0 257 -141.5 402t-411.5 145q-257 0 -447 -112t-287 -307t-97 -447zM649 657l45 236q65 336 363 336q181 0 246 -156l-70 -45q-25 61 -69 89t-113 28q-120 0 -181.5 -65t-87.5 -197l-41 -215q-26 -132 11 -197t157 -65q69 0 119.5 26.5t101.5 89.5l62 -45 q-124 -155 -299 -155q-145 0 -209.5 90.5t-34.5 244.5z" />
<glyph unicode="&#xaa;" horiz-adv-x="894" d="M281 961l41 213q27 135 99 205.5t200 70.5q69 0 118.5 -29.5t75.5 -70.5l31 88h59l-106 -549q-13 -82 -6.5 -103.5t36.5 -21.5q27 0 58 14l2 -63q-39 -25 -90 -25q-36 0 -66 21.5t-33 68.5q-91 -96 -221 -96q-126 0 -175.5 72t-22.5 205zM367 967q-22 -110 8.5 -159.5 t124.5 -49.5q64 0 118.5 34.5t92.5 81.5l84 402q-65 96 -179 96q-88 0 -138 -48.5t-72 -156.5z" />
<glyph unicode="&#xab;" horiz-adv-x="1105" d="M205 575l14 74l549 359l-18 -97l-412 -299l295 -311l-19 -84zM647 575l15 74l548 359l-18 -97l-412 -299l295 -311l-18 -84z" />
<glyph unicode="&#xac;" horiz-adv-x="1058" d="M143 635l19 92h1018l-109 -559h-92l90 467h-926z" />
<glyph unicode="&#xad;" horiz-adv-x="669" d="M197 586l18 90h504l-19 -90h-503z" />
<glyph unicode="&#xae;" horiz-adv-x="1060" d="M262 903q0 243 147 395t400 152q178 0 277.5 -97t99.5 -263q0 -243 -147 -394t-398 -151q-180 0 -279.5 96t-99.5 262zM328 913q0 -144 82 -226.5t237 -82.5q218 0 345.5 133.5t127.5 345.5q0 143 -82 225.5t-237 82.5q-219 0 -346 -133.5t-127 -344.5zM520 729l107 541 h151q73 0 110.5 -33.5t37.5 -97.5q0 -93 -47 -141.5t-109 -59.5l80 -209h-68l-71 203h-93l-38 -203h-60zM631 987h100q63 0 98 36t35 105q0 86 -100 86h-90z" />
<glyph unicode="&#xaf;" horiz-adv-x="718" d="M381 1401l16 88h500l-16 -88h-500z" />
<glyph unicode="&#xb0;" horiz-adv-x="634" d="M293 1200q0 122 87.5 210.5t227.5 88.5q101 0 159 -60.5t58 -152.5q0 -122 -87 -210.5t-228 -88.5q-101 0 -159 60.5t-58 152.5zM381 1212q0 -63 38 -103t105 -40q91 0 152 60t61 145q0 63 -38.5 103t-104.5 40q-91 0 -152 -60t-61 -145z" />
<glyph unicode="&#xb1;" horiz-adv-x="960" d="M33 66l18 92h920l-19 -92h-919zM154 690l18 92h414l84 428h92l-84 -428h414l-19 -92h-414l-81 -426h-93l82 426h-413z" />
<glyph unicode="&#xb2;" horiz-adv-x="837" d="M244 502l18 104q10 59 47 113t87.5 96t109.5 82t116 77t103.5 74t75 81t28.5 90q0 63 -48 98t-130 35q-101 0 -223 -76l-43 72q148 96 293 96q111 0 182.5 -59t71.5 -148q0 -60 -29.5 -115.5t-77 -99t-106 -84.5t-118 -79.5t-110 -76t-86.5 -82.5t-43 -92l-2 -14h453 l-18 -92h-551z" />
<glyph unicode="&#xb3;" horiz-adv-x="837" d="M233 569l54 72q100 -59 209 -59q131 0 196.5 58t65.5 159q0 65 -45.5 100t-118.5 35h-127l16 92h127q90 0 145.5 51t55.5 144q0 66 -45 98.5t-127 32.5q-95 0 -203 -64l-39 70q132 86 275 86q116 0 178.5 -56t62.5 -149q0 -88 -44 -158t-119 -98q53 -18 81.5 -63 t28.5 -103q0 -65 -19 -120.5t-60 -103.5t-117 -76t-179 -28q-74 0 -141.5 23.5t-110.5 56.5z" />
<glyph unicode="&#xb4;" horiz-adv-x="798" d="M532 1268l179 331h114l-219 -331h-74z" />
<glyph unicode="&#xb5;" d="M86 -414l299 1534h100l-151 -776q-26 -138 23 -201t180 -63q161 0 352 149l174 891h100l-219 -1120h-78l17 152q-204 -170 -400 -170q-142 0 -207 71l-90 -467h-100z" />
<glyph unicode="&#xb6;" horiz-adv-x="1069" d="M246 956q0 129 58.5 236.5t174 174.5t266.5 67h555l-18 -91h-131l-342 -1757h-94l342 1757h-199l-342 -1757h-94l205 1057h-64q-148 0 -232.5 84.5t-84.5 228.5z" />
<glyph unicode="&#xb7;" horiz-adv-x="417" d="M246 557l30 154h144l-31 -154h-143z" />
<glyph unicode="&#xb8;" horiz-adv-x="811" d="M158 -387l28 63q67 -22 119 -22q71 0 106 20.5t35 75.5q0 62 -86 62q-36 0 -77 -13l-37 33l73 193h80l-73 -154q41 8 73 8q57 0 92 -27.5t35 -84.5q0 -185 -223 -185q-71 0 -145 31z" />
<glyph unicode="&#xb9;" horiz-adv-x="837" d="M299 502l18 92h220l143 737l-258 -96l-25 78l322 121h80l-162 -840h166l-19 -92h-485z" />
<glyph unicode="&#xba;" horiz-adv-x="729" d="M289 971l39 192q28 141 102 214t217 73q130 0 182 -75.5t25 -211.5l-37 -192q-28 -141 -101 -214t-218 -73q-129 0 -182.5 77t-26.5 210zM375 979q-21 -107 10 -161t129 -54q54 0 93 16t64.5 49t40.5 75t27 104l29 149q21 106 -10 159.5t-127 53.5q-104 0 -153.5 -59.5 t-74.5 -184.5z" />
<glyph unicode="&#xbb;" horiz-adv-x="1105" d="M135 217l19 94l411 301l-295 310l19 86l409 -359l-14 -74zM578 217l18 94l412 301l-295 310l18 86l410 -359l-15 -74z" />
<glyph unicode="&#xbc;" horiz-adv-x="1947" d="M297 502l18 92h220l143 737l-260 -96l-17 78l316 121h80l-162 -840h166l-19 -92h-485zM672 -162l864 1757h100l-864 -1757h-100zM1204 195l17 86l415 651h101l-408 -637h307l58 295h100l-57 -295h118l-18 -100h-119l-39 -195h-100l39 195h-414z" />
<glyph unicode="&#xbd;" horiz-adv-x="1947" d="M297 502l18 92h220l143 737l-260 -96l-17 78l316 121h80l-162 -840h166l-19 -92h-485zM672 -162l864 1757h100l-864 -1757h-100zM1247 0l19 104q10 59 47 113t87.5 96t109.5 82t116 77t103.5 74t75 81t28.5 90q0 63 -48 98t-130 35q-101 0 -223 -76l-43 72q148 96 286 96 q112 0 186 -59t74 -148q0 -60 -29.5 -115.5t-77 -99t-105.5 -84.5t-117.5 -79.5t-110 -76t-86.5 -82.5t-43 -92l-2 -14h453l-19 -92h-551z" />
<glyph unicode="&#xbe;" horiz-adv-x="1947" d="M233 569l54 72q100 -59 209 -59q131 0 196.5 58t65.5 159q0 65 -45.5 100t-118.5 35h-127l16 92h127q90 0 145.5 51t55.5 144q0 66 -45 98.5t-127 32.5q-95 0 -203 -64l-39 70q132 86 275 86q116 0 178.5 -56t62.5 -149q0 -88 -44 -158t-119 -98q53 -18 81.5 -63 t28.5 -103q0 -65 -19 -120.5t-60 -103.5t-117 -76t-179 -28q-74 0 -141.5 23.5t-110.5 56.5zM664 -162l862 1757h100l-862 -1757h-100zM1202 195l19 86l413 651h101l-406 -637h307l58 295h100l-57 -295h118l-20 -100h-119l-37 -195h-100l37 195h-414z" />
<glyph unicode="&#xbf;" horiz-adv-x="972" d="M90 -59q0 85 29 153.5t76 115t104.5 85.5t117.5 73.5t111.5 70t90 85t49.5 109.5l26 139h97l-29 -149q-13 -69 -51.5 -126t-89.5 -96t-109 -74.5t-113.5 -71t-101 -75.5t-73 -98t-27.5 -129q0 -99 70.5 -149t199.5 -50q166 0 352 103l41 -76q-194 -121 -411 -121 q-172 0 -265.5 75.5t-93.5 205.5zM698 956l31 154h143l-30 -154h-144z" />
<glyph unicode="&#xc0;" horiz-adv-x="1175" d="M66 0l755 1434h90l199 -1434h-106l-56 418h-549l-219 -418h-114zM444 514h496l-96 756h-8zM778 1907h111l55 -332h-74z" />
<glyph unicode="&#xc1;" horiz-adv-x="1175" d="M66 0l755 1434h90l199 -1434h-106l-56 418h-549l-219 -418h-114zM444 514h496l-96 756h-8zM840 1575l178 332h115l-220 -332h-73z" />
<glyph unicode="&#xc2;" horiz-adv-x="1175" d="M66 0l755 1434h90l199 -1434h-106l-56 418h-549l-219 -418h-114zM444 514h496l-96 756h-8zM621 1575l286 332h103l159 -332h-75l-148 233l-237 -233h-88z" />
<glyph unicode="&#xc3;" horiz-adv-x="1175" d="M66 0l755 1434h90l199 -1434h-106l-56 418h-549l-219 -418h-114zM444 514h496l-96 756h-8zM592 1651q97 159 211 159q39 0 75 -17t59.5 -38t54.5 -38t61 -17q36 0 64.5 22t70.5 80l61 -33q-98 -157 -211 -157q-39 0 -74.5 17t-58.5 38t-53.5 38t-60.5 17q-67 0 -136 -98z " />
<glyph unicode="&#xc4;" horiz-adv-x="1175" d="M66 0l755 1434h90l199 -1434h-106l-56 418h-549l-219 -418h-114zM444 514h496l-96 756h-8zM672 1638l28 144h140l-29 -144h-139zM1008 1638l28 144h140l-29 -144h-139z" />
<glyph unicode="&#xc5;" horiz-adv-x="1175" d="M66 0l755 1434h90l199 -1434h-106l-56 418h-549l-219 -418h-114zM444 514h496l-96 756h-8zM723 1702q0 107 65 171t175 64q77 0 123.5 -42t46.5 -115q0 -108 -65 -172t-175 -64q-77 0 -123.5 42.5t-46.5 115.5zM803 1716q0 -45 26 -70.5t76 -25.5q67 0 108.5 40.5 t41.5 104.5q0 45 -27 71t-76 26q-68 0 -108.5 -41t-40.5 -105z" />
<glyph unicode="&#xc6;" horiz-adv-x="1622" d="M63 0l756 1434h957l-19 -97h-833l75 -549h613l-19 -96h-583l73 -596h435l-19 -96h-500l-55 418h-549l-219 -418h-113zM440 514h496l-96 756h-9z" />
<glyph unicode="&#xc7;" d="M240 465l96 504q43 227 175.5 354t360.5 127q70 0 127.5 -17t94 -43t65.5 -64t44 -71.5t28 -74.5l-86 -47q-33 112 -99.5 164.5t-183.5 52.5q-183 0 -285 -102.5t-139 -295.5l-92 -473q-37 -192 26 -294.5t246 -102.5q115 0 197.5 51t169.5 166l78 -45q-39 -55 -77.5 -97 t-94 -83.5t-128 -65t-157.5 -24.5l-53 -113q41 8 74 8q57 0 92 -27.5t35 -84.5q0 -185 -224 -185q-71 0 -145 31l29 63q67 -22 118 -22q71 0 106.5 20.5t35.5 75.5q0 62 -86 62q-37 0 -78 -13l-37 33l59 156q-184 20 -257.5 146t-34.5 331z" />
<glyph unicode="&#xc8;" horiz-adv-x="1030" d="M199 0l278 1434h707l-19 -97h-602l-106 -549h563l-19 -96h-563l-116 -596h602l-19 -96h-706zM772 1907h111l55 -332h-74z" />
<glyph unicode="&#xc9;" horiz-adv-x="1030" d="M199 0l278 1434h707l-19 -97h-602l-106 -549h563l-19 -96h-563l-116 -596h602l-19 -96h-706zM793 1575l178 332h114l-219 -332h-73z" />
<glyph unicode="&#xca;" horiz-adv-x="1030" d="M199 0l278 1434h707l-19 -97h-602l-106 -549h563l-19 -96h-563l-116 -596h602l-19 -96h-706zM590 1575l287 332h102l160 -332h-76l-148 233l-237 -233h-88z" />
<glyph unicode="&#xcb;" horiz-adv-x="1030" d="M199 0l278 1434h707l-19 -97h-602l-106 -549h563l-19 -96h-563l-116 -596h602l-19 -96h-706zM637 1638l29 144h139l-29 -144h-139zM973 1638l28 144h140l-29 -144h-139z" />
<glyph unicode="&#xcc;" horiz-adv-x="501" d="M199 0l278 1434h105l-279 -1434h-104zM455 1907h110l56 -332h-74z" />
<glyph unicode="&#xcd;" horiz-adv-x="501" d="M199 0l278 1434h105l-279 -1434h-104zM502 1575l178 332h115l-220 -332h-73z" />
<glyph unicode="&#xce;" horiz-adv-x="501" d="M199 0l278 1434h105l-279 -1434h-104zM289 1575l286 332h103l160 -332h-76l-148 233l-237 -233h-88z" />
<glyph unicode="&#xcf;" horiz-adv-x="501" d="M199 0l278 1434h105l-279 -1434h-104zM336 1638l29 144h139l-29 -144h-139zM672 1638l28 144h140l-29 -144h-139z" />
<glyph unicode="&#xd0;" horiz-adv-x="1257" d="M199 0l131 682h-127l16 90h129l129 662h393q204 0 314 -133t110 -367q0 -275 -78 -485t-230.5 -329.5t-360.5 -119.5h-426zM322 96h274q102 0 187.5 31t145 81.5t106 121t74.5 144t46 155t24.5 150t6.5 134.5q0 94 -19 169.5t-59.5 133.5t-108.5 89.5t-161 31.5h-275 l-110 -565h342l-17 -90h-344z" />
<glyph unicode="&#xd1;" horiz-adv-x="1316" d="M195 0l278 1434h78l508 -1201h8l233 1201h101l-279 -1434h-82l-503 1200h-9l-233 -1200h-100zM674 1651q97 159 211 159q39 0 75 -17t59.5 -38t54.5 -38t61 -17q36 0 64.5 22t70.5 80l61 -33q-98 -157 -211 -157q-32 0 -61 11.5t-51 27.5t-42.5 32t-44.5 27.5t-49 11.5 q-66 0 -135 -98z" />
<glyph unicode="&#xd2;" horiz-adv-x="1200" d="M238 465l98 504q43 227 175 354t361 127q154 0 247 -62t121.5 -168.5t0.5 -250.5l-98 -504q-92 -481 -535 -481q-153 0 -246.5 62t-122.5 168.5t-1 250.5zM346 481q-37 -194 25 -296.5t245 -102.5q185 0 287 102.5t139 296.5l93 471q37 194 -25.5 296t-247.5 102 q-183 0 -285 -102.5t-139 -295.5zM799 1907h110l56 -332h-74z" />
<glyph unicode="&#xd3;" horiz-adv-x="1200" d="M238 465l98 504q43 227 175 354t361 127q154 0 247 -62t121.5 -168.5t0.5 -250.5l-98 -504q-92 -481 -535 -481q-153 0 -246.5 62t-122.5 168.5t-1 250.5zM346 481q-37 -194 25 -296.5t245 -102.5q185 0 287 102.5t139 296.5l93 471q37 194 -25.5 296t-247.5 102 q-183 0 -285 -102.5t-139 -295.5zM825 1575l179 332h114l-219 -332h-74z" />
<glyph unicode="&#xd4;" horiz-adv-x="1200" d="M238 465l98 504q43 227 175 354t361 127q154 0 247 -62t121.5 -168.5t0.5 -250.5l-98 -504q-92 -481 -535 -481q-153 0 -246.5 62t-122.5 168.5t-1 250.5zM346 481q-37 -194 25 -296.5t245 -102.5q185 0 287 102.5t139 296.5l93 471q37 194 -25.5 296t-247.5 102 q-183 0 -285 -102.5t-139 -295.5zM637 1575l287 332h102l160 -332h-76l-147 233l-238 -233h-88z" />
<glyph unicode="&#xd5;" horiz-adv-x="1200" d="M238 465l98 504q43 227 175 354t361 127q154 0 247 -62t121.5 -168.5t0.5 -250.5l-98 -504q-92 -481 -535 -481q-153 0 -246.5 62t-122.5 168.5t-1 250.5zM346 481q-37 -194 25 -296.5t245 -102.5q185 0 287 102.5t139 296.5l93 471q37 194 -25.5 296t-247.5 102 q-183 0 -285 -102.5t-139 -295.5zM608 1651q97 159 211 159q39 0 75 -17t59.5 -38t54.5 -38t61 -17q36 0 64.5 22t70.5 80l62 -33q-98 -157 -211 -157q-32 0 -61 11.5t-51 27.5t-42.5 32t-44.5 27.5t-49 11.5q-66 0 -135 -98z" />
<glyph unicode="&#xd6;" horiz-adv-x="1200" d="M238 465l98 504q43 227 175 354t361 127q154 0 247 -62t121.5 -168.5t0.5 -250.5l-98 -504q-92 -481 -535 -481q-153 0 -246.5 62t-122.5 168.5t-1 250.5zM346 481q-37 -194 25 -296.5t245 -102.5q185 0 287 102.5t139 296.5l93 471q37 194 -25.5 296t-247.5 102 q-183 0 -285 -102.5t-139 -295.5zM686 1638l29 144h139l-29 -144h-139zM1022 1638l29 144h139l-29 -144h-139z" />
<glyph unicode="&#xd7;" horiz-adv-x="968" d="M174 303l375 309l-244 303l66 58l243 -303l363 303l53 -64l-364 -303l245 -303l-65 -57l-244 301l-375 -307z" />
<glyph unicode="&#xd8;" horiz-adv-x="1200" d="M227 -74l90 154q-131 125 -79 385l98 504q43 227 175 354t361 127q139 0 230 -51l63 108h86l-90 -153q132 -126 80 -385l-98 -504q-92 -481 -535 -481q-145 0 -231 51l-64 -109h-86zM346 481q-40 -207 29 -305l672 1131q-67 43 -185 43q-183 0 -285 -102.5t-139 -295.5z M430 125q67 -43 186 -43q185 0 287 102.5t139 296.5l93 471q39 206 -33 305z" />
<glyph unicode="&#xd9;" horiz-adv-x="1241" d="M258 438l193 996h106l-190 -979q-36 -184 24 -278.5t246 -94.5t282 94.5t132 278.5l190 979h102l-192 -996q-43 -226 -168 -340t-362 -114q-216 0 -310 118.5t-53 335.5zM825 1907h111l55 -332h-73z" />
<glyph unicode="&#xda;" horiz-adv-x="1241" d="M258 438l193 996h106l-190 -979q-36 -184 24 -278.5t246 -94.5t282 94.5t132 278.5l190 979h102l-192 -996q-43 -226 -168 -340t-362 -114q-216 0 -310 118.5t-53 335.5zM850 1575l178 332h115l-219 -332h-74z" />
<glyph unicode="&#xdb;" horiz-adv-x="1241" d="M258 438l193 996h106l-190 -979q-36 -184 24 -278.5t246 -94.5t282 94.5t132 278.5l190 979h102l-192 -996q-43 -226 -168 -340t-362 -114q-216 0 -310 118.5t-53 335.5zM659 1575l287 332h103l159 -332h-75l-148 233l-237 -233h-89z" />
<glyph unicode="&#xdc;" horiz-adv-x="1241" d="M258 438l193 996h106l-190 -979q-36 -184 24 -278.5t246 -94.5t282 94.5t132 278.5l190 979h102l-192 -996q-43 -226 -168 -340t-362 -114q-216 0 -310 118.5t-53 335.5zM711 1638l28 144h140l-29 -144h-139zM1047 1638l28 144h139l-28 -144h-139z" />
<glyph unicode="&#xdd;" horiz-adv-x="1120" d="M338 1434h111l233 -762h8l527 762h124l-620 -871l-109 -563h-104l108 563zM815 1575l178 332h115l-219 -332h-74z" />
<glyph unicode="&#xde;" horiz-adv-x="1128" d="M199 0l278 1434h105l-45 -228h251q202 0 303 -89.5t101 -235.5q0 -95 -18.5 -175t-60.5 -149.5t-106.5 -117.5t-161 -75.5t-218.5 -27.5h-258l-66 -336h-104zM387 432h260q434 0 434 430q0 123 -73 185.5t-244 62.5h-246z" />
<glyph unicode="&#xdf;" horiz-adv-x="1161" d="M176 0l227 1174q32 165 153.5 266.5t309.5 101.5q162 0 249 -73t87 -199q0 -72 -17.5 -129t-50.5 -96.5t-69 -66t-84 -48.5q198 -66 137 -373l-28 -145q-80 -412 -472 -412h-202l18 94h203q159 0 239.5 79.5t114.5 248.5l25 123q35 174 -16 255t-209 81h-132l17 90h121 q303 0 303 286q0 93 -64 143t-186 50q-147 0 -235.5 -76t-110.5 -190l-230 -1184h-98z" />
<glyph unicode="&#xe0;" horiz-adv-x="1087" d="M195 399l63 324q39 200 149.5 308t288.5 108q106 0 179.5 -44.5t113.5 -105.5l47 131h78l-160 -825q-22 -125 -10.5 -171t53.5 -46q43 0 88 20l2 -69q-53 -35 -122 -35q-52 0 -92 32.5t-44 102.5q-68 -63 -149.5 -104t-196.5 -41q-176 0 -251 109t-37 306zM297 410 q-33 -169 17.5 -251.5t201.5 -82.5q94 0 183 51t145 115l129 659q-101 146 -268 146q-151 0 -233.5 -83t-115.5 -251zM672 1599h110l56 -331h-74z" />
<glyph unicode="&#xe1;" horiz-adv-x="1087" d="M195 399l63 324q39 200 149.5 308t288.5 108q106 0 179.5 -44.5t113.5 -105.5l47 131h78l-160 -825q-22 -125 -10.5 -171t53.5 -46q43 0 88 20l2 -69q-53 -35 -122 -35q-52 0 -92 32.5t-44 102.5q-68 -63 -149.5 -104t-196.5 -41q-176 0 -251 109t-37 306zM297 410 q-33 -169 17.5 -251.5t201.5 -82.5q94 0 183 51t145 115l129 659q-101 146 -268 146q-151 0 -233.5 -83t-115.5 -251zM694 1268l178 331h115l-219 -331h-74z" />
<glyph unicode="&#xe2;" horiz-adv-x="1087" d="M195 399l63 324q39 200 149.5 308t288.5 108q106 0 179.5 -44.5t113.5 -105.5l47 131h78l-160 -825q-22 -125 -10.5 -171t53.5 -46q43 0 88 20l2 -69q-53 -35 -122 -35q-52 0 -92 32.5t-44 102.5q-68 -63 -149.5 -104t-196.5 -41q-176 0 -251 109t-37 306zM297 410 q-33 -169 17.5 -251.5t201.5 -82.5q94 0 183 51t145 115l129 659q-101 146 -268 146q-151 0 -233.5 -83t-115.5 -251zM498 1268l286 331h103l160 -331h-76l-148 233l-237 -233h-88z" />
<glyph unicode="&#xe3;" horiz-adv-x="1087" d="M195 399l63 324q39 200 149.5 308t288.5 108q106 0 179.5 -44.5t113.5 -105.5l47 131h78l-160 -825q-22 -125 -10.5 -171t53.5 -46q43 0 88 20l2 -69q-53 -35 -122 -35q-52 0 -92 32.5t-44 102.5q-68 -63 -149.5 -104t-196.5 -41q-176 0 -251 109t-37 306zM297 410 q-33 -169 17.5 -251.5t201.5 -82.5q94 0 183 51t145 115l129 659q-101 146 -268 146q-151 0 -233.5 -83t-115.5 -251zM467 1343q97 160 211 160q39 0 75 -17t59.5 -38t54.5 -38t61 -17q36 0 64.5 22t70.5 80l61 -33q-98 -157 -211 -157q-39 0 -74.5 17t-58.5 38t-53.5 38 t-60.5 17q-67 0 -136 -98z" />
<glyph unicode="&#xe4;" horiz-adv-x="1087" d="M195 399l63 324q39 200 149.5 308t288.5 108q106 0 179.5 -44.5t113.5 -105.5l47 131h78l-160 -825q-22 -125 -10.5 -171t53.5 -46q43 0 88 20l2 -69q-53 -35 -122 -35q-52 0 -92 32.5t-44 102.5q-68 -63 -149.5 -104t-196.5 -41q-176 0 -251 109t-37 306zM297 410 q-33 -169 17.5 -251.5t201.5 -82.5q94 0 183 51t145 115l129 659q-101 146 -268 146q-151 0 -233.5 -83t-115.5 -251zM555 1331l29 144h139l-29 -144h-139zM891 1331l29 144h139l-29 -144h-139z" />
<glyph unicode="&#xe5;" horiz-adv-x="1087" d="M195 399l63 324q39 200 149.5 308t288.5 108q106 0 179.5 -44.5t113.5 -105.5l47 131h78l-160 -825q-22 -125 -10.5 -171t53.5 -46q43 0 88 20l2 -69q-53 -35 -122 -35q-52 0 -92 32.5t-44 102.5q-68 -63 -149.5 -104t-196.5 -41q-176 0 -251 109t-37 306zM297 410 q-33 -169 17.5 -251.5t201.5 -82.5q94 0 183 51t145 115l129 659q-101 146 -268 146q-151 0 -233.5 -83t-115.5 -251zM606 1395q0 107 65 171t175 64q77 0 123.5 -42t46.5 -115q0 -108 -65 -172t-175 -64q-77 0 -123.5 42.5t-46.5 115.5zM686 1409q0 -45 26 -70.5t76 -25.5 q67 0 108.5 40.5t41.5 104.5q0 45 -26.5 70.5t-75.5 25.5q-68 0 -109 -40.5t-41 -104.5z" />
<glyph unicode="&#xe6;" horiz-adv-x="1662" d="M168 256q0 103 44 183.5t116.5 132t173 85t205 47t221.5 13.5l16 86q48 244 -227 244q-81 0 -155 -20t-173 -60l-24 80q200 92 368 92q251 0 305 -164q122 164 355 164q384 0 301 -430l-37 -187h-670l-31 -162q-25 -131 29.5 -207.5t208.5 -76.5q100 0 173.5 23t160.5 73 l28 -76q-180 -112 -378 -112q-260 0 -306 192q-163 -192 -401 -192q-141 0 -222 77t-81 195zM270 264q0 -89 61 -143.5t165 -54.5q116 0 212 64.5t134 137.5l69 367q-104 0 -194 -11t-174 -38t-143 -68t-94.5 -106t-35.5 -148zM1006 608h571l18 90q35 173 -14 261t-205 88 q-151 0 -233.5 -84t-116.5 -248z" />
<glyph unicode="&#xe7;" horiz-adv-x="913" d="M197 412l57 297q40 208 151.5 319t313.5 111q82 0 145 -26.5t96.5 -61.5t61.5 -84l-76 -54q-35 67 -91 100.5t-144 33.5q-87 0 -149.5 -25.5t-104.5 -79t-67.5 -122.5t-45.5 -169l-45 -229q-34 -171 15.5 -258.5t207.5 -87.5q92 0 159.5 29.5t129.5 97.5l63 -56 q-74 -85 -162 -123t-204 -40l-53 -113q41 8 73 8q57 0 92 -27.5t35 -84.5q0 -185 -223 -185q-71 0 -145 31l28 63q67 -22 119 -22q71 0 106 20.5t35 75.5q0 62 -86 62q-36 0 -77 -13l-37 33l59 156q-312 39 -237 424z" />
<glyph unicode="&#xe8;" horiz-adv-x="993" d="M195 393l59 316q39 207 151.5 318.5t317.5 111.5q193 0 266.5 -113t34.5 -317l-37 -187h-670l-26 -141q-15 -66 -9.5 -122t28.5 -96.5t77 -63.5t137 -23q87 0 177.5 28t152.5 68l29 -76q-176 -112 -375 -112q-391 0 -313 409zM336 608h571l19 90q35 173 -14 261t-205 88 q-154 0 -237.5 -88.5t-117.5 -260.5zM653 1599h111l55 -331h-74z" />
<glyph unicode="&#xe9;" horiz-adv-x="993" d="M195 393l59 316q39 207 151.5 318.5t317.5 111.5q193 0 266.5 -113t34.5 -317l-37 -187h-670l-26 -141q-15 -66 -9.5 -122t28.5 -96.5t77 -63.5t137 -23q87 0 177.5 28t152.5 68l29 -76q-176 -112 -375 -112q-391 0 -313 409zM336 608h571l19 90q35 173 -14 261t-205 88 q-154 0 -237.5 -88.5t-117.5 -260.5zM674 1268l178 331h115l-219 -331h-74z" />
<glyph unicode="&#xea;" horiz-adv-x="993" d="M195 393l59 316q39 207 151.5 318.5t317.5 111.5q193 0 266.5 -113t34.5 -317l-37 -187h-670l-26 -141q-15 -66 -9.5 -122t28.5 -96.5t77 -63.5t137 -23q87 0 177.5 28t152.5 68l29 -76q-176 -112 -375 -112q-391 0 -313 409zM336 608h571l19 90q35 173 -14 261t-205 88 q-154 0 -237.5 -88.5t-117.5 -260.5zM487 1268l287 331h103l159 -331h-75l-148 233l-238 -233h-88z" />
<glyph unicode="&#xeb;" horiz-adv-x="993" d="M195 393l59 316q39 207 151.5 318.5t317.5 111.5q193 0 266.5 -113t34.5 -317l-37 -187h-670l-26 -141q-15 -66 -9.5 -122t28.5 -96.5t77 -63.5t137 -23q87 0 177.5 28t152.5 68l29 -76q-176 -112 -375 -112q-391 0 -313 409zM336 608h571l19 90q35 173 -14 261t-205 88 q-154 0 -237.5 -88.5t-117.5 -260.5zM530 1331l29 144h139l-28 -144h-140zM866 1331l29 144h139l-28 -144h-140z" />
<glyph unicode="&#xec;" horiz-adv-x="561" d="M260 1032l14 88h306l-174 -882q-8 -51 -9.5 -82.5t8.5 -49t23 -23t33 -5.5q43 0 88 20l2 -69q-53 -35 -123 -35q-25 0 -46 6.5t-41.5 22.5t-30.5 43.5t-13 69.5t10 100l154 796h-201zM426 1599h111l55 -331h-74z" />
<glyph unicode="&#xed;" horiz-adv-x="561" d="M260 1032l14 88h306l-174 -882q-8 -51 -9.5 -82.5t8.5 -49t23 -23t33 -5.5q43 0 88 20l2 -69q-53 -35 -123 -35q-25 0 -46 6.5t-41.5 22.5t-30.5 43.5t-13 69.5t10 100l154 796h-201zM489 1268l179 331h114l-219 -331h-74z" />
<glyph unicode="&#xee;" horiz-adv-x="561" d="M229 1268l287 331h102l160 -331h-76l-147 233l-238 -233h-88zM260 1032l14 88h306l-174 -882q-8 -51 -9.5 -82.5t8.5 -49t23 -23t33 -5.5q43 0 88 20l2 -69q-53 -35 -123 -35q-25 0 -46 6.5t-41.5 22.5t-30.5 43.5t-13 69.5t10 100l154 796h-201z" />
<glyph unicode="&#xef;" horiz-adv-x="561" d="M260 1032l14 88h306l-174 -882q-8 -51 -9.5 -82.5t8.5 -49t23 -23t33 -5.5q43 0 88 20l2 -69q-53 -35 -123 -35q-25 0 -46 6.5t-41.5 22.5t-30.5 43.5t-13 69.5t10 100l154 796h-201zM289 1331l28 144h140l-29 -144h-139zM625 1331l28 144h140l-29 -144h-139z" />
<glyph unicode="&#xf0;" horiz-adv-x="1013" d="M197 412l32 170q84 430 465 430q97 0 172.5 -38t102.5 -95l28 141q33 157 -53 246l-201 -166l-49 63l185 152q-65 35 -168 35q-85 0 -197 -41l-29 75q126 56 246 56q136 0 227 -56l158 134l53 -64l-145 -119q55 -61 71.5 -139.5t-5.5 -204.5l-113 -579 q-40 -209 -149 -318.5t-310 -109.5q-202 0 -281 113t-40 315zM299 422q-32 -172 17 -259t206 -87q166 0 248 96.5t121 296.5l20 102q70 349 -225 349q-87 0 -150 -25.5t-105.5 -79t-68.5 -122.5t-45 -169z" />
<glyph unicode="&#xf1;" horiz-adv-x="1116" d="M174 0l217 1120h78l-14 -151q30 26 65 50.5t88 54t117.5 47.5t128.5 18q75 0 128 -21t81.5 -56t40.5 -87t9.5 -107t-15.5 -123l-146 -745h-100l147 762q28 141 -19 209.5t-179 68.5q-166 0 -352 -149l-175 -891h-100zM502 1343q97 160 211 160q39 0 75 -17t59.5 -38 t54.5 -38t61 -17q36 0 64.5 22t70.5 80l61 -33q-98 -157 -211 -157q-32 0 -61 11.5t-51 27.5t-42.5 32t-44.5 27.5t-49 11.5q-66 0 -135 -98z" />
<glyph unicode="&#xf2;" horiz-adv-x="1013" d="M197 412l57 297q40 208 151 319t314 111t279 -112t36 -318l-57 -297q-41 -210 -149 -319t-314 -109q-201 0 -278.5 112.5t-38.5 315.5zM299 422q-34 -171 15.5 -258.5t207.5 -87.5q86 0 148.5 25.5t104.5 79t68.5 122t45.5 166.5l45 229q34 173 -15.5 261t-207.5 88 q-87 0 -149.5 -25.5t-104.5 -79t-67.5 -122.5t-45.5 -169zM653 1599h111l55 -331h-74z" />
<glyph unicode="&#xf3;" horiz-adv-x="1013" d="M197 412l57 297q40 208 151 319t314 111t279 -112t36 -318l-57 -297q-41 -210 -149 -319t-314 -109q-201 0 -278.5 112.5t-38.5 315.5zM299 422q-34 -171 15.5 -258.5t207.5 -87.5q86 0 148.5 25.5t104.5 79t68.5 122t45.5 166.5l45 229q34 173 -15.5 261t-207.5 88 q-87 0 -149.5 -25.5t-104.5 -79t-67.5 -122.5t-45.5 -169zM670 1268l178 331h115l-220 -331h-73z" />
<glyph unicode="&#xf4;" horiz-adv-x="1013" d="M197 412l57 297q40 208 151 319t314 111t279 -112t36 -318l-57 -297q-41 -210 -149 -319t-314 -109q-201 0 -278.5 112.5t-38.5 315.5zM299 422q-34 -171 15.5 -258.5t207.5 -87.5q86 0 148.5 25.5t104.5 79t68.5 122t45.5 166.5l45 229q34 173 -15.5 261t-207.5 88 q-87 0 -149.5 -25.5t-104.5 -79t-67.5 -122.5t-45.5 -169zM477 1268l287 331h102l160 -331h-76l-147 233l-238 -233h-88z" />
<glyph unicode="&#xf5;" horiz-adv-x="1015" d="M197 412l57 297q40 208 151 319t314 111t279 -112t36 -318l-57 -297q-41 -210 -149 -319t-314 -109q-201 0 -278.5 112.5t-38.5 315.5zM299 422q-34 -171 15.5 -258.5t207.5 -87.5q86 0 148.5 25.5t104.5 79t68.5 122t45.5 166.5l45 229q34 173 -15.5 261t-207.5 88 q-87 0 -149.5 -25.5t-104.5 -79t-67.5 -122.5t-45.5 -169zM457 1343q97 160 211 160q39 0 75 -17t59.5 -38t54.5 -38t61 -17q36 0 64.5 22t70.5 80l61 -33q-98 -157 -211 -157q-32 0 -61 11.5t-51 27.5t-42.5 32t-44.5 27.5t-49 11.5q-66 0 -135 -98z" />
<glyph unicode="&#xf6;" horiz-adv-x="1015" d="M197 412l57 297q40 208 151 319t314 111t279 -112t36 -318l-57 -297q-41 -210 -149 -319t-314 -109q-201 0 -278.5 112.5t-38.5 315.5zM299 422q-34 -171 15.5 -258.5t207.5 -87.5q86 0 148.5 25.5t104.5 79t68.5 122t45.5 166.5l45 229q34 173 -15.5 261t-207.5 88 q-87 0 -149.5 -25.5t-104.5 -79t-67.5 -122.5t-45.5 -169zM537 1331l28 144h140l-29 -144h-139zM872 1331l29 144h139l-28 -144h-140z" />
<glyph unicode="&#xf7;" horiz-adv-x="960" d="M129 559l18 92h920l-18 -92h-920zM459 270q0 45 25 75t79 30q35 0 52.5 -18t17.5 -48q0 -44 -24.5 -73t-78.5 -29q-71 0 -71 63zM582 899q0 45 24.5 75t77.5 30q70 0 70 -66q0 -44 -24.5 -73t-78.5 -29q-69 0 -69 63z" />
<glyph unicode="&#xf8;" horiz-adv-x="1013" d="M195 -74l75 129q-122 105 -73 357l57 297q40 208 151 319t314 111q100 0 178 -33l55 94h84l-78 -131q124 -104 76 -360l-57 -297q-41 -210 -149 -319t-314 -109q-104 0 -182 32l-53 -90h-84zM299 422q-39 -192 27 -275l520 875q-55 25 -135 25q-87 0 -149.5 -25.5 t-104.5 -79t-67.5 -122.5t-45.5 -169zM383 102q51 -26 139 -26q86 0 148.5 25.5t104.5 79t68.5 122t45.5 166.5l45 229q39 195 -31 279z" />
<glyph unicode="&#xf9;" d="M233 348l150 772h100l-147 -762q-28 -141 19.5 -209.5t179.5 -68.5q166 0 352 149l174 891h100l-217 -1120h-78l15 152q-30 -27 -46.5 -40t-59 -42t-78.5 -45t-90 -29.5t-109 -13.5q-172 0 -235 98.5t-30 267.5zM727 1599h111l55 -331h-74z" />
<glyph unicode="&#xfa;" d="M233 348l150 772h100l-147 -762q-28 -141 19.5 -209.5t179.5 -68.5q166 0 352 149l174 891h100l-217 -1120h-78l15 152q-30 -27 -46.5 -40t-59 -42t-78.5 -45t-90 -29.5t-109 -13.5q-172 0 -235 98.5t-30 267.5zM733 1268l178 331h115l-219 -331h-74z" />
<glyph unicode="&#xfb;" d="M233 348l150 772h100l-147 -762q-28 -141 19.5 -209.5t179.5 -68.5q166 0 352 149l174 891h100l-217 -1120h-78l15 152q-30 -27 -46.5 -40t-59 -42t-78.5 -45t-90 -29.5t-109 -13.5q-172 0 -235 98.5t-30 267.5zM537 1268l286 331h103l159 -331h-75l-148 233l-237 -233 h-88z" />
<glyph unicode="&#xfc;" d="M233 348l150 772h100l-147 -762q-28 -141 19.5 -209.5t179.5 -68.5q166 0 352 149l174 891h100l-217 -1120h-78l15 152q-30 -27 -46.5 -40t-59 -42t-78.5 -45t-90 -29.5t-109 -13.5q-172 0 -235 98.5t-30 267.5zM582 1331l28 144h140l-29 -144h-139zM918 1331l28 144h139 l-28 -144h-139z" />
<glyph unicode="&#xfd;" d="M154 -326l55 72q73 -44 133 -64t156 -20q277 0 338 301l38 182q-36 -31 -63 -51t-77.5 -50t-110.5 -46t-125 -16q-172 0 -235 98.5t-30 267.5l150 772h100l-147 -762q-28 -141 19.5 -209.5t179.5 -68.5q166 0 352 149l174 891h100l-215 -1104q-15 -79 -36.5 -142 t-58 -121.5t-86 -97.5t-122.5 -62t-164 -23q-99 0 -187.5 31.5t-137.5 72.5zM748 1268l178 331h114l-219 -331h-73z" />
<glyph unicode="&#xfe;" horiz-adv-x="1071" d="M94 -414l385 1985h101l-111 -578q63 59 153.5 102.5t194.5 43.5q177 0 247 -111.5t32 -304.5l-64 -324q-82 -415 -438 -415q-106 0 -180 44.5t-113 104.5l-106 -547h-101zM317 221q100 -145 267 -145q151 0 234 83t116 251l59 303q33 169 -17.5 251.5t-201.5 82.5 q-169 0 -323 -146z" />
<glyph unicode="&#xff;" d="M154 -326l55 72q73 -44 133 -64t156 -20q277 0 338 301l38 182q-36 -31 -63 -51t-77.5 -50t-110.5 -46t-125 -16q-172 0 -235 98.5t-30 267.5l150 772h100l-147 -762q-28 -141 19.5 -209.5t179.5 -68.5q166 0 352 149l174 891h100l-215 -1104q-15 -79 -36.5 -142 t-58 -121.5t-86 -97.5t-122.5 -62t-164 -23q-99 0 -187.5 31.5t-137.5 72.5zM582 1331l28 144h140l-29 -144h-139zM918 1331l28 144h139l-28 -144h-139z" />
<glyph unicode="&#x100;" horiz-adv-x="1175" d="M66 0l755 1434h90l199 -1434h-106l-56 418h-549l-219 -418h-114zM444 514h496l-96 756h-8zM674 1708l16 88h500l-16 -88h-500z" />
<glyph unicode="&#x101;" horiz-adv-x="1087" d="M195 399l63 324q39 200 149.5 308t288.5 108q106 0 179.5 -44.5t113.5 -105.5l47 131h78l-160 -825q-22 -125 -10.5 -171t53.5 -46q43 0 88 20l2 -69q-53 -35 -122 -35q-52 0 -92 32.5t-44 102.5q-68 -63 -149.5 -104t-196.5 -41q-176 0 -251 109t-37 306zM297 410 q-33 -169 17.5 -251.5t201.5 -82.5q94 0 183 51t145 115l129 659q-101 146 -268 146q-151 0 -233.5 -83t-115.5 -251zM559 1401l16 88h500l-16 -88h-500z" />
<glyph unicode="&#x102;" horiz-adv-x="1175" d="M66 0l755 1434h90l199 -1434h-106l-56 418h-549l-219 -418h-114zM444 514h496l-96 756h-8zM680.5 1737.5q-10.5 46.5 1.5 115.5l6 29h80l-6 -29q-35 -165 160 -165q88 0 144 37.5t75 127.5l6 29h82l-6 -29q-15 -71 -46.5 -120.5t-76 -75.5t-91.5 -36.5t-104 -10.5 q-56 0 -100 12t-79 40.5t-45.5 75z" />
<glyph unicode="&#x103;" horiz-adv-x="1087" d="M195 399l63 324q39 200 149.5 308t288.5 108q106 0 179.5 -44.5t113.5 -105.5l47 131h78l-160 -825q-22 -125 -10.5 -171t53.5 -46q43 0 88 20l2 -69q-53 -35 -122 -35q-52 0 -92 32.5t-44 102.5q-68 -63 -149.5 -104t-196.5 -41q-176 0 -251 109t-37 306zM297 410 q-33 -169 17.5 -251.5t201.5 -82.5q94 0 183 51t145 115l129 659q-101 146 -268 146q-151 0 -233.5 -83t-115.5 -251zM547.5 1430.5q-10.5 46.5 1.5 115.5l6 29h80l-6 -29q-35 -166 159 -166q185 0 220 166l6 29h82l-6 -29q-15 -71 -46.5 -120.5t-76 -75.5t-91.5 -36.5 t-104 -10.5q-56 0 -100 12t-79 40.5t-45.5 75z" />
<glyph unicode="&#x104;" horiz-adv-x="1175" d="M66 0l755 1434h90l199 -1434q-126 -58 -196 -128.5t-70 -141.5q0 -72 82 -72q51 0 104 20l6 -61q-72 -35 -143 -35q-67 0 -105 31t-38 92q0 93 74 171t180 124l-56 418h-549l-219 -418h-114zM444 514h496l-96 756h-8z" />
<glyph unicode="&#x105;" horiz-adv-x="1087" d="M195 399l63 324q39 200 149.5 308t288.5 108q106 0 179.5 -44.5t113.5 -105.5l47 131h78l-160 -825q-22 -125 -10.5 -171t53.5 -46q43 0 88 20l2 -69q-147 -68 -237 -146t-90 -153q0 -72 82 -72q51 0 104 20l6 -61q-72 -35 -143 -35q-67 0 -105 31t-38 92q0 93 75.5 171 t182.5 124q-90 23 -95 129q-68 -63 -149.5 -104t-196.5 -41q-176 0 -251 109t-37 306zM297 410q-33 -169 17.5 -251.5t201.5 -82.5q94 0 183 51t145 115l129 659q-101 146 -268 146q-151 0 -233.5 -83t-115.5 -251z" />
<glyph unicode="&#x106;" d="M240 465l96 504q43 227 175.5 354t360.5 127q281 0 365 -270l-92 -47q-33 112 -99.5 164.5t-183.5 52.5q-183 0 -285 -102.5t-139 -295.5l-92 -473q-37 -192 26 -294.5t246 -102.5q114 0 203 55t164 162l80 -45q-39 -56 -77.5 -98t-95 -84.5t-130.5 -65t-162 -22.5 q-220 0 -311 129t-49 352zM827 1575l179 332h114l-219 -332h-74z" />
<glyph unicode="&#x107;" horiz-adv-x="913" d="M197 412l57 297q40 208 151.5 319t313.5 111q209 0 307 -172l-80 -54q-35 67 -91 100.5t-144 33.5q-87 0 -149.5 -25.5t-104.5 -79t-67.5 -122.5t-45.5 -169l-45 -229q-34 -171 15.5 -258.5t207.5 -87.5q172 0 289 127l63 -56q-74 -85 -163.5 -124t-206.5 -39 q-199 0 -273 112t-34 316zM688 1268l178 331h115l-219 -331h-74z" />
<glyph unicode="&#x108;" d="M240 465l96 504q43 227 175.5 354t360.5 127q281 0 365 -270l-92 -47q-33 112 -99.5 164.5t-183.5 52.5q-183 0 -285 -102.5t-139 -295.5l-92 -473q-37 -192 26 -294.5t246 -102.5q114 0 203 55t164 162l80 -45q-39 -56 -77.5 -98t-95 -84.5t-130.5 -65t-162 -22.5 q-220 0 -311 129t-49 352zM631 1575l287 332h102l160 -332h-76l-148 233l-237 -233h-88z" />
<glyph unicode="&#x109;" horiz-adv-x="913" d="M197 412l57 297q40 208 151.5 319t313.5 111q209 0 307 -172l-80 -54q-35 67 -91 100.5t-144 33.5q-87 0 -149.5 -25.5t-104.5 -79t-67.5 -122.5t-45.5 -169l-45 -229q-34 -171 15.5 -258.5t207.5 -87.5q172 0 289 127l63 -56q-74 -85 -163.5 -124t-206.5 -39 q-199 0 -273 112t-34 316zM483 1268l287 331h102l160 -331h-76l-147 233l-238 -233h-88z" />
<glyph unicode="&#x10a;" d="M240 465l96 504q43 227 175.5 354t360.5 127q281 0 365 -270l-92 -47q-33 112 -99.5 164.5t-183.5 52.5q-183 0 -285 -102.5t-139 -295.5l-92 -473q-37 -192 26 -294.5t246 -102.5q114 0 203 55t164 162l80 -45q-39 -56 -77.5 -98t-95 -84.5t-130.5 -65t-162 -22.5 q-220 0 -311 129t-49 352zM856 1647l29 143h135l-29 -143h-135z" />
<glyph unicode="&#x10b;" horiz-adv-x="913" d="M197 412l57 297q40 208 151.5 319t313.5 111q209 0 307 -172l-80 -54q-35 67 -91 100.5t-144 33.5q-87 0 -149.5 -25.5t-104.5 -79t-67.5 -122.5t-45.5 -169l-45 -229q-34 -171 15.5 -258.5t207.5 -87.5q172 0 289 127l63 -56q-74 -85 -163.5 -124t-206.5 -39 q-199 0 -273 112t-34 316zM700 1339l29 144h135l-28 -144h-136z" />
<glyph unicode="&#x10c;" d="M240 465l96 504q43 227 175.5 354t360.5 127q281 0 365 -270l-92 -47q-33 112 -99.5 164.5t-183.5 52.5q-183 0 -285 -102.5t-139 -295.5l-92 -473q-37 -192 26 -294.5t246 -102.5q114 0 203 55t164 162l80 -45q-39 -56 -77.5 -98t-95 -84.5t-130.5 -65t-162 -22.5 q-220 0 -311 129t-49 352zM702 1907h76l148 -234l237 234h88l-286 -332h-103z" />
<glyph unicode="&#x10d;" horiz-adv-x="913" d="M197 412l57 297q40 208 151.5 319t313.5 111q209 0 307 -172l-80 -54q-35 67 -91 100.5t-144 33.5q-87 0 -149.5 -25.5t-104.5 -79t-67.5 -122.5t-45.5 -169l-45 -229q-34 -171 15.5 -258.5t207.5 -87.5q172 0 289 127l63 -56q-74 -85 -163.5 -124t-206.5 -39 q-199 0 -273 112t-34 316zM541 1599h75l148 -233l237 233h89l-287 -331h-103z" />
<glyph unicode="&#x10e;" horiz-adv-x="1257" d="M199 0l278 1434h393q204 0 314 -133t110 -367q0 -275 -78 -485t-230.5 -329.5t-360.5 -119.5h-426zM322 96h274q102 0 187.5 31t145 81.5t106 121t74.5 144t46 155t24.5 150t6.5 134.5q0 94 -19 169.5t-59.5 133.5t-108.5 89.5t-161 31.5h-275zM657 1907h76l148 -234 l237 234h88l-286 -332h-103z" />
<glyph unicode="&#x10f;" horiz-adv-x="1093" d="M195 399l63 324q39 200 149.5 308t288.5 108q106 0 179.5 -44.5t113.5 -105.5l107 547h100l-242 -1241q-44 -217 43 -217q43 0 88 20l2 -69q-53 -35 -122 -35q-54 0 -93.5 33t-42.5 106q-161 -149 -358 -149q-178 0 -246.5 107.5t-29.5 307.5zM297 410 q-33 -169 17.5 -251.5t201.5 -82.5q170 0 328 166l129 659q-101 146 -268 146q-151 0 -233.5 -83t-115.5 -251zM1221 1204l100 332h109l-138 -332h-71z" />
<glyph unicode="&#x110;" horiz-adv-x="1249" d="M199 0l131 682h-127l16 90h129l129 662h393q204 0 314 -133t110 -367q0 -275 -78 -485t-230.5 -329.5t-360.5 -119.5h-426zM322 96h274q102 0 187.5 31t145 81.5t106 121t74.5 144t46 155t24.5 150t6.5 134.5q0 94 -19 169.5t-59.5 133.5t-108.5 89.5t-161 31.5h-275 l-110 -565h342l-17 -90h-344z" />
<glyph unicode="&#x111;" horiz-adv-x="1087" d="M195 399l63 324q39 200 149.5 308t288.5 108q106 0 179.5 -44.5t113.5 -105.5l55 289h-294l18 90h295l33 168h100l-33 -168h172l-18 -90h-172l-191 -983q-44 -217 43 -217q43 0 88 20l2 -69q-53 -35 -122 -35q-54 0 -93.5 33t-42.5 106q-161 -149 -358 -149 q-178 0 -246.5 107.5t-29.5 307.5zM297 410q-33 -169 17.5 -251.5t201.5 -82.5q170 0 328 166l129 659q-101 146 -268 146q-151 0 -233.5 -83t-115.5 -251z" />
<glyph unicode="&#x112;" horiz-adv-x="1030" d="M199 0l278 1434h707l-19 -97h-602l-106 -549h563l-19 -96h-563l-116 -596h602l-19 -96h-706zM637 1708l16 88h500l-16 -88h-500z" />
<glyph unicode="&#x113;" horiz-adv-x="993" d="M195 393l59 316q39 207 151.5 318.5t317.5 111.5q193 0 266.5 -113t34.5 -317l-37 -187h-670l-26 -141q-15 -66 -9.5 -122t28.5 -96.5t77 -63.5t137 -23q87 0 177.5 28t152.5 68l29 -76q-176 -112 -375 -112q-391 0 -313 409zM336 608h571l19 90q35 173 -14 261t-205 88 q-154 0 -237.5 -88.5t-117.5 -260.5zM532 1401l17 88h500l-17 -88h-500z" />
<glyph unicode="&#x114;" horiz-adv-x="1030" d="M199 0l278 1434h707l-19 -97h-602l-106 -549h563l-19 -96h-563l-116 -596h602l-19 -96h-706zM639.5 1737.5q-10.5 46.5 1.5 115.5l6 29h80l-6 -29q-35 -165 160 -165q88 0 144 37.5t75 127.5l6 29h82l-6 -29q-15 -71 -46.5 -120.5t-76 -75.5t-91.5 -36.5t-104 -10.5 q-56 0 -100 12t-79 40.5t-45.5 75z" />
<glyph unicode="&#x115;" horiz-adv-x="993" d="M195 393l59 316q39 207 151.5 318.5t317.5 111.5q193 0 266.5 -113t34.5 -317l-37 -187h-670l-26 -141q-15 -66 -9.5 -122t28.5 -96.5t77 -63.5t137 -23q87 0 177.5 28t152.5 68l29 -76q-176 -112 -375 -112q-391 0 -313 409zM336 608h571l19 90q35 173 -14 261t-205 88 q-154 0 -237.5 -88.5t-117.5 -260.5zM528.5 1430.5q-10.5 46.5 1.5 115.5l7 29h79l-6 -29q-35 -166 160 -166q88 0 144 38t75 128l6 29h82l-6 -29q-15 -71 -46.5 -120.5t-75.5 -75.5t-91 -36.5t-104 -10.5q-56 0 -100 12t-79.5 40.5t-46 75z" />
<glyph unicode="&#x116;" horiz-adv-x="1030" d="M199 0l278 1434h707l-19 -97h-602l-106 -549h563l-19 -96h-563l-116 -596h602l-19 -96h-706zM807 1647l29 143h135l-29 -143h-135z" />
<glyph unicode="&#x117;" horiz-adv-x="993" d="M195 393l59 316q39 207 151.5 318.5t317.5 111.5q193 0 266.5 -113t34.5 -317l-37 -187h-670l-26 -141q-15 -66 -9.5 -122t28.5 -96.5t77 -63.5t137 -23q87 0 177.5 28t152.5 68l29 -76q-176 -112 -375 -112q-391 0 -313 409zM336 608h571l19 90q35 173 -14 261t-205 88 q-154 0 -237.5 -88.5t-117.5 -260.5zM690 1339l29 144h135l-29 -144h-135z" />
<glyph unicode="&#x118;" horiz-adv-x="1030" d="M199 0l278 1434h707l-19 -97h-602l-106 -549h563l-19 -96h-563l-116 -596h602l-19 -96q-126 -58 -196 -128.5t-70 -141.5q0 -72 84 -72q49 0 102 20l17 -61q-72 -35 -154 -35q-66 0 -104.5 31t-38.5 92q0 92 76 170t184 125h-606z" />
<glyph unicode="&#x119;" horiz-adv-x="993" d="M195 393l59 316q39 207 151.5 318.5t317.5 111.5q193 0 266.5 -113t34.5 -317l-37 -187h-670l-26 -141q-15 -66 -9.5 -122t28.5 -96.5t77 -63.5t137 -23q94 0 182.5 27.5t151.5 68.5l25 -76q-46 -24 -91 -51t-100 -66.5t-95 -78t-67.5 -84t-27.5 -86.5q0 -72 82 -72 q51 0 104 20l17 -61q-72 -35 -154 -35q-67 0 -105 31t-38 92q0 72 55 146.5t139 138.5q-44 -6 -94 -6q-391 0 -313 409zM336 608h571l19 90q35 173 -14 261t-205 88q-154 0 -237.5 -88.5t-117.5 -260.5z" />
<glyph unicode="&#x11a;" horiz-adv-x="1030" d="M199 0l278 1434h707l-19 -97h-602l-106 -549h563l-19 -96h-563l-116 -596h602l-19 -96h-706zM651 1907h76l147 -234l238 234h88l-287 -332h-102z" />
<glyph unicode="&#x11b;" horiz-adv-x="993" d="M195 393l59 316q39 207 151.5 318.5t317.5 111.5q193 0 266.5 -113t34.5 -317l-37 -187h-670l-26 -141q-15 -66 -9.5 -122t28.5 -96.5t77 -63.5t137 -23q87 0 177.5 28t152.5 68l29 -76q-176 -112 -375 -112q-391 0 -313 409zM336 608h571l19 90q35 173 -14 261t-205 88 q-154 0 -237.5 -88.5t-117.5 -260.5zM537 1599h75l148 -233l237 233h88l-286 -331h-103z" />
<glyph unicode="&#x11c;" horiz-adv-x="1183" d="M240 465l96 504q43 227 175.5 354t360.5 127q70 0 127.5 -17t94 -43t65.5 -64t44 -71.5t28 -74.5l-86 -47q-33 112 -99.5 164.5t-183.5 52.5q-183 0 -285 -102.5t-139 -295.5l-92 -473q-37 -192 26 -294.5t246 -102.5q136 0 226.5 49t142.5 115l76 395h-303l18 96h402 l-97 -501q-17 -28 -38 -55t-64 -65t-93 -65.5t-126 -47t-162 -19.5q-220 0 -311 129t-49 352zM639 1575l287 332h102l160 -332h-76l-147 233l-238 -233h-88z" />
<glyph unicode="&#x11d;" horiz-adv-x="1050" d="M106 -326l56 72q73 -44 133 -64t156 -20q276 0 337 301l35 170q-33 -31 -60 -52t-69.5 -46t-94.5 -38t-112 -13q-183 0 -257 108t-35 307l63 324q81 416 438 416q106 0 181 -45t116 -105l43 131h78l-215 -1104q-15 -79 -36.5 -142t-58 -121.5t-86 -97.5t-122.5 -62 t-164 -23q-99 0 -188 31.5t-138 72.5zM297 410q-33 -168 17.5 -251t201.5 -83q167 0 324 145l131 680q-94 146 -266 146q-151 0 -233.5 -82.5t-115.5 -251.5zM487 1268l287 331h103l159 -331h-75l-148 233l-238 -233h-88z" />
<glyph unicode="&#x11e;" horiz-adv-x="1183" d="M240 465l96 504q43 227 175.5 354t360.5 127q70 0 127.5 -17t94 -43t65.5 -64t44 -71.5t28 -74.5l-86 -47q-33 112 -99.5 164.5t-183.5 52.5q-183 0 -285 -102.5t-139 -295.5l-92 -473q-37 -192 26 -294.5t246 -102.5q136 0 226.5 49t142.5 115l76 395h-303l18 96h402 l-97 -501q-17 -28 -38 -55t-64 -65t-93 -65.5t-126 -47t-162 -19.5q-220 0 -311 129t-49 352zM694.5 1737.5q-10.5 46.5 1.5 115.5l6 29h80l-6 -29q-35 -165 160 -165q88 0 144 37.5t75 127.5l6 29h82l-6 -29q-15 -71 -46.5 -120.5t-75.5 -75.5t-91 -36.5t-104 -10.5 q-56 0 -100 12t-79.5 40.5t-46 75z" />
<glyph unicode="&#x11f;" horiz-adv-x="1050" d="M106 -326l56 72q73 -44 133 -64t156 -20q276 0 337 301l35 170q-33 -31 -60 -52t-69.5 -46t-94.5 -38t-112 -13q-183 0 -257 108t-35 307l63 324q81 416 438 416q106 0 181 -45t116 -105l43 131h78l-215 -1104q-15 -79 -36.5 -142t-58 -121.5t-86 -97.5t-122.5 -62 t-164 -23q-99 0 -188 31.5t-138 72.5zM297 410q-33 -168 17.5 -251t201.5 -83q167 0 324 145l131 680q-94 146 -266 146q-151 0 -233.5 -82.5t-115.5 -251.5zM543.5 1430.5q-10.5 46.5 1.5 115.5l6 29h80l-6 -29q-35 -166 159 -166q185 0 220 166l6 29h82l-7 -29 q-15 -71 -46.5 -120.5t-75.5 -75.5t-91 -36.5t-104 -10.5q-56 0 -100 12t-79 40.5t-45.5 75z" />
<glyph unicode="&#x120;" horiz-adv-x="1183" d="M240 465l96 504q43 227 175.5 354t360.5 127q70 0 127.5 -17t94 -43t65.5 -64t44 -71.5t28 -74.5l-86 -47q-33 112 -99.5 164.5t-183.5 52.5q-183 0 -285 -102.5t-139 -295.5l-92 -473q-37 -192 26 -294.5t246 -102.5q136 0 226.5 49t142.5 115l76 395h-303l18 96h402 l-97 -501q-17 -28 -38 -55t-64 -65t-93 -65.5t-126 -47t-162 -19.5q-220 0 -311 129t-49 352zM848 1647l29 143h135l-29 -143h-135z" />
<glyph unicode="&#x121;" horiz-adv-x="1050" d="M106 -326l56 72q73 -44 133 -64t156 -20q276 0 337 301l35 170q-33 -31 -60 -52t-69.5 -46t-94.5 -38t-112 -13q-183 0 -257 108t-35 307l63 324q81 416 438 416q106 0 181 -45t116 -105l43 131h78l-215 -1104q-15 -79 -36.5 -142t-58 -121.5t-86 -97.5t-122.5 -62 t-164 -23q-99 0 -188 31.5t-138 72.5zM297 410q-33 -168 17.5 -251t201.5 -83q167 0 324 145l131 680q-94 146 -266 146q-151 0 -233.5 -82.5t-115.5 -251.5zM709 1339l28 144h135l-28 -144h-135z" />
<glyph unicode="&#x122;" horiz-adv-x="1183" d="M240 465l96 504q43 227 175.5 354t360.5 127q70 0 127.5 -17t94 -43t65.5 -64t44 -71.5t28 -74.5l-86 -47q-33 112 -99.5 164.5t-183.5 52.5q-183 0 -285 -102.5t-139 -295.5l-92 -473q-37 -192 26 -294.5t246 -102.5q136 0 226.5 49t142.5 115l76 395h-303l18 96h402 l-97 -501q-17 -28 -38 -55t-64 -65t-93 -65.5t-126 -47t-162 -19.5q-220 0 -311 129t-49 352zM440 -420q47 46 68.5 82t34.5 94h-68l29 148h141l-29 -148q-11 -60 -39 -110t-88 -107z" />
<glyph unicode="&#x123;" horiz-adv-x="1050" d="M106 -326l56 72q73 -44 133 -64t156 -20q276 0 337 301l35 170q-33 -31 -60 -52t-69.5 -46t-94.5 -38t-112 -13q-183 0 -257 108t-35 307l63 324q81 416 438 416q106 0 181 -45t116 -105l43 131h78l-215 -1104q-15 -79 -36.5 -142t-58 -121.5t-86 -97.5t-122.5 -62 t-164 -23q-99 0 -188 31.5t-138 72.5zM297 410q-33 -168 17.5 -251t201.5 -83q167 0 324 145l131 680q-94 146 -266 146q-151 0 -233.5 -82.5t-115.5 -251.5zM690 1233l29 147q11 60 39 110t88 107l49 -41q-47 -46 -67.5 -81.5t-34.5 -94.5h67l-29 -147h-141z" />
<glyph unicode="&#x124;" horiz-adv-x="1304" d="M199 0l278 1434h105l-125 -639h698l125 639h104l-278 -1434h-105l136 698h-699l-135 -698h-104zM680 1575l287 332h102l160 -332h-76l-147 233l-238 -233h-88z" />
<glyph unicode="&#x125;" horiz-adv-x="1122" d="M176 0l299 1536h100l-108 -559q44 37 93.5 69t133.5 62.5t164 30.5q75 0 128 -21t82 -56t41 -86.5t10 -107t-15 -123.5l-146 -745h-100l148 762q28 141 -20.5 209.5t-180.5 68.5q-93 0 -187 -45t-167 -104l-175 -891h-100zM279 1645l286 331h103l159 -331h-75l-148 233 l-237 -233h-88z" />
<glyph unicode="&#x126;" horiz-adv-x="1304" d="M199 0l215 1110h-107l19 88h106l45 236h105l-45 -236h698l45 236h104l-45 -236h142l-19 -88h-141l-215 -1110h-105l136 698h-699l-135 -698h-104zM457 795h698l62 315h-699z" />
<glyph unicode="&#x127;" horiz-adv-x="1122" d="M176 0l248 1278h-127l18 90h127l33 168h100l-32 -168h334l-19 -90h-334l-57 -301q44 37 93.5 69t133.5 62.5t164 30.5q75 0 128 -21t82 -56t41 -86.5t10 -107t-15 -123.5l-146 -745h-100l148 762q28 141 -20.5 209.5t-180.5 68.5q-93 0 -187 -45t-167 -104l-175 -891 h-100z" />
<glyph unicode="&#x128;" horiz-adv-x="501" d="M199 0l278 1434h105l-279 -1434h-104zM270 1651q97 159 211 159q39 0 75 -17t59.5 -38t54.5 -38t61 -17q36 0 64.5 22t70.5 80l62 -33q-98 -157 -211 -157q-32 0 -61 11.5t-51 27.5t-42.5 32t-44.5 27.5t-49 11.5q-66 0 -135 -98z" />
<glyph unicode="&#x129;" horiz-adv-x="561" d="M211 1343q97 160 211 160q39 0 75 -17t59.5 -38t54.5 -38t61 -17q36 0 64.5 22t70.5 80l61 -33q-98 -157 -211 -157q-39 0 -74.5 17t-58.5 38t-53.5 38t-60.5 17q-67 0 -136 -98zM260 1032l14 88h306l-174 -882q-8 -51 -9.5 -82.5t8.5 -49t23 -23t33 -5.5q43 0 88 20 l2 -69q-53 -35 -123 -35q-25 0 -46 6.5t-41.5 22.5t-30.5 43.5t-13 69.5t10 100l154 796h-201z" />
<glyph unicode="&#x12a;" horiz-adv-x="501" d="M199 0l278 1434h105l-279 -1434h-104zM346 1708l16 88h500l-16 -88h-500z" />
<glyph unicode="&#x12b;" horiz-adv-x="561" d="M260 1032l14 88h306l-174 -882q-8 -51 -9.5 -82.5t8.5 -49t23 -23t33 -5.5q43 0 88 20l2 -69q-53 -35 -123 -35q-25 0 -46 6.5t-41.5 22.5t-30.5 43.5t-13 69.5t10 100l154 796h-201zM262 1401l17 88h499l-16 -88h-500z" />
<glyph unicode="&#x12c;" horiz-adv-x="501" d="M199 0l278 1434h105l-279 -1434h-104zM346.5 1737.5q-10.5 46.5 1.5 115.5l6 29h80l-6 -29q-35 -165 160 -165q88 0 144 37.5t75 127.5l6 29h82l-6 -29q-15 -71 -46.5 -120.5t-76 -75.5t-91.5 -36.5t-104 -10.5q-56 0 -100 12t-79 40.5t-45.5 75z" />
<glyph unicode="&#x12d;" horiz-adv-x="561" d="M260 1032l14 88h306l-174 -882q-8 -51 -9.5 -82.5t8.5 -49t23 -23t33 -5.5q43 0 88 20l2 -69q-53 -35 -123 -35q-25 0 -46 6.5t-41.5 22.5t-30.5 43.5t-13 69.5t10 100l154 796h-201zM283.5 1430.5q-10.5 46.5 1.5 115.5l6 29h80l-6 -29q-35 -166 159 -166q88 0 144 38 t75 128l7 29h81l-6 -29q-15 -71 -46.5 -120.5t-75.5 -75.5t-91 -36.5t-104 -10.5q-56 0 -100 12t-79 40.5t-45.5 75z" />
<glyph unicode="&#x12e;" horiz-adv-x="501" d="M-57 -295q0 92 75 170.5t181 124.5l278 1434h105l-279 -1434q-126 -58 -196 -128.5t-70 -141.5q0 -72 82 -72q51 0 104 20l17 -61q-72 -35 -154 -35q-66 0 -104.5 31t-38.5 92z" />
<glyph unicode="&#x12f;" horiz-adv-x="561" d="M100 -295q0 47 27 94t70 85t89.5 67t92.5 49q-112 38 -72 236l154 796h-201l14 88h306l-174 -882q-8 -51 -9.5 -82.5t8.5 -49t23 -23t33 -5.5q43 0 88 20l2 -69q-356 -157 -356 -299q0 -72 81 -72q52 0 105 20l16 -61q-72 -35 -153 -35q-67 0 -105.5 31t-38.5 92z M506 1339l29 144h135l-29 -144h-135z" />
<glyph unicode="&#x130;" horiz-adv-x="501" d="M199 0l278 1434h105l-279 -1434h-104zM508 1647l29 143h135l-29 -143h-135z" />
<glyph unicode="&#x131;" horiz-adv-x="561" d="M260 1032l14 88h306l-174 -882q-8 -51 -9.5 -82.5t8.5 -49t23 -23t33 -5.5q43 0 88 20l2 -69q-53 -35 -123 -35q-25 0 -46 6.5t-41.5 22.5t-30.5 43.5t-13 69.5t10 100l154 796h-201z" />
<glyph unicode="&#x132;" horiz-adv-x="1245" d="M199 0l278 1434h105l-279 -1434h-104zM573 2l35 94q58 -14 107 -14q62 0 110 17.5t79.5 46t55.5 76t38 95.5t28 117l195 1000h104l-190 -979q-17 -88 -36 -152t-52.5 -127.5t-77.5 -103t-111 -64t-153 -24.5q-66 0 -132 18z" />
<glyph unicode="&#x133;" horiz-adv-x="1091" d="M260 1032l14 88h306l-174 -882q-8 -51 -9.5 -82.5t8.5 -49t23 -23t33 -5.5q43 0 88 20l2 -69q-53 -35 -123 -35q-25 0 -46 6.5t-41.5 22.5t-30.5 43.5t-13 69.5t10 100l154 796h-201zM428 -393l39 82q65 -19 108 -19q185 0 228 224l219 1138h-201l15 88h305l-234 -1206 q-16 -83 -41 -143t-65.5 -104.5t-99.5 -66.5t-138 -22q-82 0 -135 29zM506 1339l29 144h135l-29 -144h-135zM1067 1339l29 144h135l-29 -144h-135z" />
<glyph unicode="&#x134;" horiz-adv-x="743" d="M72 2l34 94q58 -14 107 -14q62 0 110 17.5t79.5 46t55.5 76t38 95.5t28 117l195 1000h104l-190 -979q-17 -88 -36 -152t-52.5 -127.5t-77.5 -103t-111 -64t-153 -24.5q-65 0 -131 18zM541 1575l286 332h103l160 -332h-76l-148 233l-237 -233h-88z" />
<glyph unicode="&#x135;" horiz-adv-x="530" d="M-133 -393l39 82q65 -19 108 -19q185 0 228 224l219 1138h-201l14 88h306l-234 -1206q-16 -83 -41 -143t-65.5 -104.5t-99.5 -66.5t-138 -22q-82 0 -135 29zM207 1268l287 331h102l160 -331h-76l-148 233l-237 -233h-88z" />
<glyph unicode="&#x136;" horiz-adv-x="1110" d="M199 0l278 1434h105l-125 -646h207l520 646h119l-555 -691l284 -743h-117l-260 692h-217l-135 -692h-104zM453 -420q47 46 67.5 81.5t34.5 94.5h-68l29 148h141l-28 -148q-11 -60 -39 -110t-88 -107z" />
<glyph unicode="&#x137;" horiz-adv-x="978" d="M176 0l299 1536h100l-172 -887h209l404 471h114l-436 -508l156 -442q19 -53 40 -72.5t52 -19.5q29 0 74 20l2 -69q-39 -35 -107 -35q-60 0 -92.5 35t-58.5 108l-152 424h-223l-109 -561h-100zM397 -420q47 46 68.5 82t34.5 94h-68l29 148h141l-29 -148q-11 -60 -39 -110 t-88 -107z" />
<glyph unicode="&#x138;" horiz-adv-x="978" d="M176 0l219 1120h101l-93 -471h209l404 471h114l-436 -508l156 -442q19 -53 40 -72.5t52 -19.5q29 0 74 20l2 -69q-39 -35 -107 -35q-60 0 -92.5 35t-58.5 108l-152 424h-223l-109 -561h-100z" />
<glyph unicode="&#x139;" horiz-adv-x="989" d="M199 0l278 1434h105l-260 -1338h602l-19 -96h-706zM518 1575l178 332h115l-219 -332h-74z" />
<glyph unicode="&#x13a;" horiz-adv-x="464" d="M223 225l252 1311h100l-249 -1274q-12 -60 -14 -98t7.5 -56t22.5 -24t35 -6q43 0 88 20l2 -69q-53 -35 -123 -35q-165 0 -121 231zM494 1618l178 332h114l-219 -332h-73z" />
<glyph unicode="&#x13b;" horiz-adv-x="989" d="M199 0l278 1434h105l-260 -1338h602l-19 -96h-706zM414 -420q47 46 67.5 81.5t34.5 94.5h-67l28 148h141l-28 -148q-11 -60 -39 -110t-88 -107z" />
<glyph unicode="&#x13c;" horiz-adv-x="464" d="M150 -420q47 46 67.5 81.5t34.5 94.5h-68l29 148h141l-28 -148q-11 -60 -39 -110t-88 -107zM223 225l252 1311h100l-249 -1274q-12 -60 -14 -98t7.5 -56t22.5 -24t35 -6q43 0 88 20l2 -69q-53 -35 -123 -35q-165 0 -121 231z" />
<glyph unicode="&#x13d;" horiz-adv-x="989" d="M199 0l278 1434h105l-260 -1338h602l-19 -96h-706zM827 1102l101 332h108l-137 -332h-72z" />
<glyph unicode="&#x13e;" horiz-adv-x="516" d="M223 225l252 1311h100l-249 -1274q-12 -60 -14 -98t7.5 -56t22.5 -24t35 -6q43 0 88 20l2 -69q-53 -35 -123 -35q-165 0 -121 231zM598 1204l100 332h109l-137 -332h-72z" />
<glyph unicode="&#x13f;" horiz-adv-x="991" d="M199 0l278 1434h105l-260 -1338h602l-19 -96h-706zM694 692l31 154h143l-30 -154h-144z" />
<glyph unicode="&#x140;" horiz-adv-x="763" d="M223 225l252 1311h100l-249 -1274q-12 -60 -14 -98t7.5 -56t22.5 -24t35 -6q43 0 88 20l2 -69q-53 -35 -123 -35q-165 0 -121 231zM563 694l31 154h143l-30 -154h-144z" />
<glyph unicode="&#x141;" horiz-adv-x="989" d="M184 625l21 100l145 59l127 650h105l-117 -603l432 179l-20 -99l-433 -180l-122 -635h602l-19 -96h-706l133 684z" />
<glyph unicode="&#x142;" horiz-adv-x="530" d="M172 729l18 98l160 66l125 643h100l-118 -598l219 90l-19 -98l-219 -90l-112 -578q-12 -60 -14 -98t7.5 -56t22.5 -24t35 -6q43 0 88 20l2 -69q-53 -35 -123 -35q-165 0 -121 231l109 570z" />
<glyph unicode="&#x143;" horiz-adv-x="1316" d="M195 0l278 1434h78l508 -1201h8l233 1201h101l-279 -1434h-82l-503 1200h-9l-233 -1200h-100zM915 1575l179 332h114l-219 -332h-74z" />
<glyph unicode="&#x144;" horiz-adv-x="1116" d="M174 0l217 1120h78l-14 -151q30 26 65 50.5t88 54t117.5 47.5t128.5 18q75 0 128 -21t81.5 -56t40.5 -87t9.5 -107t-15.5 -123l-146 -745h-100l147 762q28 141 -19 209.5t-179 68.5q-166 0 -352 -149l-175 -891h-100zM772 1268l178 331h115l-219 -331h-74z" />
<glyph unicode="&#x145;" horiz-adv-x="1316" d="M195 0l278 1434h78l508 -1201h8l233 1201h101l-279 -1434h-82l-503 1200h-9l-233 -1200h-100zM510 -420q47 46 67.5 81.5t34.5 94.5h-67l28 148h142l-29 -148q-11 -60 -39 -110t-88 -107z" />
<glyph unicode="&#x146;" horiz-adv-x="1116" d="M174 0l217 1120h78l-14 -151q30 26 65 50.5t88 54t117.5 47.5t128.5 18q75 0 128 -21t81.5 -56t40.5 -87t9.5 -107t-15.5 -123l-146 -745h-100l147 762q28 141 -19 209.5t-179 68.5q-166 0 -352 -149l-175 -891h-100zM418 -420q47 46 67.5 81.5t34.5 94.5h-67l28 148h142 l-29 -148q-11 -60 -39 -110t-88 -107z" />
<glyph unicode="&#x147;" horiz-adv-x="1316" d="M195 0l278 1434h78l508 -1201h8l233 1201h101l-279 -1434h-82l-503 1200h-9l-233 -1200h-100zM772 1907h76l147 -234l238 234h88l-287 -332h-102z" />
<glyph unicode="&#x148;" horiz-adv-x="1136" d="M174 0l217 1120h78l-14 -151q30 26 65 50.5t88 54t117.5 47.5t128.5 18q75 0 128 -21t81.5 -56t40.5 -87t9.5 -107t-15.5 -123l-146 -745h-100l147 762q28 141 -19 209.5t-179 68.5q-166 0 -352 -149l-175 -891h-100zM616 1599h76l148 -233l237 233h88l-286 -331h-103z " />
<glyph unicode="&#x149;" horiz-adv-x="1116" d="M174 0l217 1120h78l-14 -151q30 26 65 50.5t88 54t117.5 47.5t128.5 18q75 0 128 -21t81.5 -56t40.5 -87t9.5 -107t-15.5 -123l-146 -745h-100l147 762q28 141 -19 209.5t-179 68.5q-166 0 -352 -149l-175 -891h-100zM236 1206q47 46 67.5 81.5t34.5 94.5h-68l29 148h141 l-28 -148q-11 -60 -39 -110t-88 -107z" />
<glyph unicode="&#x14a;" horiz-adv-x="1316" d="M195 0l278 1434h78l508 -1209h8l236 1209h98l-279 -1434q-19 -100 -47 -172.5t-75.5 -133.5t-122.5 -92.5t-177 -31.5q-65 0 -131 18l35 95q62 -15 107 -15q47 0 85 9.5t65.5 23.5t50.5 41.5t38 52t29 66.5t22.5 74t20.5 85l4 17l-489 1171h-9l-235 -1208h-98z" />
<glyph unicode="&#x14b;" horiz-adv-x="1116" d="M174 0l217 1120h78l-14 -151q30 26 65 50.5t88 54t117.5 47.5t128.5 18q75 0 128 -21t81.5 -56t40.5 -87t9.5 -107t-15.5 -123l-162 -831q-16 -83 -41 -143t-65.5 -104.5t-99.5 -66.5t-138 -22q-82 0 -135 29l37 82q68 -19 110 -19q107 0 156.5 57t70.5 167l168 868 q28 141 -19 209.5t-179 68.5q-166 0 -352 -149l-175 -891h-100z" />
<glyph unicode="&#x14c;" horiz-adv-x="1200" d="M238 465l98 504q43 227 175 354t361 127q154 0 247 -62t121.5 -168.5t0.5 -250.5l-98 -504q-92 -481 -535 -481q-153 0 -246.5 62t-122.5 168.5t-1 250.5zM346 481q-37 -194 25 -296.5t245 -102.5q185 0 287 102.5t139 296.5l93 471q37 194 -25.5 296t-247.5 102 q-183 0 -285 -102.5t-139 -295.5zM686 1708l16 88h500l-16 -88h-500z" />
<glyph unicode="&#x14d;" horiz-adv-x="1013" d="M197 412l57 297q40 208 151 319t314 111t279 -112t36 -318l-57 -297q-41 -210 -149 -319t-314 -109q-201 0 -278.5 112.5t-38.5 315.5zM299 422q-34 -171 15.5 -258.5t207.5 -87.5q86 0 148.5 25.5t104.5 79t68.5 122t45.5 166.5l45 229q34 173 -15.5 261t-207.5 88 q-87 0 -149.5 -25.5t-104.5 -79t-67.5 -122.5t-45.5 -169zM530 1401l17 88h500l-17 -88h-500z" />
<glyph unicode="&#x14e;" horiz-adv-x="1198" d="M238 465l98 504q43 227 175 354t361 127q154 0 247 -62t121.5 -168.5t0.5 -250.5l-98 -504q-92 -481 -535 -481q-153 0 -246.5 62t-122.5 168.5t-1 250.5zM346 481q-37 -194 25 -296.5t245 -102.5q185 0 287 102.5t139 296.5l93 471q37 194 -25.5 296t-247.5 102 q-183 0 -285 -102.5t-139 -295.5zM692.5 1737.5q-10.5 46.5 1.5 115.5l6 29h80l-6 -29q-35 -165 160 -165q88 0 144 37.5t75 127.5l6 29h82l-6 -29q-15 -71 -46.5 -120.5t-75.5 -75.5t-91 -36.5t-104 -10.5q-56 0 -100 12t-79.5 40.5t-46 75z" />
<glyph unicode="&#x14f;" horiz-adv-x="1013" d="M197 412l57 297q40 208 151 319t314 111t279 -112t36 -318l-57 -297q-41 -210 -149 -319t-314 -109q-201 0 -278.5 112.5t-38.5 315.5zM299 422q-34 -171 15.5 -258.5t207.5 -87.5q86 0 148.5 25.5t104.5 79t68.5 122t45.5 166.5l45 229q34 173 -15.5 261t-207.5 88 q-87 0 -149.5 -25.5t-104.5 -79t-67.5 -122.5t-45.5 -169zM533.5 1430.5q-10.5 46.5 1.5 115.5l6 29h80l-7 -29q-35 -166 160 -166q88 0 144 38t75 128l6 29h82l-6 -29q-15 -71 -46.5 -120.5t-75.5 -75.5t-91 -36.5t-104 -10.5q-56 0 -100 12t-79 40.5t-45.5 75z" />
<glyph unicode="&#x150;" horiz-adv-x="1200" d="M238 465l98 504q43 227 175 354t361 127q154 0 247 -62t121.5 -168.5t0.5 -250.5l-98 -504q-92 -481 -535 -481q-153 0 -246.5 62t-122.5 168.5t-1 250.5zM346 481q-37 -194 25 -296.5t245 -102.5q185 0 287 102.5t139 296.5l93 471q37 194 -25.5 296t-247.5 102 q-183 0 -285 -102.5t-139 -295.5zM772 1575l176 332h117l-219 -332h-74zM1001 1575l177 332h116l-219 -332h-74z" />
<glyph unicode="&#x151;" horiz-adv-x="1013" d="M197 412l57 297q40 208 151 319t314 111t279 -112t36 -318l-57 -297q-41 -210 -149 -319t-314 -109q-201 0 -278.5 112.5t-38.5 315.5zM299 422q-34 -171 15.5 -258.5t207.5 -87.5q86 0 148.5 25.5t104.5 79t68.5 122t45.5 166.5l45 229q34 173 -15.5 261t-207.5 88 q-87 0 -149.5 -25.5t-104.5 -79t-67.5 -122.5t-45.5 -169zM596 1268l176 331h117l-219 -331h-74zM825 1268l176 331h117l-219 -331h-74z" />
<glyph unicode="&#x152;" horiz-adv-x="1779" d="M238 465l98 504q92 481 547 481q119 0 201.5 -47t111.5 -131l31 162h706l-18 -97h-602l-107 -549h563l-18 -96h-563l-117 -596h602l-18 -96h-707l33 164q-131 -180 -383 -180q-217 0 -309.5 130t-50.5 351zM346 481q-37 -194 25 -296.5t245 -102.5q185 0 287 102.5 t139 296.5l93 471q77 398 -273 398q-183 0 -285 -102.5t-139 -295.5z" />
<glyph unicode="&#x153;" horiz-adv-x="1675" d="M197 412l57 297q40 207 153.5 318.5t317.5 111.5q248 0 307 -181q125 181 373 181q384 0 301 -430l-37 -187h-672l-26 -141q-15 -66 -9 -122t29 -96.5t77.5 -63.5t137.5 -23q94 0 182.5 27.5t151.5 68.5l25 -76q-176 -112 -377 -112q-253 0 -307 190q-125 -190 -377 -190 q-200 0 -273.5 112t-33.5 316zM299 422q-34 -171 15.5 -258.5t207.5 -87.5q159 0 243 89.5t118 266.5l51 266q34 173 -15.5 261t-207.5 88q-87 0 -149.5 -25.5t-104.5 -79t-67.5 -122.5t-45.5 -169zM1016 608h573l19 90q35 172 -15 260.5t-207 88.5q-152 0 -235 -85.5 t-117 -252.5z" />
<glyph unicode="&#x154;" horiz-adv-x="1169" d="M199 0l278 1434h359q201 0 302 -88t101 -232q0 -218 -95 -339t-280 -165l201 -610h-117l-194 594h-336l-115 -594h-104zM438 690h258q105 0 183.5 22t126 58t76 90.5t38.5 110.5t10 127q0 121 -75.5 180t-243.5 59h-248zM854 1575l178 332h115l-219 -332h-74z" />
<glyph unicode="&#x155;" horiz-adv-x="735" d="M174 0l217 1120h78l-20 -180q29 32 65 63t86.5 63.5t114 52.5t127.5 20q41 0 82 -13l-37 -104q-44 12 -84 12q-103 0 -204.5 -56.5t-158.5 -125.5l-166 -852h-100zM598 1268l178 331h115l-219 -331h-74z" />
<glyph unicode="&#x156;" horiz-adv-x="1169" d="M199 0l278 1434h359q201 0 302 -88t101 -232q0 -218 -95 -339t-280 -165l201 -610h-117l-194 594h-336l-115 -594h-104zM438 690h258q105 0 183.5 22t126 58t76 90.5t38.5 110.5t10 127q0 121 -75.5 180t-243.5 59h-248zM449 -420q47 46 67.5 81.5t34.5 94.5h-68l29 148 h141l-28 -148q-11 -60 -39 -110t-88 -107z" />
<glyph unicode="&#x157;" horiz-adv-x="735" d="M84 -420q47 46 67.5 81.5t34.5 94.5h-67l28 148h142l-29 -148q-11 -60 -39 -110t-88 -107zM174 0l217 1120h78l-20 -180q29 32 65 63t86.5 63.5t114 52.5t127.5 20q41 0 82 -13l-37 -104q-44 12 -84 12q-103 0 -204.5 -56.5t-158.5 -125.5l-166 -852h-100z" />
<glyph unicode="&#x158;" horiz-adv-x="1169" d="M199 0l278 1434h359q201 0 302 -88t101 -232q0 -218 -95 -339t-280 -165l201 -610h-117l-194 594h-336l-115 -594h-104zM438 690h258q105 0 183.5 22t126 58t76 90.5t38.5 110.5t10 127q0 121 -75.5 180t-243.5 59h-248zM659 1907h76l148 -234l237 234h88l-286 -332h-103 z" />
<glyph unicode="&#x159;" horiz-adv-x="735" d="M174 0l217 1120h78l-20 -180q29 32 65 63t86.5 63.5t114 52.5t127.5 20q41 0 82 -13l-37 -104q-44 12 -84 12q-103 0 -204.5 -56.5t-158.5 -125.5l-166 -852h-100zM432 1599h76l147 -233l238 233h88l-287 -331h-102z" />
<glyph unicode="&#x15a;" horiz-adv-x="1040" d="M117 117l61 84q71 -50 164 -83.5t188 -33.5q93 0 165.5 21.5t116 55t71.5 80.5t38.5 92.5t10.5 96.5q0 62 -26 109.5t-68 76.5t-96 55.5t-110 45.5t-110 47t-96 60t-68 85t-26 121q0 94 25.5 167.5t68 120.5t103 77t126 42.5t142.5 12.5q209 0 370 -125l-57 -88 q-140 113 -322 113q-183 0 -268.5 -84.5t-85.5 -223.5q0 -61 33.5 -106.5t86.5 -74t117.5 -53t129 -53.5t117.5 -66t86.5 -99t33.5 -144q0 -71 -14 -133.5t-51 -124t-94 -105.5t-150 -71.5t-213 -27.5q-117 0 -224 40t-175 93zM782 1575l179 332h114l-219 -332h-74z" />
<glyph unicode="&#x15b;" horiz-adv-x="872" d="M96 86l56 76q147 -90 290 -90q89 0 155 22t102 61t52.5 84t16.5 99q0 55 -27.5 96t-72 65.5t-98 44.5t-107 41.5t-98 48.5t-72 72.5t-27.5 106.5q0 154 102.5 240t286.5 86q96 0 173.5 -26.5t125.5 -65.5l-45 -74q-116 78 -256 78q-149 0 -218.5 -63.5t-69.5 -162.5 q0 -48 27.5 -83.5t72 -58t98 -42t106.5 -42.5t97.5 -52t72 -77.5t27.5 -113.5q0 -79 -22 -143.5t-69.5 -117.5t-133.5 -82t-205 -29q-97 0 -189.5 31t-150.5 71zM623 1268l178 331h114l-219 -331h-73z" />
<glyph unicode="&#x15c;" horiz-adv-x="1040" d="M117 117l61 84q71 -50 164 -83.5t188 -33.5q93 0 165.5 21.5t116 55t71.5 80.5t38.5 92.5t10.5 96.5q0 62 -26 109.5t-68 76.5t-96 55.5t-110 45.5t-110 47t-96 60t-68 85t-26 121q0 94 25.5 167.5t68 120.5t103 77t126 42.5t142.5 12.5q209 0 370 -125l-57 -88 q-140 113 -322 113q-183 0 -268.5 -84.5t-85.5 -223.5q0 -61 33.5 -106.5t86.5 -74t117.5 -53t129 -53.5t117.5 -66t86.5 -99t33.5 -144q0 -71 -14 -133.5t-51 -124t-94 -105.5t-150 -71.5t-213 -27.5q-117 0 -224 40t-175 93zM563 1575l287 332h102l160 -332h-76l-147 233 l-238 -233h-88z" />
<glyph unicode="&#x15d;" horiz-adv-x="872" d="M96 86l56 76q147 -90 290 -90q89 0 155 22t102 61t52.5 84t16.5 99q0 55 -27.5 96t-72 65.5t-98 44.5t-107 41.5t-98 48.5t-72 72.5t-27.5 106.5q0 154 102.5 240t286.5 86q96 0 173.5 -26.5t125.5 -65.5l-45 -74q-116 78 -256 78q-149 0 -218.5 -63.5t-69.5 -162.5 q0 -48 27.5 -83.5t72 -58t98 -42t106.5 -42.5t97.5 -52t72 -77.5t27.5 -113.5q0 -79 -22 -143.5t-69.5 -117.5t-133.5 -82t-205 -29q-97 0 -189.5 31t-150.5 71zM420 1268l287 331h102l160 -331h-76l-148 233l-237 -233h-88z" />
<glyph unicode="&#x15e;" horiz-adv-x="1040" d="M117 117l61 84q71 -50 164 -83.5t188 -33.5q93 0 165.5 21.5t116 55t71.5 80.5t38.5 92.5t10.5 96.5q0 62 -26 109.5t-68 76.5t-96 55.5t-110 45.5t-110 47t-96 60t-68 85t-26 121q0 94 25.5 167.5t68 120.5t103 77t126 42.5t142.5 12.5q209 0 370 -125l-57 -88 q-140 113 -322 113q-183 0 -268.5 -84.5t-85.5 -223.5q0 -61 33.5 -106.5t86.5 -74t117.5 -53t129 -53.5t117.5 -66t86.5 -99t33.5 -144q0 -71 -14 -133.5t-51 -124t-94.5 -105.5t-151 -71.5t-213.5 -27.5l-53 -113q41 8 74 8q57 0 92 -27.5t35 -84.5q0 -185 -224 -185 q-71 0 -145 31l29 63q67 -22 118 -22q71 0 106.5 20.5t35.5 75.5q0 62 -86 62q-37 0 -78 -13l-37 33l59 156q-97 11 -182 47.5t-141 81.5z" />
<glyph unicode="&#x15f;" horiz-adv-x="872" d="M96 86l56 76q147 -90 290 -90q89 0 155 22t102 61t52.5 84t16.5 99q0 55 -27.5 96t-72 65.5t-98 44.5t-107 41.5t-98 48.5t-72 72.5t-27.5 106.5q0 154 102.5 240t286.5 86q96 0 173.5 -26.5t125.5 -65.5l-45 -74q-116 78 -256 78q-149 0 -218.5 -63.5t-69.5 -162.5 q0 -48 27.5 -83.5t72 -58t98 -42t106.5 -42.5t97.5 -52t72 -77.5t27.5 -113.5q0 -79 -21.5 -143t-69 -117t-132 -82t-201.5 -30l-53 -113q41 8 74 8q57 0 92 -27.5t35 -84.5q0 -185 -223 -185q-72 0 -146 31l29 63q67 -22 119 -22q71 0 106 20.5t35 75.5q0 62 -86 62 q-37 0 -78 -13l-37 33l60 156q-81 10 -154 38t-119 60z" />
<glyph unicode="&#x160;" horiz-adv-x="1040" d="M117 117l61 84q71 -50 164 -83.5t188 -33.5q93 0 165.5 21.5t116 55t71.5 80.5t38.5 92.5t10.5 96.5q0 62 -26 109.5t-68 76.5t-96 55.5t-110 45.5t-110 47t-96 60t-68 85t-26 121q0 94 25.5 167.5t68 120.5t103 77t126 42.5t142.5 12.5q209 0 370 -125l-57 -88 q-140 113 -322 113q-183 0 -268.5 -84.5t-85.5 -223.5q0 -61 33.5 -106.5t86.5 -74t117.5 -53t129 -53.5t117.5 -66t86.5 -99t33.5 -144q0 -71 -14 -133.5t-51 -124t-94 -105.5t-150 -71.5t-213 -27.5q-117 0 -224 40t-175 93zM633 1913h76l147 -234l238 234h88l-287 -332 h-102z" />
<glyph unicode="&#x161;" horiz-adv-x="872" d="M96 86l56 76q147 -90 290 -90q89 0 155 22t102 61t52.5 84t16.5 99q0 55 -27.5 96t-72 65.5t-98 44.5t-107 41.5t-98 48.5t-72 72.5t-27.5 106.5q0 154 102.5 240t286.5 86q96 0 173.5 -26.5t125.5 -65.5l-45 -74q-116 78 -256 78q-149 0 -218.5 -63.5t-69.5 -162.5 q0 -48 27.5 -83.5t72 -58t98 -42t106.5 -42.5t97.5 -52t72 -77.5t27.5 -113.5q0 -79 -22 -143.5t-69.5 -117.5t-133.5 -82t-205 -29q-97 0 -189.5 31t-150.5 71zM492 1599h75l148 -233l237 233h88l-286 -331h-103z" />
<glyph unicode="&#x162;" horiz-adv-x="1075" d="M334 -387l33 63q67 -22 118 -22q71 0 106.5 20.5t35.5 75.5q0 62 -86 62q-37 0 -78 -13l-37 33l59 168l260 1337h-401l18 97h908l-19 -97h-401l-260 -1337h-23l-61 -129q41 8 74 8q57 0 92 -27t35 -85q0 -185 -224 -185q-75 0 -149 31z" />
<glyph unicode="&#x163;" horiz-adv-x="768" d="M244 -387l32 63q67 -22 119 -22q71 0 106.5 20.5t35.5 75.5q0 62 -86 62q-37 0 -78 -13l-37 33l70 180q-72 29 -91 107.5t9 208.5l137 704h-201l14 76l203 12l45 232l103 14l-47 -246h303l-17 -88h-303l-143 -737q-23 -112 6 -160.5t131 -48.5q55 0 137 20l8 -77 q-81 -35 -174 -35q-21 0 -49 4l-61 -127q41 8 73 8q57 0 92 -27t35 -85q0 -185 -223 -185q-75 0 -149 31z" />
<glyph unicode="&#x164;" horiz-adv-x="1075" d="M344 1337l18 97h908l-19 -97h-401l-260 -1337h-105l260 1337h-401zM649 1907h76l147 -234l238 234h88l-287 -332h-102z" />
<glyph unicode="&#x165;" horiz-adv-x="768" d="M260 1032l14 76l203 12l45 232l105 14l-49 -246h303l-17 -88h-303l-143 -737q-23 -112 6 -160.5t131 -48.5q55 0 137 20l10 -77q-28 -15 -73.5 -25t-85.5 -10q-145 0 -199.5 74t-21.5 243l139 721h-201zM784 1251l101 332h108l-137 -332h-72z" />
<glyph unicode="&#x166;" horiz-adv-x="1075" d="M344 1337l18 97h908l-19 -97h-401l-92 -469h276l-16 -88h-277l-151 -780h-105l152 780h-272l16 88h272l92 469h-401z" />
<glyph unicode="&#x167;" horiz-adv-x="768" d="M205 659l16 89h185l55 284h-201l16 76l203 12l45 232l103 14l-47 -246h303l-19 -88h-303l-55 -284h280l-16 -89h-281l-71 -364q-23 -111 6.5 -160t132.5 -49q52 0 137 20l8 -77q-81 -35 -174 -35q-147 0 -192 79t-10 255l63 331h-184z" />
<glyph unicode="&#x168;" horiz-adv-x="1241" d="M258 438l193 996h106l-190 -979q-36 -184 24 -278.5t246 -94.5t282 94.5t132 278.5l190 979h102l-192 -996q-43 -226 -168 -340t-362 -114q-216 0 -310 118.5t-53 335.5zM657 1651q97 159 211 159q39 0 75 -17t59.5 -38t54.5 -38t61 -17q36 0 64.5 22t70.5 80l62 -33 q-98 -157 -211 -157q-32 0 -61 11.5t-51 27.5t-42.5 32t-44.5 27.5t-49 11.5q-66 0 -135 -98z" />
<glyph unicode="&#x169;" horiz-adv-x="1110" d="M233 348l150 772h100l-147 -762q-28 -141 19.5 -209.5t179.5 -68.5q166 0 352 149l174 891h100l-217 -1120h-78l15 152q-30 -27 -46.5 -40t-59 -42t-78.5 -45t-90 -29.5t-109 -13.5q-172 0 -235 98.5t-30 267.5zM496 1343q97 160 211 160q39 0 75 -17t59 -38t54 -38 t61 -17q36 0 65 22t71 80l61 -33q-98 -157 -211 -157q-32 0 -61 11.5t-51 27.5t-42.5 32t-44.5 27.5t-49 11.5q-66 0 -135 -98z" />
<glyph unicode="&#x16a;" horiz-adv-x="1241" d="M258 438l193 996h106l-190 -979q-36 -184 24 -278.5t246 -94.5t282 94.5t132 278.5l190 979h102l-192 -996q-43 -226 -168 -340t-362 -114q-216 0 -310 118.5t-53 335.5zM721 1708l16 88h500l-16 -88h-500z" />
<glyph unicode="&#x16b;" horiz-adv-x="1110" d="M233 348l150 772h100l-147 -762q-28 -141 19.5 -209.5t179.5 -68.5q166 0 352 149l174 891h100l-217 -1120h-78l15 152q-30 -27 -46.5 -40t-59 -42t-78.5 -45t-90 -29.5t-109 -13.5q-172 0 -235 98.5t-30 267.5zM563 1401l17 88h499l-16 -88h-500z" />
<glyph unicode="&#x16c;" horiz-adv-x="1241" d="M258 438l193 996h106l-190 -979q-36 -184 24 -278.5t246 -94.5t282 94.5t132 278.5l190 979h102l-192 -996q-43 -226 -168 -340t-362 -114q-216 0 -310 118.5t-53 335.5zM729.5 1737.5q-10.5 46.5 1.5 115.5l6 29h80l-6 -29q-35 -165 160 -165q88 0 144 37.5t75 127.5 l6 29h82l-6 -29q-15 -71 -46.5 -120.5t-76 -75.5t-91.5 -36.5t-104 -10.5q-56 0 -100 12t-79 40.5t-45.5 75z" />
<glyph unicode="&#x16d;" horiz-adv-x="1110" d="M233 348l150 772h100l-147 -762q-28 -141 19.5 -209.5t179.5 -68.5q166 0 352 149l174 891h100l-217 -1120h-78l15 152q-30 -27 -46.5 -40t-59 -42t-78.5 -45t-90 -29.5t-109 -13.5q-172 0 -235 98.5t-30 267.5zM569.5 1430.5q-10.5 46.5 1.5 115.5l7 29h79l-6 -29 q-35 -166 160 -166q88 0 144 38t75 128l6 29h82l-6 -29q-15 -71 -46.5 -120.5t-75.5 -75.5t-91 -36.5t-104 -10.5q-56 0 -100 12t-79.5 40.5t-46 75z" />
<glyph unicode="&#x16e;" horiz-adv-x="1241" d="M258 438l193 996h106l-190 -979q-36 -184 24 -278.5t246 -94.5t282 94.5t132 278.5l190 979h102l-192 -996q-43 -226 -168 -340t-362 -114q-216 0 -310 118.5t-53 335.5zM774 1702q0 107 65 171t175 64q77 0 123.5 -42t46.5 -115q0 -108 -65 -172t-175 -64 q-77 0 -123.5 42.5t-46.5 115.5zM854 1716q0 -45 26 -70.5t76 -25.5q67 0 108.5 40.5t41.5 104.5q0 45 -26.5 71t-75.5 26q-68 0 -109 -41t-41 -105z" />
<glyph unicode="&#x16f;" horiz-adv-x="1112" d="M233 348l150 772h100l-147 -762q-28 -141 19.5 -209.5t179.5 -68.5q166 0 352 149l174 891h100l-217 -1120h-78l15 152q-30 -27 -46.5 -40t-59 -42t-78.5 -45t-90 -29.5t-109 -13.5q-172 0 -235 98.5t-30 267.5zM616 1395q0 107 65 171t175 64q77 0 123.5 -42t46.5 -115 q0 -108 -65 -172t-175 -64q-77 0 -123.5 42.5t-46.5 115.5zM696 1409q0 -45 26.5 -70.5t76.5 -25.5q67 0 108 40.5t41 104.5q0 45 -26.5 70.5t-75.5 25.5q-68 0 -109 -40.5t-41 -104.5z" />
<glyph unicode="&#x170;" horiz-adv-x="1241" d="M258 438l193 996h106l-190 -979q-36 -184 24 -278.5t246 -94.5t282 94.5t132 278.5l190 979h102l-192 -996q-43 -226 -168 -340t-362 -114q-216 0 -310 118.5t-53 335.5zM762 1575l176 332h117l-219 -332h-74zM991 1575l176 332h117l-219 -332h-74z" />
<glyph unicode="&#x171;" horiz-adv-x="1110" d="M233 348l150 772h100l-147 -762q-28 -141 19.5 -209.5t179.5 -68.5q166 0 352 149l174 891h100l-217 -1120h-78l15 152q-30 -27 -46.5 -40t-59 -42t-78.5 -45t-90 -29.5t-109 -13.5q-172 0 -235 98.5t-30 267.5zM633 1268l176 331h117l-219 -331h-74zM862 1268l176 331 h117l-219 -331h-74z" />
<glyph unicode="&#x172;" horiz-adv-x="1241" d="M258 438l193 996h106l-190 -979q-36 -184 24 -278.5t246 -94.5t282 94.5t132 278.5l190 979h105l-195 -996q-52 -268 -240 -387q-149 -94 -218.5 -171.5t-69.5 -149.5t82 -72q51 0 104 20l16 -61q-68 -35 -153 -35q-67 0 -105.5 31t-38.5 92q0 149 201 289 q-58 -10 -113 -10q-217 0 -308.5 118t-49.5 336z" />
<glyph unicode="&#x173;" d="M218.5 202.5q-7.5 67.5 10.5 147.5l154 770h100l-147 -762q-28 -141 19.5 -209.5t179.5 -68.5q166 0 352 149l174 891h100l-217 -1120q-126 -57 -196 -127.5t-70 -142.5t82 -72q51 0 104 20l17 -61q-72 -35 -154 -35q-67 0 -105 31t-38 92q0 92 82 178.5t200 136.5 l15 132q-195 -170 -389 -170q-88 0 -148.5 27.5t-89 76.5t-36 116.5z" />
<glyph unicode="&#x174;" horiz-adv-x="1683" d="M342 1434h109l49 -1297h8l555 1297h106l52 -1297h8l553 1297h116l-628 -1434h-135l-54 1217h-8l-524 -1217h-135zM877 1575l286 332h103l159 -332h-75l-148 233l-237 -233h-88z" />
<glyph unicode="&#x175;" horiz-adv-x="1429" d="M276 1120h99l63 -1005h8l437 1005h86l55 -1005h8l449 1005h106l-518 -1120h-123l-53 903h-8l-402 -903h-123zM678 1268l287 331h102l160 -331h-76l-147 233l-238 -233h-88z" />
<glyph unicode="&#x176;" horiz-adv-x="1120" d="M338 1434h111l233 -762h8l527 762h124l-620 -871l-109 -563h-104l108 563zM586 1575l286 332h103l160 -332h-76l-148 233l-237 -233h-88z" />
<glyph unicode="&#x177;" d="M154 -326l55 72q73 -44 133 -64t156 -20q277 0 338 301l38 182q-36 -31 -63 -51t-77.5 -50t-110.5 -46t-125 -16q-172 0 -235 98.5t-30 267.5l150 772h100l-147 -762q-28 -141 19.5 -209.5t179.5 -68.5q166 0 352 149l174 891h100l-215 -1104q-15 -79 -36.5 -142 t-58 -121.5t-86 -97.5t-122.5 -62t-164 -23q-99 0 -187.5 31.5t-137.5 72.5zM528 1268l287 331h103l159 -331h-76l-147 233l-238 -233h-88z" />
<glyph unicode="&#x178;" horiz-adv-x="1120" d="M338 1434h111l233 -762h8l527 762h124l-620 -871l-109 -563h-104l108 563zM643 1638l29 144h139l-29 -144h-139zM979 1638l29 144h139l-29 -144h-139z" />
<glyph unicode="&#x179;" horiz-adv-x="1042" d="M115 0l16 80l932 1259h-660l19 95h786l-14 -78l-934 -1262h688l-18 -94h-815zM788 1575l179 332h114l-219 -332h-74z" />
<glyph unicode="&#x17a;" horiz-adv-x="944" d="M98 0l17 84l807 948h-600l16 88h721l-15 -78l-804 -950h634l-18 -92h-758zM635 1268l178 331h115l-219 -331h-74z" />
<glyph unicode="&#x17b;" horiz-adv-x="1042" d="M115 0l16 80l932 1259h-660l19 95h786l-14 -78l-934 -1262h688l-18 -94h-815zM772 1647l29 143h135l-29 -143h-135z" />
<glyph unicode="&#x17c;" horiz-adv-x="944" d="M98 0l17 84l807 948h-600l16 88h721l-15 -78l-804 -950h634l-18 -92h-758zM651 1339l29 144h135l-29 -144h-135z" />
<glyph unicode="&#x17d;" horiz-adv-x="1042" d="M115 0l16 80l932 1259h-660l19 95h786l-14 -78l-934 -1262h688l-18 -94h-815zM618 1913h76l148 -234l237 234h88l-286 -332h-103z" />
<glyph unicode="&#x17e;" horiz-adv-x="944" d="M98 0l17 84l807 948h-600l16 88h721l-15 -78l-804 -950h634l-18 -92h-758zM508 1599h76l147 -233l238 233h88l-287 -331h-102z" />
<glyph unicode="&#x192;" horiz-adv-x="974" d="M-160 -393l27 76q68 -21 133 -21q103 0 155 58t68 165l158 1004h-193l9 74l198 14l37 242q25 162 108 245.5t222 83.5q90 0 147 -32l-28 -80q-55 20 -121 20q-191 0 -225 -227l-41 -252h299l-17 -88h-297l-153 -983q-27 -173 -103 -254.5t-223 -81.5q-87 0 -160 37z" />
<glyph unicode="&#x1e2;" horiz-adv-x="1622" d="M63 0l756 1434h957l-19 -97h-833l75 -549h613l-19 -96h-583l73 -596h435l-19 -96h-500l-55 418h-549l-219 -418h-113zM440 514h496l-96 756h-9zM1053 1708l16 88h500l-17 -88h-499z" />
<glyph unicode="&#x1e3;" horiz-adv-x="1662" d="M168 256q0 103 44 183.5t116.5 132t173 85t205 47t221.5 13.5l16 86q48 244 -227 244q-81 0 -155 -20t-173 -60l-24 80q200 92 368 92q251 0 305 -164q122 164 355 164q384 0 301 -430l-37 -187h-670l-31 -162q-25 -131 29.5 -207.5t208.5 -76.5q100 0 173.5 23t160.5 73 l28 -76q-180 -112 -378 -112q-260 0 -306 192q-163 -192 -401 -192q-141 0 -222 77t-81 195zM270 264q0 -89 61 -143.5t165 -54.5q116 0 212 64.5t134 137.5l69 367q-104 0 -194 -11t-174 -38t-143 -68t-94.5 -106t-35.5 -148zM864 1401l17 88h499l-16 -88h-500zM1006 608 h571l18 90q35 173 -14 261t-205 88q-151 0 -233.5 -84t-116.5 -248z" />
<glyph unicode="&#x1fa;" horiz-adv-x="1175" d="M66 0l718 1360q-47 14 -73.5 53t-26.5 96q0 106 66 171t170 65q78 0 126 -42.5t48 -115.5q0 -86 -48.5 -146t-127.5 -81l192 -1360h-111l-55 418h-549l-219 -418h-110zM440 514h496l-96 756h-9zM762 1524q0 -45 26.5 -71t75.5 -26q68 0 109 41t41 105q0 45 -26.5 70.5 t-76.5 25.5q-68 0 -108.5 -40.5t-40.5 -104.5zM909 1806l178 301h111l-215 -301h-74z" />
<glyph unicode="&#x1fb;" horiz-adv-x="1087" d="M195 399l63 324q39 200 149.5 308t288.5 108q106 0 179.5 -44.5t113.5 -105.5l47 131h78l-160 -825q-22 -125 -10.5 -171t53.5 -46q43 0 88 20l2 -69q-53 -35 -122 -35q-52 0 -92 32.5t-44 102.5q-68 -63 -149.5 -104t-196.5 -41q-176 0 -251 109t-37 306zM297 410 q-33 -169 17.5 -251.5t201.5 -82.5q94 0 183 51t145 115l129 659q-101 146 -268 146q-151 0 -233.5 -83t-115.5 -251zM582 1368q0 106 69 171t174 65l33 -2l137 247h111l-180 -270q67 -39 67 -133q0 -106 -69 -171t-174 -65q-77 0 -122.5 42.5t-45.5 115.5zM662 1382 q0 -45 26.5 -70.5t75.5 -25.5q68 0 108.5 41t40.5 105q0 45 -26 70.5t-76 25.5q-68 0 -108.5 -41t-40.5 -105z" />
<glyph unicode="&#x1fc;" horiz-adv-x="1622" d="M63 0l756 1434h957l-19 -97h-833l75 -549h613l-19 -96h-583l73 -596h435l-19 -96h-500l-55 418h-549l-219 -418h-113zM440 514h496l-96 756h-9zM1171 1575l179 332h114l-219 -332h-74z" />
<glyph unicode="&#x1fd;" horiz-adv-x="1662" d="M168 256q0 103 44 183.5t116.5 132t173 85t205 47t221.5 13.5l16 86q48 244 -227 244q-81 0 -155 -20t-173 -60l-24 80q200 92 368 92q251 0 305 -164q122 164 355 164q384 0 301 -430l-37 -187h-670l-31 -162q-25 -131 29.5 -207.5t208.5 -76.5q100 0 173.5 23t160.5 73 l28 -76q-180 -112 -378 -112q-260 0 -306 192q-163 -192 -401 -192q-141 0 -222 77t-81 195zM270 264q0 -89 61 -143.5t165 -54.5q116 0 212 64.5t134 137.5l69 367q-104 0 -194 -11t-174 -38t-143 -68t-94.5 -106t-35.5 -148zM1006 608h571l18 90q35 173 -14 261t-205 88 q-151 0 -233.5 -84t-116.5 -248zM1024 1268l178 331h115l-219 -331h-74z" />
<glyph unicode="&#x1fe;" horiz-adv-x="1200" d="M227 -74l90 154q-131 125 -79 385l98 504q43 227 175 354t361 127q139 0 230 -51l63 108h86l-90 -153q132 -126 80 -385l-98 -504q-92 -481 -535 -481q-145 0 -231 51l-64 -109h-86zM346 481q-40 -207 29 -305l672 1131q-67 43 -185 43q-183 0 -285 -102.5t-139 -295.5z M430 125q67 -43 186 -43q185 0 287 102.5t139 296.5l93 471q39 206 -33 305zM842 1575l178 332h115l-220 -332h-73z" />
<glyph unicode="&#x1ff;" horiz-adv-x="1013" d="M195 -74l75 129q-122 105 -73 357l57 297q40 208 151 319t314 111q100 0 178 -33l55 94h84l-78 -131q124 -104 76 -360l-57 -297q-41 -210 -149 -319t-314 -109q-104 0 -182 32l-53 -90h-84zM299 422q-39 -192 27 -275l520 875q-55 25 -135 25q-87 0 -149.5 -25.5 t-104.5 -79t-67.5 -122.5t-45.5 -169zM383 102q51 -26 139 -26q86 0 148.5 25.5t104.5 79t68.5 122t45.5 166.5l45 229q39 195 -31 279zM688 1268l178 331h115l-219 -331h-74z" />
<glyph unicode="&#x218;" horiz-adv-x="1040" d="M117 117l61 84q71 -50 164 -83.5t188 -33.5q93 0 165.5 21.5t116 55t71.5 80.5t38.5 92.5t10.5 96.5q0 62 -26 109.5t-68 76.5t-96 55.5t-110 45.5t-110 47t-96 60t-68 85t-26 121q0 94 25.5 167.5t68 120.5t103 77t126 42.5t142.5 12.5q209 0 370 -125l-57 -88 q-140 113 -322 113q-183 0 -268.5 -84.5t-85.5 -223.5q0 -61 33.5 -106.5t86.5 -74t117.5 -53t129 -53.5t117.5 -66t86.5 -99t33.5 -144q0 -71 -14 -133.5t-51 -124t-94 -105.5t-150 -71.5t-213 -27.5q-117 0 -224 40t-175 93zM373 -420q47 46 67.5 81.5t34.5 94.5h-67 l28 148h142l-29 -148q-11 -60 -39 -110t-88 -107z" />
<glyph unicode="&#x219;" horiz-adv-x="872" d="M96 86l56 76q147 -90 290 -90q89 0 155 22t102 61t52.5 84t16.5 99q0 55 -27.5 96t-72 65.5t-98 44.5t-107 41.5t-98 48.5t-72 72.5t-27.5 106.5q0 154 102.5 240t286.5 86q96 0 173.5 -26.5t125.5 -65.5l-45 -74q-116 78 -256 78q-149 0 -218.5 -63.5t-69.5 -162.5 q0 -48 27.5 -83.5t72 -58t98 -42t106.5 -42.5t97.5 -52t72 -77.5t27.5 -113.5q0 -79 -22 -143.5t-69.5 -117.5t-133.5 -82t-205 -29q-97 0 -189.5 31t-150.5 71zM285 -420q47 46 67.5 81.5t34.5 94.5h-68l29 148h141l-28 -148q-11 -60 -39 -110t-88 -107z" />
<glyph unicode="&#x21a;" horiz-adv-x="1075" d="M344 1337l18 97h908l-19 -97h-401l-260 -1337h-105l260 1337h-401zM383 -420q47 46 67.5 81.5t34.5 94.5h-67l28 148h142l-29 -148q-11 -60 -39 -110t-88 -107z" />
<glyph unicode="&#x21b;" horiz-adv-x="768" d="M260 1032l14 76l203 12l45 232l105 14l-49 -246h303l-17 -88h-303l-143 -737q-23 -112 6 -160.5t131 -48.5q55 0 137 20l10 -77q-28 -15 -73.5 -25t-85.5 -10q-145 0 -199.5 74t-21.5 243l139 721h-201zM317 -420q47 46 68.5 82t34.5 94h-68l29 148h141l-28 -148 q-11 -60 -39 -110t-88 -107z" />
<glyph unicode="&#x237;" horiz-adv-x="530" d="M-133 -393l39 82q65 -19 108 -19q185 0 228 224l219 1138h-201l14 88h306l-234 -1206q-16 -83 -41 -143t-65.5 -104.5t-99.5 -66.5t-138 -22q-82 0 -135 29z" />
<glyph unicode="&#x2c6;" horiz-adv-x="897" d="M420 1268l287 331h102l160 -331h-76l-148 233l-237 -233h-88z" />
<glyph unicode="&#x2c7;" horiz-adv-x="897" d="M485 1599h76l148 -233l237 233h88l-286 -331h-103z" />
<glyph unicode="&#x2d8;" horiz-adv-x="741" d="M397.5 1430.5q-10.5 46.5 1.5 115.5l7 29h79l-6 -29q-35 -166 160 -166q88 0 144 38t75 128l6 29h82l-6 -29q-15 -71 -46.5 -120.5t-75.5 -75.5t-91 -36.5t-104 -10.5q-56 0 -100 12t-79.5 40.5t-46 75z" />
<glyph unicode="&#x2d9;" horiz-adv-x="401" d="M393 1339l29 144h135l-29 -144h-135z" />
<glyph unicode="&#x2da;" horiz-adv-x="874" d="M510 1395q0 107 65 171t175 64q77 0 123.5 -42t46.5 -115q0 -108 -65 -172t-175 -64q-77 0 -123.5 42.5t-46.5 115.5zM590 1409q0 -45 26 -70.5t76 -25.5q67 0 108.5 40.5t41.5 104.5q0 45 -27 70.5t-76 25.5q-68 0 -108.5 -40.5t-40.5 -104.5z" />
<glyph unicode="&#x2db;" horiz-adv-x="894" d="M240 -295q0 92 76 170t184 125h100q-126 -58 -196 -128.5t-70 -141.5q0 -72 82 -72q51 0 104 20l17 -61q-72 -35 -154 -35q-67 0 -105 31t-38 92z" />
<glyph unicode="&#x2dc;" horiz-adv-x="784" d="M336 1343q97 160 211 160q39 0 75 -17t59.5 -38t54.5 -38t61 -17q36 0 64.5 22t70.5 80l61 -33q-98 -157 -211 -157q-39 0 -74.5 17t-58.5 38t-53.5 38t-60.5 17q-67 0 -136 -98z" />
<glyph unicode="&#x2dd;" horiz-adv-x="798" d="M418 1268l176 331h117l-219 -331h-74zM647 1268l176 331h117l-219 -331h-74z" />
<glyph unicode="&#x1e80;" horiz-adv-x="1683" d="M342 1434h109l49 -1297h8l555 1297h106l52 -1297h8l553 1297h116l-628 -1434h-135l-54 1217h-8l-524 -1217h-135zM1036 1907h111l55 -332h-74z" />
<glyph unicode="&#x1e81;" horiz-adv-x="1429" d="M276 1120h99l63 -1005h8l437 1005h86l55 -1005h8l449 1005h106l-518 -1120h-123l-53 903h-8l-402 -903h-123zM827 1599h111l55 -331h-73z" />
<glyph unicode="&#x1e82;" horiz-adv-x="1683" d="M342 1434h109l49 -1297h8l555 1297h106l52 -1297h8l553 1297h116l-628 -1434h-135l-54 1217h-8l-524 -1217h-135zM1094 1575l178 332h114l-219 -332h-73z" />
<glyph unicode="&#x1e83;" horiz-adv-x="1429" d="M276 1120h99l63 -1005h8l437 1005h86l55 -1005h8l449 1005h106l-518 -1120h-123l-53 903h-8l-402 -903h-123zM891 1268l178 331h115l-219 -331h-74z" />
<glyph unicode="&#x1e84;" horiz-adv-x="1683" d="M342 1434h109l49 -1297h8l555 1297h106l52 -1297h8l553 1297h116l-628 -1434h-135l-54 1217h-8l-524 -1217h-135zM928 1638l28 144h140l-29 -144h-139zM1264 1638l28 144h140l-29 -144h-139z" />
<glyph unicode="&#x1e85;" horiz-adv-x="1429" d="M276 1120h99l63 -1005h8l437 1005h86l55 -1005h8l449 1005h106l-518 -1120h-123l-53 903h-8l-402 -903h-123zM725 1331l29 144h139l-29 -144h-139zM1061 1331l29 144h139l-29 -144h-139z" />
<glyph unicode="&#x1ef2;" horiz-adv-x="1120" d="M338 1434h111l233 -762h8l527 762h124l-620 -871l-109 -563h-104l108 563zM754 1907h110l56 -332h-74z" />
<glyph unicode="&#x1ef3;" d="M154 -326l55 72q73 -44 133 -64t156 -20q277 0 338 301l38 182q-36 -31 -63 -51t-77.5 -50t-110.5 -46t-125 -16q-172 0 -235 98.5t-30 267.5l150 772h100l-147 -762q-28 -141 19.5 -209.5t179.5 -68.5q166 0 352 149l174 891h100l-215 -1104q-15 -79 -36.5 -142 t-58 -121.5t-86 -97.5t-122.5 -62t-164 -23q-99 0 -187.5 31.5t-137.5 72.5zM680 1599h111l55 -331h-74z" />
<glyph unicode="&#x2000;" horiz-adv-x="1053" />
<glyph unicode="&#x2001;" horiz-adv-x="2107" />
<glyph unicode="&#x2002;" horiz-adv-x="1053" />
<glyph unicode="&#x2003;" horiz-adv-x="2107" />
<glyph unicode="&#x2004;" horiz-adv-x="702" />
<glyph unicode="&#x2005;" horiz-adv-x="526" />
<glyph unicode="&#x2006;" horiz-adv-x="351" />
<glyph unicode="&#x2007;" horiz-adv-x="351" />
<glyph unicode="&#x2008;" horiz-adv-x="263" />
<glyph unicode="&#x2009;" horiz-adv-x="421" />
<glyph unicode="&#x200a;" horiz-adv-x="117" />
<glyph unicode="&#x2010;" horiz-adv-x="669" d="M197 586l18 90h504l-19 -90h-503z" />
<glyph unicode="&#x2011;" horiz-adv-x="669" d="M197 586l18 90h504l-19 -90h-503z" />
<glyph unicode="&#x2012;" horiz-adv-x="669" d="M197 586l18 90h504l-19 -90h-503z" />
<glyph unicode="&#x2013;" horiz-adv-x="985" d="M197 586l18 90h821l-18 -90h-821z" />
<glyph unicode="&#x2014;" horiz-adv-x="1626" d="M197 586l18 90h1462l-18 -90h-1462z" />
<glyph unicode="&#x2018;" horiz-adv-x="399" d="M336 1147l24 129q28 146 168 283l52 -43q-112 -107 -136 -216h72l-31 -153h-149z" />
<glyph unicode="&#x2019;" horiz-adv-x="399" d="M344 1180q55 52 88 102t47 113h-71l30 153h150l-25 -129q-28 -145 -168 -282z" />
<glyph unicode="&#x201a;" horiz-adv-x="417" d="M74 -215q55 52 88 102t47 113h-72l31 154h149l-24 -129q-28 -146 -168 -283z" />
<glyph unicode="&#x201c;" horiz-adv-x="663" d="M336 1147l24 129q28 146 168 283l52 -43q-112 -107 -136 -216h72l-31 -153h-149zM600 1147l25 129q28 146 168 283l51 -43q-55 -52 -88 -102.5t-47 -113.5h71l-30 -153h-150z" />
<glyph unicode="&#x201d;" horiz-adv-x="663" d="M344 1180q55 52 88 102t47 113h-71l30 153h150l-25 -129q-28 -145 -168 -282zM608 1180q55 52 88 102t47 113h-71l30 153h150l-25 -129q-28 -145 -168 -282z" />
<glyph unicode="&#x201e;" horiz-adv-x="704" d="M74 -215q55 52 88 102t47 113h-72l31 154h149l-24 -129q-28 -146 -168 -283zM338 -215q55 52 88 102t47 113h-72l31 154h150l-25 -129q-28 -146 -168 -283z" />
<glyph unicode="&#x2020;" horiz-adv-x="702" d="M254 956l20 103l230 -4l84 454h112l-92 -454l236 4l-21 -103l-233 5l-211 -1047h-88l194 1047z" />
<glyph unicode="&#x2021;" horiz-adv-x="702" d="M139 365l21 102l229 -4l98 498l-233 -5l20 103l232 -4l84 454h112l-92 -454l234 4l-21 -103l-231 5l-98 -498l235 4l-20 -102l-234 4l-84 -455h-112l92 455z" />
<glyph unicode="&#x2022;" horiz-adv-x="835" d="M258 573q0 140 96 233t238 93q106 0 166.5 -61t60.5 -162q0 -140 -96 -233t-238 -93q-105 0 -166 61t-61 162z" />
<glyph unicode="&#x202f;" horiz-adv-x="421" />
<glyph unicode="&#x2030;" horiz-adv-x="2197" d="M299 975l37 190q28 145 103 215t202 70q129 0 184.5 -71.5t28.5 -213.5l-37 -190q-28 -145 -102.5 -215t-200.5 -70q-130 0 -186 71.5t-29 213.5zM383.5 879.5q2.5 -50.5 35.5 -77t101 -26.5q98 0 144 54t69 174l27 133q23 120 -2 173.5t-123 53.5q-99 0 -144.5 -54 t-68.5 -173l-27 -133q-14 -74 -11.5 -124.5zM424 -59l876 1552h101l-877 -1552h-100zM971 268l37 191q28 145 102.5 214.5t202.5 69.5q129 0 184.5 -71t28.5 -213l-37 -191q-28 -145 -102.5 -214.5t-200.5 -69.5q-130 0 -186 71t-29 213zM1055.5 172.5q2.5 -50.5 35.5 -76.5 t101 -26q98 0 144 53.5t69 173.5l27 133q23 120 -2 173.5t-123 53.5q-99 0 -145.5 -54.5t-69.5 -172.5l-25 -133q-14 -74 -11.5 -124.5zM1620 268l37 191q28 145 102.5 214.5t202.5 69.5q129 0 184.5 -71t28.5 -213l-37 -191q-28 -145 -102.5 -214.5t-200.5 -69.5 q-130 0 -186 71t-29 213zM1704.5 172.5q2.5 -50.5 35.5 -76.5t101 -26q98 0 144 53.5t69 173.5l27 133q23 120 -2 173.5t-123 53.5q-99 0 -145.5 -54.5t-69.5 -172.5l-25 -133q-14 -74 -11.5 -124.5z" />
<glyph unicode="&#x2039;" horiz-adv-x="663" d="M205 575l14 74l549 359l-18 -97l-412 -299l295 -311l-19 -84z" />
<glyph unicode="&#x203a;" horiz-adv-x="663" d="M135 217l19 94l411 301l-295 310l19 86l409 -359l-14 -74z" />
<glyph unicode="&#x2044;" horiz-adv-x="722" d="M33 -51l831 1536h103l-832 -1536h-102z" />
<glyph unicode="&#x205f;" horiz-adv-x="526" />
<glyph unicode="&#x20ac;" horiz-adv-x="1142" d="M145 537l17 88h106l37 182h-106l16 88h107l14 74q92 481 534 481q194 0 355 -104l-49 -84q-152 88 -316 88q-351 0 -424 -398l-10 -57h432l-16 -88h-432l-37 -182h432l-17 -88h-432l-10 -58q-34 -194 27.5 -294.5t244.5 -100.5q162 0 345 88l34 -86q-195 -102 -393 -102 q-217 0 -309.5 129t-54.5 352l12 72h-107z" />
<glyph unicode="&#x2122;" horiz-adv-x="1359" d="M338 1360l14 74h490l-15 -74h-206l-134 -688h-77l133 688h-205zM807 672l147 762h68l135 -512l336 512h72l-148 -762h-74l111 575h-8l-287 -432h-41l-119 432h-8l-110 -575h-74z" />
<glyph unicode="&#x2190;" horiz-adv-x="1767" d="M279 709l651 624l61 -65l-532 -514h1272v-90h-1272l534 -512l-63 -68z" />
<glyph unicode="&#x2191;" horiz-adv-x="1490" d="M276 801l625 651l625 -651l-68 -64l-512 535v-1272h-90v1272l-514 -533z" />
<glyph unicode="&#x2192;" horiz-adv-x="1767" d="M293 664v90h1272l-533 514l62 65l651 -624l-651 -625l-64 68l535 512h-1272z" />
<glyph unicode="&#x2193;" horiz-adv-x="1490" d="M246 637l65 61l514 -532v1272h90v-1272l512 534l68 -63l-625 -651z" />
<glyph unicode="&#x2212;" horiz-adv-x="960" d="M129 559l18 92h920l-18 -92h-920z" />
<glyph unicode="&#x2260;" horiz-adv-x="960" d="M90 360l19 93h368l156 317h-463l18 92h492l94 189h57l-94 -189h371l-18 -92h-398l-157 -317h493l-18 -93h-523l-92 -188h-57l92 188h-340z" />
<glyph unicode="&#x25fc;" horiz-adv-x="1116" d="M0 0v1116h1116v-1116h-1116z" />
<glyph unicode="&#xf6c3;" horiz-adv-x="536" d="M115 -420q47 46 67.5 81.5t34.5 94.5h-67l28 148h141l-28 -148q-11 -60 -39 -110t-88 -107z" />
<glyph horiz-adv-x="1105" d="M203.5 339q0.5 78 15.5 165l84 428q22 112 61 202t100.5 163t153 113t205.5 40q89 0 157.5 -26.5t109.5 -73.5t64.5 -112.5t23.5 -142.5t-15 -163l-84 -428q-22 -113 -62 -204t-101.5 -163.5t-152 -112.5t-204.5 -40q-90 0 -158.5 26.5t-109.5 73.5t-64.5 112t-23 143z M326 512q-48 -238 36 -348l582 1161q-52 25 -129 25q-89 0 -159.5 -32t-119 -91t-80.5 -134.5t-50 -170.5zM436 109q55 -25 133 -25q88 0 158.5 32t119 91.5t80.5 135t50 169.5l80 410q47 236 -39 346z" />
<glyph horiz-adv-x="1118" d="M209.5 339q0.5 78 15.5 165l84 428q22 112 61 202t100.5 163t153 113t205.5 40q89 0 157.5 -26.5t109.5 -73.5t64.5 -112.5t23.5 -142.5t-15 -163l-84 -428q-22 -113 -62 -204t-101.5 -163.5t-152 -112.5t-204.5 -40q-90 0 -158.5 26.5t-109.5 73.5t-64.5 112t-23 143z M316 343q4 -78 28.5 -135.5t83 -90.5t147.5 -33q325 0 408 428l80 410q82 428 -242 428q-92 0 -163 -32t-119 -91.5t-78 -134t-49 -170.5l-80 -410q-20 -91 -16 -169z" />
<glyph horiz-adv-x="1118" d="M211 0l18 96h375l240 1227l-443 -166l-16 84l500 193h84l-260 -1338h278l-18 -96h-758z" />
<glyph horiz-adv-x="1118" d="M160 0l24 129q15 81 72.5 162t136.5 149.5t171 137.5t181 135.5t161.5 131.5t117.5 138.5t45 144.5q0 224 -278 224q-159 0 -340 -111l-50 78q209 131 410 131q168 0 266.5 -80t98.5 -223q0 -89 -45.5 -176t-119.5 -158.5t-164 -141t-182.5 -136t-171 -130.5t-134.5 -136 t-68 -142l-4 -25h692l-21 -102h-798z" />
<glyph horiz-adv-x="1118" d="M156 109l59 75q159 -102 326 -102q208 0 314 102.5t106 280.5q0 108 -71 167.5t-208 59.5h-172l18 94h172q147 0 244.5 88t97.5 246q0 109 -63 170.5t-195 61.5q-164 0 -329 -97l-41 80q191 115 391 115q173 0 259.5 -82t86.5 -223q0 -157 -72 -260t-194 -148 q82 -26 129 -97t47 -165q0 -55 -10.5 -108.5t-33 -110.5t-64 -104.5t-98.5 -86t-142 -60t-189 -21.5q-205 0 -368 125z" />
<glyph horiz-adv-x="1118" d="M152 336l16 88l639 1010h106l-628 -1002h499l90 461h105l-90 -461h227l-18 -96h-228l-65 -336h-105l66 336h-614z" />
<glyph horiz-adv-x="1118" d="M160 109l55 75q159 -102 326 -102q107 0 188 34t125 82t71.5 111.5t35.5 111.5t8 93q0 122 -71 197t-212 75q-84 0 -154.5 -21.5t-148.5 -64.5l-55 41l176 693h667l-20 -103h-580l-133 -512q128 66 271 66q181 0 271.5 -96t90.5 -254q0 -74 -14.5 -145t-53.5 -146.5 t-98.5 -131.5t-157.5 -92t-223 -36q-107 0 -203.5 37t-160.5 88z" />
<glyph horiz-adv-x="1118" d="M207 457l84 436q52 273 198 415t369 142q186 0 342 -107l-53 -81q-77 44 -146 66t-157 22q-168 0 -286.5 -110t-158.5 -322l-30 -164q67 65 164 113t212 48q170 0 259.5 -101t89.5 -255q0 -117 -32 -219t-94.5 -182.5t-166.5 -127t-238 -46.5q-209 0 -303.5 130 t-52.5 343zM311 457q-35 -175 30 -275t230 -100q139 0 234 60t138.5 162t43.5 241q0 131 -68.5 204.5t-203.5 73.5q-107 0 -201.5 -51t-165.5 -129z" />
<glyph horiz-adv-x="1118" d="M295 0l840 1333h-750l18 101h869l-17 -80l-839 -1354h-121z" />
<glyph horiz-adv-x="1118" d="M162 299q0 91 30 164.5t86.5 128t128.5 94t166 70.5q-37 19 -64.5 35.5t-61 44t-55 56.5t-36 69.5t-14.5 85.5q0 175 132 289t364 114q170 0 264 -82.5t94 -212.5q0 -50 -13 -95t-32 -78.5t-51 -66t-60 -54t-70 -45t-69.5 -36.5t-69.5 -32q261 -100 261 -314 q0 -207 -141 -328.5t-398 -121.5q-178 0 -284.5 83.5t-106.5 231.5zM266 317q0 -115 80 -176t225 -61q191 0 304.5 91.5t113.5 254.5q0 100 -71 167.5t-226 108.5q-229 -57 -327.5 -150.5t-98.5 -234.5zM446 1053q0 -44 17.5 -82t40.5 -63t64 -51t68.5 -39t72.5 -32 q39 14 56 20.5t56 22.5t59 27t53 30.5t51.5 36.5t41.5 42t35 50.5t20.5 58t8.5 67.5q0 98 -68 155.5t-203 57.5q-179 0 -276 -85.5t-97 -215.5z" />
<glyph horiz-adv-x="1118" d="M195 90l55 82q133 -88 295 -88q166 0 283 109.5t159 322.5l33 164q-68 -66 -164 -114t-211 -48q-173 0 -260.5 96t-87.5 260q0 94 18.5 177.5t60.5 157t103.5 126.5t152 84t202.5 31q140 0 229 -64t117 -169.5t2 -239.5l-84 -436q-54 -275 -199 -416t-367 -141 q-183 0 -337 106zM403 889q0 -131 68 -205t203 -74q107 0 202 51.5t164 129.5l37 186q35 175 -29.5 275t-228.5 100q-139 0 -234 -60t-138.5 -162t-43.5 -241z" />
<glyph horiz-adv-x="1118" d="M209.5 339q0.5 78 15.5 165l84 428q22 112 61 202t100.5 163t153 113t205.5 40q89 0 157.5 -26.5t109.5 -73.5t64.5 -112.5t23.5 -142.5t-15 -163l-84 -428q-22 -113 -62 -204t-101.5 -163.5t-152 -112.5t-204.5 -40q-90 0 -158.5 26.5t-109.5 73.5t-64.5 112t-23 143z M332 512q-47 -237 37 -348l581 1161q-52 25 -129 25q-89 0 -159.5 -32t-119 -91t-80.5 -134.5t-50 -170.5zM442 109q55 -25 133 -25q88 0 158.5 32t119 91.5t80.5 135t50 169.5l80 410q47 236 -39 346z" />
<glyph horiz-adv-x="1118" d="M150 117l61 84q71 -50 164 -83.5t188 -33.5q93 0 165.5 21.5t116 55t71.5 80.5t38.5 92.5t10.5 96.5q0 62 -26 109.5t-68 76.5t-96 55.5t-110 45.5t-110 47t-96 60t-68 85t-26 121q0 112 34.5 194t96.5 129t137 70t166 25l30 143h82l-30 -143q180 -15 319 -123l-57 -88 q-140 113 -322 113q-183 0 -268.5 -84.5t-85.5 -223.5q0 -61 33.5 -106.5t86.5 -74t117.5 -53t129 -53.5t117.5 -66t86.5 -99t33.5 -144q0 -68 -13 -128.5t-46.5 -120t-85 -103.5t-135.5 -73.5t-191 -34.5l-37 -181h-82l35 181q-108 6 -206 44t-160 87z" />
<glyph horiz-adv-x="1118" d="M133 0l19 90q40 15 78 37.5t78.5 60.5t70 84.5t48.5 113.5t19 144q0 73 -10 168h-200l14 68l178 18q-10 98 -10 160q0 135 41.5 235.5t113.5 157t158 83t187 26.5q180 0 352 -103l-47 -81q-159 86 -308 86q-57 0 -109 -10t-105.5 -38t-92.5 -72t-63.5 -117.5 t-24.5 -168.5q0 -74 10 -156h471l-18 -88h-444q6 -117 6 -139q0 -90 -22 -168.5t-59 -134.5t-75.5 -94t-81.5 -66h729l-18 -96h-885z" />
<glyph horiz-adv-x="1118" d="M233 328l19 92h338l28 145h-337l16 92h289l-248 777h111l233 -764h8l531 764h120l-553 -777h289l-16 -92h-338l-29 -145h338l-18 -92h-338l-64 -328h-104l63 328h-338z" />
<glyph horiz-adv-x="1118" d="M203 537l16 88h107l36 182h-106l16 88h107l14 74q92 481 535 481q193 0 354 -104l-49 -84q-152 88 -315 88q-351 0 -424 -398l-11 -57h432l-16 -88h-432l-37 -182h432l-16 -88h-432l-11 -58q-34 -194 28 -294.5t245 -100.5q161 0 344 88l35 -86q-195 -102 -393 -102 q-217 0 -310 129t-55 352l12 72h-106z" />
<glyph horiz-adv-x="450" d="M385 1204l100 332h109l-137 -332h-72z" />
</font>
</defs>
</svg>
