<?xml version="1.0" standalone="no"?>
<!DOCTYPE svg PUBLIC "-//W3C//DTD SVG 1.1//EN" "http://www.w3.org/Graphics/SVG/1.1/DTD/svg11.dtd" >
<svg xmlns="http://www.w3.org/2000/svg" xmlns:xlink="http://www.w3.org/1999/xlink" version="1.1">
<metadata></metadata>
<defs>
<font id="nowaymedium" horiz-adv-x="1196" >
<font-face units-per-em="2048" ascent="1536" descent="-512" />
<missing-glyph horiz-adv-x="524" />
<glyph unicode="&#x2e;&#x2e;&#x2e;" horiz-adv-x="1564" d="M92 0v305h299v-305h-299zM633 0v305h299v-305h-299zM1171 0v305h299v-305h-299z" />
<glyph unicode="&#xd;" horiz-adv-x="552" />
<glyph unicode=" "  horiz-adv-x="524" />
<glyph unicode="&#x09;" horiz-adv-x="524" />
<glyph unicode="&#xa0;" horiz-adv-x="524" />
<glyph unicode="!" horiz-adv-x="542" d="M123 0v305h299v-305h-299zM133 1434h275l-41 -990h-193z" />
<glyph unicode="&#x22;" horiz-adv-x="739" d="M78 1434h233l-20 -516h-193zM430 1434h232l-19 -516h-194z" />
<glyph unicode="#" horiz-adv-x="1171" d="M51 426l37 190h176l37 199h-184l37 191h182l47 247h197l-48 -247h197l47 247h197l-47 -247h192l-37 -191h-190l-37 -199h199l-37 -190h-197l-45 -250h-196l45 250h-197l-45 -250h-197l45 250h-178zM461 616h196l37 199h-196z" />
<glyph unicode="$" horiz-adv-x="1099" d="M53 137l111 185q205 -109 362 -109q125 0 184.5 52t59.5 132q0 54 -23 95t-62 66.5t-89.5 45.5t-106.5 37.5t-112 37.5t-106.5 49.5t-89.5 69.5t-62 102.5t-23 143.5q0 198 125 302t332 104q237 0 424 -137l-111 -191q-94 50 -169.5 74.5t-153.5 24.5q-195 0 -195 -168 q0 -44 23 -76.5t62 -54.5t90 -40t107 -36.5t112 -40t107 -55t90 -77t62 -110.5t23 -151q0 -202 -132 -315t-345 -113q-154 0 -271.5 41t-222.5 112zM446 39h201v-234h-201v234zM446 1358v233h201v-233h-201z" />
<glyph unicode="%" horiz-adv-x="1771" d="M102 958v189q0 147 81.5 225t224.5 78t222 -78t79 -225v-189q0 -146 -79 -222.5t-222 -76.5t-224.5 77.5t-81.5 221.5zM315 969q0 -54 18.5 -84.5t74.5 -30.5q54 0 72 30.5t18 84.5v170q0 62 -19.5 89t-70.5 27q-52 0 -72.5 -27t-20.5 -89v-170zM504 -59l538 1552h226 l-539 -1552h-225zM1057 281v192q0 150 79 224.5t228 74.5t227 -74.5t78 -224.5v-192q0 -149 -78.5 -223t-226.5 -74q-149 0 -228 74.5t-79 222.5zM1276 295q0 -53 18.5 -83t69.5 -30t69.5 30t18.5 83v164q0 59 -20 86.5t-68 27.5q-49 0 -68.5 -27.5t-19.5 -86.5v-164z" />
<glyph unicode="&#x26;" horiz-adv-x="1316" d="M82 412q0 129 57 220.5t191 155.5l-49 60q-93 117 -93 252q0 157 114 253.5t300 96.5q189 0 367 -111l-99 -188q-122 70 -254 70q-92 0 -136 -38t-44 -96q0 -61 70 -141l393 -459q61 128 76 299h229q-9 -252 -143 -481l252 -305h-299l-94 113q-68 -64 -158 -96.5 t-221 -32.5q-209 0 -334 113.5t-125 314.5zM330 412q0 -94 56 -151.5t157 -57.5q91 0 141.5 23.5t85.5 62.5l-293 334q-147 -42 -147 -211z" />
<glyph unicode="'" horiz-adv-x="385" d="M78 1434h233l-20 -516h-193z" />
<glyph unicode="(" horiz-adv-x="684" d="M96 637q0 224 88.5 463t276.5 467l174 -119q-279 -377 -279 -811t279 -811l-174 -119q-188 228 -276.5 467t-88.5 463z" />
<glyph unicode=")" horiz-adv-x="684" d="M88 -174q279 377 279 811t-279 811l174 119q188 -228 276.5 -467t88.5 -463t-88.5 -463t-276.5 -467z" />
<glyph unicode="*" horiz-adv-x="917" d="M92 1196l76 190l223 -114l-35 264h205l-35 -264l224 114l75 -190l-264 -61l207 -220l-162 -114l-147 252l-148 -252l-161 114l206 220z" />
<glyph unicode="+" horiz-adv-x="1013" d="M27 508v209h372v381h213v-381h375v-209h-375v-381h-213v381h-372z" />
<glyph unicode="," horiz-adv-x="542" d="M98 -219q33 29 54.5 51.5t45.5 69.5t27 98h-102v305h299v-250q0 -235 -203 -393z" />
<glyph unicode="-" horiz-adv-x="696" d="M72 510v215h553v-215h-553z" />
<glyph unicode="." horiz-adv-x="542" d="M123 0v305h299v-305h-299z" />
<glyph unicode="/" horiz-adv-x="743" d="M-18 -162l538 1757h240l-539 -1757h-239z" />
<glyph unicode="0" horiz-adv-x="1183" d="M113 520v393q0 240 129.5 388.5t349.5 148.5t349.5 -148.5t129.5 -388.5v-393q0 -239 -129.5 -387.5t-349.5 -148.5t-349.5 148.5t-129.5 387.5zM369 541q0 -155 55.5 -239.5t167.5 -84.5t167.5 84.5t55.5 239.5v352q0 155 -55.5 239.5t-167.5 84.5t-167.5 -84.5 t-55.5 -239.5v-352z" />
<glyph unicode="1" horiz-adv-x="1048" d="M63 1245l482 189h186v-1213h250v-221h-846v221h340v955l-330 -127z" />
<glyph unicode="2" horiz-adv-x="1101" d="M84 1305q87 64 199.5 104.5t232.5 40.5q218 0 348.5 -103.5t130.5 -293.5q0 -78 -35 -153t-90.5 -135.5t-123.5 -118.5t-135.5 -110t-123 -101t-90.5 -101.5t-35 -102.5h642v-231h-908v160q0 88 35.5 171t92.5 149t126 128t137.5 116.5t125.5 105.5t92.5 105t35.5 105 q0 183 -227 183q-147 0 -334 -99z" />
<glyph unicode="3" horiz-adv-x="1105" d="M68 135l94 180q179 -102 348 -102q77 0 129.5 17t78 48.5t35 65.5t9.5 80q0 99 -61.5 150t-176.5 51h-243v219h215q225 0 225 182q0 197 -205 197q-157 0 -326 -97l-94 172q72 63 187 107.5t235 44.5q224 0 341.5 -107t117.5 -292q0 -92 -34.5 -169.5t-111.5 -123.5 q181 -90 181 -336q0 -70 -16 -132t-53 -119t-93.5 -98t-142.5 -65t-195 -24q-120 0 -246 46t-198 105z" />
<glyph unicode="4" horiz-adv-x="1204" d="M80 274v177l414 983h276l-412 -938h330v397h250v-397h199v-222h-199v-274h-250v274h-608z" />
<glyph unicode="5" horiz-adv-x="1136" d="M86 135l98 180q176 -102 338 -102q64 0 112.5 14.5t76.5 37t45 56t22.5 65t5.5 69.5q0 109 -62 178t-185 69q-134 0 -252 -71l-138 94l48 709h749v-232h-543l-20 -309q80 33 180 33q120 0 212 -36.5t148 -101t84.5 -149t28.5 -184.5q0 -96 -26 -176.5t-82 -148.5 t-156 -107t-235 -39q-139 0 -256 44.5t-193 106.5z" />
<glyph unicode="6" horiz-adv-x="1191" d="M104 479v389q0 127 31 231.5t93 183.5t164 123t235 44q236 0 415 -137l-98 -187q-174 97 -326 97q-125 0 -192.5 -79t-67.5 -218v-88q46 46 117 79t160 33q211 0 330.5 -126t119.5 -349q0 -222 -126.5 -356.5t-364.5 -134.5q-221 0 -355.5 137.5t-134.5 357.5zM358 479 q0 -132 63 -200t173 -68q109 0 173 66.5t64 197.5t-63.5 194.5t-173.5 63.5q-72 0 -134 -34t-102 -83v-137z" />
<glyph unicode="7" horiz-adv-x="1153" d="M102 1202v232h947v-195l-545 -1239h-277l549 1202h-674z" />
<glyph unicode="8" horiz-adv-x="1187" d="M100 399q0 231 242 353q-95 54 -152 136.5t-57 184.5q0 166 125 271.5t336 105.5t335 -105.5t124 -271.5q0 -102 -56.5 -185t-152.5 -136q243 -122 243 -353q0 -194 -131.5 -304.5t-361.5 -110.5q-231 0 -362.5 110.5t-131.5 304.5zM348 408q0 -93 68 -147t178 -54 q109 0 176.5 54.5t67.5 146.5q0 80 -56.5 137t-187.5 92q-132 -35 -189 -91.5t-57 -137.5zM385 1061q0 -43 15.5 -77.5t47.5 -61t64.5 -45t81.5 -39.5q49 21 81 39.5t64 45t48 61t16 77.5q0 76 -54 122t-155 46t-155 -46t-54 -122z" />
<glyph unicode="9" horiz-adv-x="1191" d="M104 958q0 222 127 357t365 135q221 0 355 -138t134 -358v-389q0 -127 -31 -231t-93 -183.5t-163.5 -123t-234.5 -43.5q-237 0 -416 137l99 186q172 -96 325 -96q125 0 192.5 79t67.5 218v88q-113 -113 -276 -113q-211 0 -331 126t-120 349zM358 958q0 -131 64 -194.5 t174 -63.5q72 0 133.5 34t101.5 83v137q0 132 -62.5 200.5t-172.5 68.5q-109 0 -173.5 -67t-64.5 -198z" />
<glyph unicode=":" horiz-adv-x="542" d="M123 0v305h299v-305h-299zM123 758v305h299v-305h-299z" />
<glyph unicode=";" horiz-adv-x="542" d="M98 -219q33 29 54.5 51.5t45.5 69.5t27 98h-102v305h299v-250q0 -235 -203 -393zM123 758v305h299v-305h-299z" />
<glyph unicode="&#x3c;" horiz-adv-x="1060" d="M109 541v131l843 450v-237l-546 -279l546 -276v-240z" />
<glyph unicode="=" horiz-adv-x="1009" d="M27 291v209h960v-209h-960zM27 727v209h960v-209h-960z" />
<glyph unicode="&#x3e;" horiz-adv-x="1060" d="M109 90v240l546 276l-546 279v237l843 -450v-131z" />
<glyph unicode="?" horiz-adv-x="1046" d="M57 1305q84 65 200.5 105t240.5 40q212 0 333 -101.5t121 -269.5q0 -64 -22.5 -118t-58.5 -91.5t-79.5 -70.5t-86.5 -62t-79 -58.5t-58.5 -67.5t-22.5 -81v-100h-240v145q0 66 41 125.5t99.5 104.5t116.5 87t99 89.5t41 95.5q0 154 -223 154q-78 0 -151.5 -24t-167.5 -74 zM276 0v305h299v-305h-299z" />
<glyph unicode="@" horiz-adv-x="1603" d="M113 602q0 156 43.5 286.5t127.5 227.5t216.5 151t302.5 54q326 0 506 -175t180 -503q0 -201 -85.5 -311.5t-236.5 -110.5q-157 0 -215 96h-8q-88 -96 -205 -96q-113 0 -174 70.5t-61 212.5v178q0 136 62 211.5t173 75.5q54 0 95.5 -22t64.5 -54l23 68h143v-451 q0 -66 23 -92.5t75 -26.5q68 0 102.5 59t34.5 193q0 239 -123.5 367.5t-373.5 128.5q-249 0 -373.5 -142.5t-124.5 -394.5q0 -286 134.5 -423.5t412.5 -137.5q237 0 469 106l63 -149q-94 -58 -250 -96.5t-286 -38.5q-361 0 -548 186t-187 553zM682 520q0 -65 22 -96t76 -31 q62 0 111 49v306q-53 49 -111 49q-55 0 -76.5 -31t-21.5 -98v-148z" />
<glyph unicode="A" horiz-adv-x="1245" d="M39 0l463 1434h241l463 -1434h-262l-98 317h-447l-100 -317h-260zM459 545h327l-159 526h-9z" />
<glyph unicode="B" horiz-adv-x="1208" d="M162 0v1434h483q215 0 327.5 -104t112.5 -288q0 -96 -48 -173t-128 -113v-8q215 -89 215 -334q0 -197 -118 -305.5t-365 -108.5h-479zM418 225h198q128 0 187 43.5t59 155.5q0 110 -57.5 155.5t-173.5 45.5h-213v-400zM418 840h219q188 0 188 184q0 87 -47 135.5 t-141 48.5h-219v-368z" />
<glyph unicode="C" horiz-adv-x="1130" d="M113 535v364q0 259 124.5 405t385.5 146q330 0 460 -295l-200 -104q-53 89 -115.5 126t-144.5 37q-135 0 -193.5 -76t-58.5 -218v-406q0 -295 258 -295q86 0 147 33.5t113 128.5l201 -98q-73 -155 -182.5 -227t-278.5 -72q-262 0 -389 146.5t-127 404.5z" />
<glyph unicode="D" horiz-adv-x="1304" d="M162 0v1434h463q270 0 423.5 -180.5t153.5 -532.5q0 -325 -150 -523t-382 -198h-508zM418 225h190q78 0 137.5 27.5t96 72.5t59 110.5t31 134t8.5 151.5q0 75 -8.5 140t-31 130.5t-58.5 112t-96 75.5t-138 29h-190v-983z" />
<glyph unicode="E" horiz-adv-x="1087" d="M162 0v1434h805v-226h-547v-364h502v-226h-502v-393h547v-225h-805z" />
<glyph unicode="F" horiz-adv-x="1067" d="M162 0v1434h801v-226h-543v-393h495v-225h-495v-590h-258z" />
<glyph unicode="G" horiz-adv-x="1241" d="M113 537v362q0 259 124.5 405t385.5 146q330 0 460 -295l-200 -104q-53 89 -115.5 126t-144.5 37q-135 0 -193.5 -76t-58.5 -218v-404q0 -295 258 -295q171 0 245 98v254h-256v222h498v-553q-26 -43 -63.5 -83.5t-96.5 -82t-145.5 -67t-187.5 -25.5q-133 0 -232 39.5 t-159.5 113.5t-89.5 174t-29 226z" />
<glyph unicode="H" horiz-adv-x="1341" d="M162 0v1434h258v-588h502v588h258v-1434h-258v618h-502v-618h-258z" />
<glyph unicode="I" horiz-adv-x="581" d="M162 0v1434h258v-1434h-258z" />
<glyph unicode="J" horiz-adv-x="839" d="M45 12l25 217q106 -14 143 -14q65 0 107 16.5t63.5 54t29 82.5t7.5 115v951h258v-947q0 -90 -10 -160t-38 -137t-74.5 -110t-124 -69.5t-181.5 -26.5q-116 0 -205 28z" />
<glyph unicode="K" horiz-adv-x="1187" d="M162 0v1434h258v-584h104l332 584h287l-402 -678l418 -756h-291l-336 623h-112v-623h-258z" />
<glyph unicode="L" horiz-adv-x="1044" d="M162 0v1434h258v-1209h547v-225h-805z" />
<glyph unicode="M" horiz-adv-x="1568" d="M162 0v1434h198l420 -826h8l422 826h197v-1434h-244v846h-8l-305 -610h-131l-305 610h-8v-846h-244z" />
<glyph unicode="N" horiz-adv-x="1372" d="M162 0v1434h221l575 -945h9v945h243v-1434h-225l-571 944h-8v-944h-244z" />
<glyph unicode="O" horiz-adv-x="1243" d="M113 492v448q0 237 130 373.5t380 136.5t378.5 -136.5t128.5 -373.5v-448q0 -237 -128.5 -372.5t-378.5 -135.5t-380 135.5t-130 372.5zM371 514q0 -149 59 -222t193 -73q135 0 192 72.5t57 222.5v406q0 148 -57 221t-192 73q-134 0 -193 -73.5t-59 -220.5v-406z" />
<glyph unicode="P" horiz-adv-x="1198" d="M162 0v1434h422q103 0 180 -12.5t144 -44.5t109 -85t65.5 -135.5t23.5 -193.5q0 -242 -129 -354.5t-375 -112.5h-182v-496h-258zM420 721h172q136 0 195 59.5t59 190.5q0 134 -59.5 185.5t-208.5 51.5h-158v-487z" />
<glyph unicode="Q" horiz-adv-x="1245" d="M113 492v448q0 237 130 373.5t380 136.5t378.5 -136.5t128.5 -373.5v-448q0 -183 -73 -302l166 -151l-150 -160l-172 164q-115 -59 -278 -59q-250 0 -380 135.5t-130 372.5zM371 514q0 -149 59 -222t193 -73q49 0 82 8l-121 115l143 156l129 -125q16 66 16 141v406 q0 148 -57 221t-192 73q-134 0 -193 -73.5t-59 -220.5v-406z" />
<glyph unicode="R" horiz-adv-x="1212" d="M162 0v1434h432q249 0 381.5 -108.5t132.5 -346.5q0 -94 -23 -168.5t-62 -121.5t-79 -75.5t-86 -46.5l309 -567h-286l-269 526h-194v-526h-256zM418 752h184q123 0 184.5 52t61.5 175q0 129 -64.5 179t-201.5 50h-164v-456z" />
<glyph unicode="S" horiz-adv-x="1099" d="M53 137l111 185q205 -109 362 -109q125 0 184.5 52t59.5 132q0 54 -23 95t-62 66.5t-89.5 45.5t-106.5 37.5t-112 37.5t-106.5 49.5t-89.5 69.5t-62 102.5t-23 143.5q0 198 125 302t332 104q228 0 424 -137l-111 -191q-94 50 -169.5 74.5t-153.5 24.5q-195 0 -195 -168 q0 -44 23 -76.5t62 -54.5t90 -40t107 -36.5t112 -40t107 -55t90 -77t62 -110.5t23 -151q0 -202 -132 -315t-345 -113q-154 0 -271.5 41t-222.5 112z" />
<glyph unicode="T" horiz-adv-x="1177" d="M80 1208v226h1016v-226h-379v-1208h-258v1208h-379z" />
<glyph unicode="U" horiz-adv-x="1314" d="M158 467v967h258v-947q0 -134 52.5 -203t188.5 -69t189 69t53 203v947h258v-967q0 -233 -127 -358t-373 -125t-372.5 125t-126.5 358z" />
<glyph unicode="V" horiz-adv-x="1206" d="M45 1434h264l291 -1096h8l289 1096h266l-428 -1434h-264z" />
<glyph unicode="W" horiz-adv-x="1759" d="M47 1434h264l213 -1057h8l230 1057h235l232 -1057h8l211 1057h264l-340 -1434h-268l-221 901h-9l-219 -901h-268z" />
<glyph unicode="X" horiz-adv-x="1048" d="M12 0l357 739l-334 695h278l207 -473h8l207 473h279l-334 -695l352 -739h-274l-230 504h-8l-229 -504h-279z" />
<glyph unicode="Y" horiz-adv-x="1191" d="M33 1434h278l281 -643h8l283 643h274l-432 -893v-541h-258v541z" />
<glyph unicode="Z" horiz-adv-x="1118" d="M102 0v195l607 1013h-576v226h879v-193l-606 -1016h606v-225h-910z" />
<glyph unicode="[" horiz-adv-x="700" d="M158 -238v1774h467v-215h-222v-1344h222v-215h-467z" />
<glyph unicode="\" horiz-adv-x="743" d="M-18 1595h239l539 -1757h-240z" />
<glyph unicode="]" horiz-adv-x="700" d="M74 -23h221v1344h-221v215h467v-1774h-467v215z" />
<glyph unicode="^" horiz-adv-x="1067" d="M25 729l432 807h151l432 -807h-237l-271 528l-270 -528h-237z" />
<glyph unicode="_" horiz-adv-x="1124" d="M70 -76h983v-192h-983v192z" />
<glyph unicode="`" horiz-adv-x="866" d="M244 1616h254l106 -354h-166z" />
<glyph unicode="a" horiz-adv-x="1079" d="M88 309q0 91 37 165t98 121.5t142.5 80t166.5 45.5t175 14v49q0 154 -195 154q-145 0 -307 -78l-76 170q188 119 393 119q216 0 323 -101.5t107 -293.5v-754h-198l-23 115q-38 -54 -112.5 -92.5t-178.5 -38.5q-150 0 -251 90.5t-101 234.5zM336 326q0 -63 46 -99.5 t114 -36.5q72 0 129 36.5t84 88.5v238q-69 0 -133 -12.5t-119 -38t-88 -71t-33 -105.5z" />
<glyph unicode="b" horiz-adv-x="1110" d="M137 0v1536h246v-500q47 48 117.5 80.5t148.5 32.5q181 0 275 -115t94 -323v-287q0 -209 -96 -324.5t-279 -115.5q-83 0 -158 34t-120 86l-33 -104h-195zM383 307q38 -40 90.5 -66t106.5 -26q101 0 146.5 57t45.5 177v235q0 120 -45.5 177t-146.5 57q-54 0 -106.5 -26 t-90.5 -65v-520z" />
<glyph unicode="c" horiz-adv-x="958" d="M92 424v285q0 206 117 323t336 117q240 0 377 -207l-166 -137q-45 66 -96 95.5t-115 29.5q-207 0 -207 -242v-244q0 -241 213 -241q65 0 114.5 26t104.5 101l154 -137q-132 -209 -373 -209q-220 0 -339.5 117.5t-119.5 322.5z" />
<glyph unicode="d" horiz-adv-x="1105" d="M92 424v287q0 208 94 323t275 115q78 0 148.5 -32.5t117.5 -80.5v500h246v-1536h-195l-33 104q-45 -52 -120 -86t-158 -34q-183 0 -279 115.5t-96 324.5zM338 449q0 -120 45.5 -177t146.5 -57q54 0 106.5 26t90.5 66v520q-38 39 -90.5 65t-106.5 26q-101 0 -146.5 -57 t-45.5 -177v-235z" />
<glyph unicode="e" horiz-adv-x="1028" d="M92 389v322q0 207 108 322.5t322 115.5q424 0 424 -438v-234h-608v-110q0 -72 49 -121t154 -49q90 0 150 19t149 67l82 -183q-102 -58 -188 -87t-204 -29q-216 0 -327 106t-111 299zM338 670h369q0 141 -38.5 203.5t-146.5 62.5q-107 0 -145.5 -60t-38.5 -206z" />
<glyph unicode="f" horiz-adv-x="823" d="M53 926v190l183 17v51q0 168 94.5 269t267.5 101q122 0 213 -49l-55 -184q-58 20 -121 20q-82 0 -118 -36t-36 -109v-63h281v-207h-281v-926h-245v926h-183z" />
<glyph unicode="g" horiz-adv-x="1093" d="M90 436v273q0 209 96 324.5t279 115.5q83 0 158 -34.5t120 -86.5l31 105h197v-1094q0 -97 -24.5 -179t-75 -148.5t-137.5 -104t-204 -37.5q-201 0 -383 90l64 188q175 -61 307 -61q204 0 207 225v99q-47 -48 -117.5 -80.5t-148.5 -32.5q-181 0 -275 115t-94 323zM336 463 q0 -120 45.5 -177t146.5 -57q54 0 106.5 25.5t90.5 64.5v506q-38 40 -90.5 66.5t-106.5 26.5q-101 0 -146.5 -57t-45.5 -177v-221z" />
<glyph unicode="h" horiz-adv-x="1153" d="M137 0v1536h246v-504q134 117 301 117q89 0 155.5 -30.5t106.5 -85t59 -125t19 -156.5v-752h-246v698q0 114 -45 163.5t-135 49.5q-60 0 -120.5 -29t-94.5 -63v-819h-246z" />
<glyph unicode="i" horiz-adv-x="526" d="M131 1266v270h268v-270h-268zM143 0v1133h246v-1133h-246z" />
<glyph unicode="j" horiz-adv-x="522" d="M-178 -377l59 187q62 -17 113 -17q149 0 149 148v1192h246v-1168q0 -186 -83.5 -285.5t-272.5 -99.5q-115 0 -211 43zM131 1266v270h268v-270h-268z" />
<glyph unicode="k" horiz-adv-x="1032" d="M137 0v1536h246v-825h94l252 422h262l-313 -515l321 -618h-266q-80 161 -250 504h-100v-504h-246z" />
<glyph unicode="l" horiz-adv-x="512" d="M137 0v1536h246v-1536h-246z" />
<glyph unicode="m" horiz-adv-x="1740" d="M137 0v1133h203l20 -121q48 55 126 95t178 40q200 0 292 -143q31 29 58 49.5t68 45t90 37.5t102 13q172 0 255 -109t83 -288v-752h-246v698q0 114 -45.5 163.5t-132.5 49.5q-95 0 -193 -82q9 -55 9 -108v-721h-246v702q0 111 -42.5 160t-129.5 49q-103 0 -203 -92v-819 h-246z" />
<glyph unicode="n" horiz-adv-x="1146" d="M137 0v1133h201l22 -121q56 56 137.5 96.5t182.5 40.5q89 0 155.5 -30t105.5 -85t58 -125.5t19 -156.5v-752h-246v698q0 115 -44 164t-134 49q-60 0 -118 -28.5t-93 -63.5v-819h-246z" />
<glyph unicode="o" horiz-adv-x="1064" d="M92 420v287q0 209 110.5 325.5t329.5 116.5q221 0 331 -115.5t110 -326.5v-287q0 -209 -110 -322.5t-331 -113.5q-219 0 -329.5 115t-110.5 321zM338 434q0 -122 44 -177.5t150 -55.5t150.5 55.5t44.5 177.5v262q0 123 -44 178.5t-151 55.5q-106 0 -150 -55.5t-44 -178.5 v-262z" />
<glyph unicode="p" horiz-adv-x="1110" d="M137 -414v1547h195l33 -105q45 52 120 86.5t158 34.5q183 0 279 -115.5t96 -324.5v-287q0 -208 -94 -323t-275 -115q-79 0 -149.5 32t-116.5 80v-510h-246zM383 305q38 -39 90.5 -64.5t106.5 -25.5q101 0 146.5 57t45.5 177v235q0 120 -45.5 177t-146.5 57 q-54 0 -106.5 -26.5t-90.5 -66.5v-520z" />
<glyph unicode="q" horiz-adv-x="1101" d="M92 422v287q0 209 96 324.5t279 115.5q83 0 158 -34.5t120 -86.5l33 105h195v-1547h-246v510q-46 -48 -116.5 -80t-149.5 -32q-181 0 -275 115t-94 323zM338 449q0 -120 45.5 -177t146.5 -57q54 0 106.5 25.5t90.5 64.5v520q-38 40 -90.5 66.5t-106.5 26.5 q-101 0 -146.5 -57t-45.5 -177v-235z" />
<glyph unicode="r" horiz-adv-x="798" d="M137 0v1133h203l20 -150q21 27 46 52t61 53t81.5 44.5t92.5 16.5q75 0 123 -23l-45 -237q-58 20 -115 20q-133 0 -221 -118v-791h-246z" />
<glyph unicode="s" horiz-adv-x="923" d="M59 92l70 180q190 -82 324 -82q172 0 172 146q0 37 -23 65.5t-61 45t-86.5 34t-99 32.5t-99 41t-86.5 58.5t-61 86t-23 122.5q0 162 107 245t284 83q200 0 361 -100l-74 -183q-167 76 -277 76q-163 0 -163 -113q0 -37 30 -63.5t77.5 -44.5t105 -36t115 -43.5t105 -59.5 t77.5 -92t30 -134q0 -185 -99 -278.5t-312 -93.5q-100 0 -209.5 31t-184.5 77z" />
<glyph unicode="t" horiz-adv-x="882" d="M47 926v194l193 13v217l241 26v-243h297v-207h-297v-592q0 -67 28 -96t95 -29q72 0 166 27l51 -187q-121 -59 -241 -59q-180 0 -262 85.5t-82 254.5v596h-189z" />
<glyph unicode="u" horiz-adv-x="1136" d="M127 381v752h246v-699q0 -115 44 -164t134 -49q60 0 118 28.5t93 63.5v820h246v-1133h-201l-23 121q-137 -137 -319 -137q-89 0 -155.5 30t-105.5 85t-58 125.5t-19 156.5z" />
<glyph unicode="v" horiz-adv-x="1024" d="M37 1133h262q2 -12 209 -801h8l209 801h264l-348 -1133h-258z" />
<glyph unicode="w" horiz-adv-x="1478" d="M39 1133h266l148 -779h8l174 779h209l176 -779h8l146 779h268l-281 -1133h-262l-151 616h-9l-149 -616h-271z" />
<glyph unicode="x" horiz-adv-x="937" d="M20 0l316 573l-307 560h274l162 -345h8l162 345h274l-307 -560l318 -573h-279l-168 354h-8l-170 -354h-275z" />
<glyph unicode="y" horiz-adv-x="1019" d="M35 1133h256l211 -814h8l223 814h258l-479 -1547h-233l133 414h-45z" />
<glyph unicode="z" horiz-adv-x="991" d="M84 0v178l498 742h-469v213h778v-172l-498 -746h525v-215h-834z" />
<glyph unicode="{" horiz-adv-x="849" d="M70 541v43v172h73q57 0 86 41t29 110v359q0 140 63.5 205t172.5 65h192v-215h-115q-34 0 -51.5 -22t-17.5 -60v-332q0 -209 -158 -254v-8q158 -45 158 -254v-334q0 -37 17.5 -59.5t51.5 -22.5h115v-213h-192q-108 0 -172 65t-64 204v360q0 67 -29.5 108.5t-85.5 41.5h-73 z" />
<glyph unicode="|" horiz-adv-x="507" d="M131 -238v1809h244v-1809h-244z" />
<glyph unicode="}" horiz-adv-x="849" d="M164 -25h115q34 0 51.5 22.5t17.5 59.5v334q0 209 158 254v8q-158 45 -158 254v332q0 38 -17.5 60t-51.5 22h-115v215h192q109 0 172.5 -65t63.5 -205v-359q0 -69 29 -110t86 -41h73v-172v-43h-73q-56 0 -85.5 -41.5t-29.5 -108.5v-360q0 -139 -64 -204t-172 -65h-192 v213z" />
<glyph unicode="&#xa1;" horiz-adv-x="542" d="M123 805v305h299v-305h-299zM133 -324l41 990h193l41 -990h-275z" />
<glyph unicode="&#xa2;" horiz-adv-x="950" d="M82 541v329q0 180 80 283t252 129v152h200v-154q142 -17 279 -104l-76 -185q-187 84 -309 84q-95 0 -138.5 -41.5t-43.5 -107.5v-441q0 -66 43.5 -107.5t138.5 -41.5q77 0 144.5 18t164.5 62l76 -183q-140 -85 -279 -102v-131h-200v129q-172 26 -252 129t-80 283z" />
<glyph unicode="&#xa3;" horiz-adv-x="1185" d="M39 629v180l164 25q-31 117 -31 196q0 112 41.5 196t112 131.5t153.5 70t178 22.5q114 0 218.5 -34.5t177.5 -84.5l-88 -186q-158 76 -306 76q-32 0 -61.5 -4.5t-62.5 -18.5t-56.5 -36t-39 -60t-15.5 -88q0 -86 27 -178h467v-207h-416q26 -107 26 -174 q0 -71 -31.5 -129.5t-80.5 -96.5l4 -8h631v-221h-975v190q55 28 88.5 50.5t65.5 54.5t46.5 72t14.5 92q0 58 -33 170h-219z" />
<glyph unicode="&#xa4;" horiz-adv-x="1175" d="M51 266l172 172q-57 92 -57 238q0 143 53 233l-168 170l139 144l172 -172q88 55 226 55q136 0 225 -57l174 174l139 -144l-172 -172q56 -90 56 -231q0 -145 -58 -238l174 -172l-139 -143l-176 176q-85 -53 -223 -53q-142 0 -223 51l-175 -174zM362 676q0 -112 56 -175 t170 -63t169.5 62.5t55.5 175.5q0 112 -55.5 174.5t-169.5 62.5t-170 -62.5t-56 -174.5z" />
<glyph unicode="&#xa5;" horiz-adv-x="1191" d="M33 1434h278l281 -643h8l283 643h274l-348 -717h199v-182h-283v-105h283v-182h-283v-248h-258v248h-285v182h285v105h-285v182h199z" />
<glyph unicode="&#xa6;" horiz-adv-x="505" d="M131 -238v828h244v-828h-244zM131 743v828h244v-828h-244z" />
<glyph unicode="&#xa7;" horiz-adv-x="1083" d="M66 584q0 133 110 252q-74 101 -74 223q0 187 115.5 289t327.5 102q225 0 422 -115l-84 -194q-194 84 -338 84q-96 0 -144.5 -40t-48.5 -108q0 -46 22.5 -81t61 -57.5t88.5 -41t105 -36t110 -38.5t105 -53t88.5 -74t61 -107t22.5 -147q0 -134 -111 -254q74 -101 74 -223 q0 -188 -115 -289.5t-327 -101.5q-218 0 -422 119l84 190q185 -84 338 -84q96 0 144 40t48 108q0 46 -22.5 81t-61 57.5t-88.5 41t-105 36.5t-109.5 38.5t-104.5 53t-88.5 74.5t-61 107t-22.5 148zM311 596q0 -51 20 -90t50 -62.5t75.5 -43.5t86 -31.5t92 -27.5t84.5 -30 q51 51 51 117q0 51 -20 90t-50 62.5t-75.5 43.5t-86 31.5t-92 27.5t-84.5 30q-51 -51 -51 -117z" />
<glyph unicode="&#xa8;" horiz-adv-x="901" d="M135 1284v248h246v-248h-246zM520 1284v248h246v-248h-246z" />
<glyph unicode="&#xa9;" horiz-adv-x="1763" d="M96 788q0 368 206 580.5t579 212.5q372 0 578 -212.5t206 -580.5q0 -243 -90.5 -423t-268.5 -279.5t-425 -99.5q-186 0 -334 57t-247 162t-151.5 253t-52.5 330zM309 788q0 -285 147 -449.5t425 -164.5t424.5 164.5t146.5 449.5q0 283 -146 442t-425 159 q-280 0 -426 -159t-146 -442zM547 655v252q0 152 83.5 240t243.5 88q108 0 179 -47.5t118 -136.5l-129 -86q-36 59 -75.5 83.5t-92.5 24.5q-82 0 -115.5 -43.5t-33.5 -136.5v-223q0 -93 33.5 -137t115.5 -44q53 0 91.5 23.5t76.5 85.5l129 -84q-50 -94 -119 -140t-178 -46 q-160 0 -243.5 87.5t-83.5 239.5z" />
<glyph unicode="&#xaa;" horiz-adv-x="794" d="M102 905q0 74 35 129t95 84.5t128.5 43.5t147.5 14v28q0 88 -119 88q-95 0 -213 -51l-49 129q129 80 270 80q145 0 217 -68.5t72 -197.5v-490h-145l-15 72q-68 -82 -192 -82q-108 0 -170 60t-62 161zM281 922q0 -40 26.5 -63t71.5 -23q49 0 84 21.5t45 51.5v135 q-43 0 -80.5 -6t-72 -19t-54.5 -38t-20 -59z" />
<glyph unicode="&#xab;" horiz-adv-x="1271" d="M82 541v143l563 379v-191l-283 -260l283 -262v-188zM625 541v143l563 379v-191l-283 -260l283 -262v-188z" />
<glyph unicode="&#xac;" horiz-adv-x="1093" d="M27 561v209h1040v-653h-213v444h-827z" />
<glyph unicode="&#xad;" horiz-adv-x="696" d="M72 510v215h553v-215h-553z" />
<glyph unicode="&#xae;" horiz-adv-x="1097" d="M80 989q0 216 124.5 343.5t344.5 127.5t344.5 -127.5t124.5 -343.5t-124.5 -343.5t-344.5 -127.5t-344.5 127.5t-124.5 343.5zM197 989q0 -170 88 -265t264 -95t264 95t88 265q0 171 -88 266t-264 95t-264 -95t-88 -266zM377 721v539h170q196 0 196 -177 q0 -66 -28 -105.5t-68 -53.5l123 -203h-119l-106 186h-60v-186h-108zM485 1006h64q42 0 63 17.5t21 59.5q0 44 -22.5 62t-69.5 18h-56v-157z" />
<glyph unicode="&#xaf;" horiz-adv-x="784" d="M109 1337v189h565v-189h-565z" />
<glyph unicode="&#xb0;" horiz-adv-x="712" d="M72 1229q0 117 79 196.5t205 79.5t205.5 -79.5t79.5 -196.5t-79.5 -197t-205.5 -80t-205 80t-79 197zM231 1229q0 -57 34 -93t91 -36t91 36t34 93t-34 93t-91 36t-91 -36t-34 -93z" />
<glyph unicode="&#xb1;" horiz-adv-x="1013" d="M27 0v209h960v-209h-960zM27 655v209h372v373h213v-373h375v-209h-375v-372h-213v372h-372z" />
<glyph unicode="&#xb2;" horiz-adv-x="829" d="M80 1335q163 109 311 109q145 0 233.5 -70.5t88.5 -193.5q0 -57 -24.5 -109t-62 -90t-83.5 -76.5t-87 -67.5t-74 -63.5t-44 -64.5h377v-207h-623v129q0 54 22 106.5t56.5 94t77 80t84.5 71.5t76.5 62.5t56.5 58t22 53.5q0 38 -26.5 58t-71.5 20q-101 0 -221 -68z" />
<glyph unicode="&#xb3;" horiz-adv-x="829" d="M74 608l86 164q143 -70 233 -70q65 0 93 29t28 70q0 38 -27.5 63t-78.5 25h-195v184h172q51 0 79 23t28 61q0 36 -24.5 57t-70.5 21q-98 0 -215 -68l-86 168q149 109 316 109q151 0 227 -73t76 -204q0 -102 -82 -168q53 -33 76.5 -82.5t23.5 -132.5q0 -62 -17.5 -113 t-55.5 -93t-105.5 -65.5t-159.5 -23.5q-154 0 -321 119z" />
<glyph unicode="&#xb4;" horiz-adv-x="866" d="M262 1262l107 354h254l-195 -354h-166z" />
<glyph unicode="&#xb5;" horiz-adv-x="1136" d="M127 -414v1547h246v-699q0 -115 44 -164t134 -49q60 0 118 28.5t93 63.5v820h246v-1133h-201l-23 121q-137 -137 -319 -137q-47 0 -92 10v-408h-246z" />
<glyph unicode="&#xb6;" horiz-adv-x="1193" d="M68 1020q0 179 113 296.5t304 117.5h662v-211h-143v-1637h-211v1637h-129v-1637h-211v1022q-165 0 -275 117.5t-110 294.5z" />
<glyph unicode="&#xb7;" horiz-adv-x="481" d="M90 477v305h299v-305h-299z" />
<glyph unicode="&#xb8;" horiz-adv-x="880" d="M238 -393l30 108q82 -28 144 -28q46 0 67 14t21 51q0 27 -16.5 43.5t-51.5 16.5q-32 0 -82 -15l-53 53l14 175h148l-25 -109q21 4 39 4q45 0 81 -13.5t62.5 -52.5t26.5 -100q0 -41 -8 -72.5t-30 -60.5t-66.5 -45t-110.5 -16q-100 0 -190 47z" />
<glyph unicode="&#xb9;" horiz-adv-x="829" d="M86 1303l311 131h172v-725h162v-207h-586v207h203v485l-186 -74z" />
<glyph unicode="&#xba;" horiz-adv-x="794" d="M98 977v176q0 140 75.5 218.5t223.5 78.5q150 0 223.5 -77.5t73.5 -219.5v-176q0 -140 -73.5 -216.5t-223.5 -76.5q-148 0 -223.5 77.5t-75.5 215.5zM279 985q0 -73 28 -107t90 -34q64 0 91.5 34t27.5 107v162q0 75 -27.5 109t-91.5 34q-62 0 -90 -34.5t-28 -108.5v-162z " />
<glyph unicode="&#xbb;" horiz-adv-x="1271" d="M82 162v188l283 262l-283 260v191l563 -379v-143zM625 162v188l282 262l-282 260v191l563 -379v-143z" />
<glyph unicode="&#xbc;" horiz-adv-x="1994" d="M86 1303l311 131h172v-725h162v-207h-586v207h203v485l-186 -74zM655 -51l525 1536h241l-524 -1536h-242zM1188 182v174l256 576h227l-241 -547h161v205h203v-205h102v-203h-102v-182h-203v182h-403z" />
<glyph unicode="&#xbd;" horiz-adv-x="1996" d="M86 1303l311 131h172v-725h162v-207h-586v207h203v485l-186 -74zM647 -51l524 1536h242l-524 -1536h-242zM1262 834q161 108 311 108q145 0 233 -70.5t88 -193.5q0 -57 -24.5 -109t-62 -90t-83 -76.5t-86.5 -67.5t-74 -63.5t-44 -64.5h376v-207h-622v129q0 54 22 106.5 t56.5 94t77 80t84.5 71.5t76.5 62.5t56.5 58t22 53.5q0 38 -26.5 58t-71.5 20q-103 0 -221 -67z" />
<glyph unicode="&#xbe;" horiz-adv-x="1994" d="M84 608l86 164q143 -70 233 -70q65 0 93 29t28 70q0 38 -27.5 63t-78.5 25h-195v184h172q51 0 79 23t28 61q0 36 -24 57t-70 21q-98 0 -215 -68l-87 168q149 109 316 109q151 0 227 -73t76 -204q0 -102 -82 -168q53 -33 76.5 -82.5t23.5 -132.5q0 -62 -17.5 -113t-55 -93 t-105 -65.5t-159.5 -23.5q-155 0 -322 119zM637 -51l524 1536h242l-524 -1536h-242zM1188 182v174l256 576h227l-241 -547h161v205h203v-205h102v-203h-102v-182h-203v182h-403z" />
<glyph unicode="&#xbf;" horiz-adv-x="1046" d="M94 31q0 64 22.5 118t58.5 91.5t79.5 70.5t87 62t79.5 58.5t58.5 67.5t22.5 81v100h239v-145q0 -66 -41 -125.5t-99.5 -104.5t-116.5 -87t-99 -89.5t-41 -95.5q0 -154 223 -154q78 0 152 24t168 74l102 -172q-84 -65 -200 -105t-240 -40q-212 0 -333.5 101.5 t-121.5 269.5zM471 805v305h299v-305h-299z" />
<glyph unicode="&#xc0;" horiz-adv-x="1245" d="M39 0l463 1434h241l463 -1434h-262l-98 317h-447l-100 -317h-260zM350 1923h254l107 -354h-166zM459 545h327l-159 526h-9z" />
<glyph unicode="&#xc1;" horiz-adv-x="1245" d="M39 0l463 1434h241l463 -1434h-262l-98 317h-447l-100 -317h-260zM459 545h327l-159 526h-9zM512 1569l106 354h254l-194 -354h-166z" />
<glyph unicode="&#xc2;" horiz-adv-x="1245" d="M39 0l463 1434h241l463 -1434h-262l-98 317h-447l-100 -317h-260zM299 1569l229 354h193l229 -354h-168l-157 162l-158 -162h-168zM459 545h327l-159 526h-9z" />
<glyph unicode="&#xc3;" horiz-adv-x="1245" d="M39 0l463 1434h241l463 -1434h-262l-98 317h-447l-100 -317h-260zM262 1642q80 218 223 218q50 0 100.5 -26t93 -51.5t73.5 -25.5q28 0 50.5 19.5t53.5 76.5l131 -69q-82 -217 -225 -217q-50 0 -100.5 25.5t-92.5 51t-73 25.5q-28 0 -50.5 -19.5t-54.5 -76.5zM459 545 h327l-159 526h-9z" />
<glyph unicode="&#xc4;" horiz-adv-x="1245" d="M39 0l463 1434h241l463 -1434h-262l-98 317h-447l-100 -317h-260zM309 1591v248h246v-248h-246zM459 545h327l-159 526h-9zM694 1591v248h246v-248h-246z" />
<glyph unicode="&#xc5;" horiz-adv-x="1245" d="M39 0l463 1434h241l463 -1434h-262l-98 317h-447l-100 -317h-260zM391 1741q0 101 65 161t167 60q103 0 167 -60t64 -161q0 -103 -64 -162t-167 -59q-102 0 -167 59.5t-65 161.5zM459 545h327l-159 526h-9zM530 1741q0 -40 25.5 -65t67.5 -25q43 0 67.5 24.5t24.5 65.5 q0 42 -24 66t-68 24t-68.5 -24t-24.5 -66z" />
<glyph unicode="&#xc6;" horiz-adv-x="1683" d="M39 0l467 1434h1057v-226h-742l117 -364h580v-226h-510l120 -393h435v-225h-617l-100 317h-447l-100 -317h-260zM459 545h327l-159 526h-9z" />
<glyph unicode="&#xc7;" horiz-adv-x="1130" d="M113 535v364q0 259 124.5 405t385.5 146q330 0 460 -295l-200 -104q-53 89 -115.5 126t-144.5 37q-135 0 -193.5 -76t-58.5 -218v-406q0 -295 258 -295q86 0 147 33.5t113 128.5l201 -98q-71 -150 -175.5 -222.5t-263.5 -76.5l-16 -68q21 4 39 4q45 0 81 -13.5 t62.5 -52.5t26.5 -100q0 -41 -8 -72.5t-30 -60.5t-66.5 -45t-110.5 -16q-101 0 -191 47l31 108q82 -28 143 -28q46 0 67 14t21 51q0 60 -67 60q-33 0 -82 -15l-53 53l12 144q-202 31 -299.5 172.5t-97.5 368.5z" />
<glyph unicode="&#xc8;" horiz-adv-x="1087" d="M162 0v1434h805v-226h-547v-364h502v-226h-502v-393h547v-225h-805zM326 1923h254l106 -354h-166z" />
<glyph unicode="&#xc9;" horiz-adv-x="1087" d="M162 0v1434h805v-226h-547v-364h502v-226h-502v-393h547v-225h-805zM442 1569l107 354h254l-195 -354h-166z" />
<glyph unicode="&#xca;" horiz-adv-x="1087" d="M162 0v1434h805v-226h-547v-364h502v-226h-502v-393h547v-225h-805zM244 1569l229 354h193l229 -354h-168l-158 162l-157 -162h-168z" />
<glyph unicode="&#xcb;" horiz-adv-x="1087" d="M162 0v1434h805v-226h-547v-364h502v-226h-502v-393h547v-225h-805zM258 1591v248h246v-248h-246zM643 1591v248h246v-248h-246z" />
<glyph unicode="&#xcc;" horiz-adv-x="581" d="M41 1923h254l106 -354h-165zM162 0v1434h258v-1434h-258z" />
<glyph unicode="&#xcd;" horiz-adv-x="581" d="M162 0v1434h258v-1434h-258zM178 1569l107 354h254l-195 -354h-166z" />
<glyph unicode="&#xce;" horiz-adv-x="581" d="M-27 1569l230 354h192l230 -354h-168l-158 162l-158 -162h-168zM162 0v1434h258v-1434h-258z" />
<glyph unicode="&#xcf;" horiz-adv-x="581" d="M-16 1591v248h245v-248h-245zM162 0v1434h258v-1434h-258zM369 1591v248h245v-248h-245z" />
<glyph unicode="&#xd0;" horiz-adv-x="1304" d="M33 625v215h129v594h463q270 0 423.5 -180.5t153.5 -532.5q0 -325 -150 -523t-382 -198h-508v625h-129zM418 225h190q78 0 137.5 27.5t96 72.5t59 110.5t31 134t8.5 151.5q0 75 -8.5 140t-31 130.5t-58.5 112t-96 75.5t-138 29h-190v-368h266v-215h-266v-400z" />
<glyph unicode="&#xd1;" horiz-adv-x="1363" d="M162 0v1434h221l575 -945h9v945h243v-1434h-225l-571 944h-8v-944h-244zM336 1642q80 218 223 218q50 0 100.5 -26t92.5 -51.5t73 -25.5q28 0 51 19.5t54 76.5l131 -69q-82 -217 -225 -217q-50 0 -100.5 25.5t-93 51t-73.5 25.5q-28 0 -50 -19t-54 -77z" />
<glyph unicode="&#xd2;" horiz-adv-x="1243" d="M113 492v448q0 237 130 373.5t380 136.5t378.5 -136.5t128.5 -373.5v-448q0 -237 -128.5 -372.5t-378.5 -135.5t-380 135.5t-130 372.5zM362 1923h254l107 -354h-166zM371 514q0 -149 59 -222t193 -73q135 0 192 72.5t57 222.5v406q0 148 -57 221t-192 73 q-134 0 -193 -73.5t-59 -220.5v-406z" />
<glyph unicode="&#xd3;" horiz-adv-x="1243" d="M113 492v448q0 237 130 373.5t380 136.5t378.5 -136.5t128.5 -373.5v-448q0 -237 -128.5 -372.5t-378.5 -135.5t-380 135.5t-130 372.5zM371 514q0 -149 59 -222t193 -73q135 0 192 72.5t57 222.5v406q0 148 -57 221t-192 73q-134 0 -193 -73.5t-59 -220.5v-406z M500 1569l106 354h254l-194 -354h-166z" />
<glyph unicode="&#xd4;" horiz-adv-x="1243" d="M113 492v448q0 237 130 373.5t380 136.5t378.5 -136.5t128.5 -373.5v-448q0 -237 -128.5 -372.5t-378.5 -135.5t-380 135.5t-130 372.5zM297 1569l229 354h193l229 -354h-168l-157 162l-158 -162h-168zM371 514q0 -149 59 -222t193 -73q135 0 192 72.5t57 222.5v406 q0 148 -57 221t-192 73q-134 0 -193 -73.5t-59 -220.5v-406z" />
<glyph unicode="&#xd5;" horiz-adv-x="1243" d="M113 492v448q0 237 130 373.5t380 136.5t378.5 -136.5t128.5 -373.5v-448q0 -237 -128.5 -372.5t-378.5 -135.5t-380 135.5t-130 372.5zM264 1642q80 218 223 218q50 0 100.5 -26t93 -51.5t73.5 -25.5q28 0 50.5 19.5t53.5 76.5l131 -69q-82 -217 -225 -217 q-50 0 -100.5 25.5t-92.5 51t-73 25.5q-28 0 -50.5 -19.5t-54.5 -76.5zM371 514q0 -149 59 -222t193 -73q135 0 192 72.5t57 222.5v406q0 148 -57 221t-192 73q-134 0 -193 -73.5t-59 -220.5v-406z" />
<glyph unicode="&#xd6;" horiz-adv-x="1243" d="M113 492v448q0 237 130 373.5t380 136.5t378.5 -136.5t128.5 -373.5v-448q0 -237 -128.5 -372.5t-378.5 -135.5t-380 135.5t-130 372.5zM322 1591v248h245v-248h-245zM371 514q0 -149 59 -222t193 -73q135 0 192 72.5t57 222.5v406q0 148 -57 221t-192 73 q-134 0 -193 -73.5t-59 -220.5v-406zM707 1591v248h245v-248h-245z" />
<glyph unicode="&#xd7;" horiz-adv-x="1001" d="M86 344l270 266l-270 269l147 149l273 -270l274 270l148 -149l-273 -269l273 -266l-148 -149l-274 268l-273 -268z" />
<glyph unicode="&#xd8;" horiz-adv-x="1243" d="M113 492v448q0 237 130 373.5t380 136.5q95 0 188 -27l45 111h182l-75 -186q167 -130 167 -408v-448q0 -237 -128.5 -372.5t-378.5 -135.5q-104 0 -197 26l-45 -110h-184l77 188q-161 130 -161 404zM371 514q0 -84 18 -143l334 829q-41 14 -100 14q-134 0 -193 -73.5 t-59 -220.5v-406zM514 233q43 -14 109 -14q135 0 192 72.5t57 222.5v406q0 92 -20 153z" />
<glyph unicode="&#xd9;" horiz-adv-x="1314" d="M158 467v967h258v-947q0 -134 52.5 -203t188.5 -69t189 69t53 203v947h258v-967q0 -233 -127 -358t-373 -125t-372.5 125t-126.5 358zM410 1923h254l106 -354h-166z" />
<glyph unicode="&#xda;" horiz-adv-x="1314" d="M158 467v967h258v-947q0 -134 52.5 -203t188.5 -69t189 69t53 203v947h258v-967q0 -233 -127 -358t-373 -125t-372.5 125t-126.5 358zM549 1569l106 354h254l-194 -354h-166z" />
<glyph unicode="&#xdb;" horiz-adv-x="1314" d="M158 467v967h258v-947q0 -134 52.5 -203t188.5 -69t189 69t53 203v947h258v-967q0 -233 -127 -358t-373 -125t-372.5 125t-126.5 358zM338 1569l229 354h193l229 -354h-168l-157 162l-158 -162h-168z" />
<glyph unicode="&#xdc;" horiz-adv-x="1316" d="M158 467v967h258v-947q0 -134 52.5 -203t188.5 -69t189 69t53 203v947h258v-967q0 -233 -127 -358t-373 -125t-372.5 125t-126.5 358zM354 1591v248h246v-248h-246zM739 1591v248h246v-248h-246z" />
<glyph unicode="&#xdd;" horiz-adv-x="1191" d="M33 1434h278l281 -643h8l283 643h274l-432 -893v-541h-258v541zM496 1569l106 354h254l-194 -354h-166z" />
<glyph unicode="&#xde;" horiz-adv-x="1198" d="M162 0v1434h258v-207h164q103 0 180 -12.5t144 -44.5t109 -85t65.5 -135.5t23.5 -193.5q0 -242 -129 -354.5t-375 -112.5h-182v-289h-258zM420 514h172q136 0 195 59.5t59 190.5q0 134 -59.5 185.5t-208.5 51.5h-158v-487z" />
<glyph unicode="&#xdf;" horiz-adv-x="1226" d="M133 0v1112q0 212 135.5 327t349.5 115q93 0 171.5 -23t133 -63t93 -94t56.5 -115t18 -126q0 -97 -42 -177.5t-106 -128.5q103 -49 150 -148.5t47 -219.5q0 -222 -126 -340.5t-337 -118.5h-182v215h182q57 0 101 22.5t69 59t37 78t12 84.5q0 113 -59.5 180.5t-186.5 67.5 h-98v211h98q98 0 149.5 63.5t51.5 151.5q0 83 -62 145.5t-170 62.5q-123 0 -182 -60.5t-59 -152.5v-1128h-244z" />
<glyph unicode="&#xe0;" horiz-adv-x="1079" d="M88 309q0 91 37 165t98 121.5t142.5 80t166.5 46t175 13.5v49q0 154 -195 154q-145 0 -307 -78l-76 170q188 119 393 119q216 0 323 -101.5t107 -293.5v-754h-198l-23 115q-38 -54 -112.5 -92.5t-178.5 -38.5q-150 0 -251 90.5t-101 234.5zM289 1616h254l106 -354h-166z M336 326q0 -63 46 -99.5t114 -36.5q72 0 129 36.5t84 88.5v238q-69 0 -133 -12.5t-119 -38t-88 -71t-33 -105.5z" />
<glyph unicode="&#xe1;" horiz-adv-x="1079" d="M88 309q0 91 37 165t98 121.5t142.5 80t166.5 46t175 13.5v49q0 154 -195 154q-145 0 -307 -78l-76 170q188 119 393 119q216 0 323 -101.5t107 -293.5v-754h-198l-23 115q-38 -54 -112.5 -92.5t-178.5 -38.5q-150 0 -251 90.5t-101 234.5zM336 326q0 -63 46 -99.5 t114 -36.5q72 0 129 36.5t84 88.5v238q-69 0 -133 -12.5t-119 -38t-88 -71t-33 -105.5zM416 1262l106 354h254l-194 -354h-166z" />
<glyph unicode="&#xe2;" horiz-adv-x="1079" d="M88 309q0 91 37 165t98 121.5t142.5 80t166.5 46t175 13.5v49q0 154 -195 154q-145 0 -307 -78l-76 170q188 119 393 119q216 0 323 -101.5t107 -293.5v-754h-198l-23 115q-38 -54 -112.5 -92.5t-178.5 -38.5q-150 0 -251 90.5t-101 234.5zM217 1262l229 354h193 l229 -354h-168l-157 161l-158 -161h-168zM336 326q0 -63 46 -99.5t114 -36.5q72 0 129 36.5t84 88.5v238q-69 0 -133 -12.5t-119 -38t-88 -71t-33 -105.5z" />
<glyph unicode="&#xe3;" horiz-adv-x="1079" d="M88 309q0 91 37 165t98 121.5t142.5 80t166.5 46t175 13.5v49q0 154 -195 154q-145 0 -307 -78l-76 170q188 119 393 119q216 0 323 -101.5t107 -293.5v-754h-198l-23 115q-38 -54 -112.5 -92.5t-178.5 -38.5q-150 0 -251 90.5t-101 234.5zM176 1335q79 217 223 217 q50 0 100.5 -25.5t93 -51t73.5 -25.5q28 0 50.5 19.5t53.5 76.5l131 -69q-82 -217 -225 -217q-50 0 -100.5 25.5t-92.5 51t-73 25.5q-28 0 -50.5 -19.5t-54.5 -76.5zM336 326q0 -63 46 -99.5t114 -36.5q72 0 129 36.5t84 88.5v238q-69 0 -133 -12.5t-119 -38t-88 -71 t-33 -105.5z" />
<glyph unicode="&#xe4;" horiz-adv-x="1079" d="M88 309q0 91 37 165t98 121.5t142.5 80t166.5 46t175 13.5v49q0 154 -195 154q-145 0 -307 -78l-76 170q188 119 393 119q216 0 323 -101.5t107 -293.5v-754h-198l-23 115q-38 -54 -112.5 -92.5t-178.5 -38.5q-150 0 -251 90.5t-101 234.5zM229 1284v248h246v-248h-246z M336 326q0 -63 46 -99.5t114 -36.5q72 0 129 36.5t84 88.5v238q-69 0 -133 -12.5t-119 -38t-88 -71t-33 -105.5zM614 1284v248h246v-248h-246z" />
<glyph unicode="&#xe5;" horiz-adv-x="1079" d="M88 309q0 91 37 165t98 121.5t142.5 80t166.5 46t175 13.5v49q0 154 -195 154q-145 0 -307 -78l-76 170q188 119 393 119q216 0 323 -101.5t107 -293.5v-754h-198l-23 115q-38 -54 -112.5 -92.5t-178.5 -38.5q-150 0 -251 90.5t-101 234.5zM313 1434q0 101 65 161t167 60 q103 0 167 -60t64 -161q0 -103 -64 -162.5t-167 -59.5q-102 0 -167 60t-65 162zM336 326q0 -63 46 -99.5t114 -36.5q72 0 129 36.5t84 88.5v238q-69 0 -133 -12.5t-119 -38t-88 -71t-33 -105.5zM453 1434q0 -40 25 -65.5t67 -25.5q43 0 67.5 25t24.5 66q0 42 -24 66t-68 24 t-68 -24t-24 -66z" />
<glyph unicode="&#xe6;" horiz-adv-x="1644" d="M88 309q0 91 37 165t98 121.5t142.5 80t166.5 46t175 13.5v49q0 154 -195 154q-145 0 -307 -78l-76 170q188 119 393 119q209 0 316 -96q113 96 301 96q424 0 424 -438v-234h-609v-110q0 -72 49 -121t154 -49q90 0 150 19t149 67l82 -183q-102 -59 -187.5 -87.5 t-203.5 -28.5q-263 0 -371 155q-117 -155 -336 -155q-150 0 -251 90.5t-101 234.5zM336 336q0 -62 45.5 -98.5t114.5 -36.5q72 0 129 36.5t84 88.5v237q-69 0 -133 -12.5t-119 -38t-88 -71t-33 -105.5zM954 670h369q0 142 -38.5 204t-145.5 62t-146 -60t-39 -206z" />
<glyph unicode="&#xe7;" horiz-adv-x="958" d="M92 424v285q0 206 117 323t336 117q240 0 377 -207l-166 -137q-45 66 -96 95.5t-115 29.5q-207 0 -207 -242v-244q0 -241 213 -241q65 0 114.5 26t104.5 101l154 -137q-132 -209 -377 -209l-17 -68q21 4 39 4q45 0 81 -13.5t62.5 -52.5t26.5 -100q0 -41 -8 -72.5 t-30 -60.5t-66.5 -45t-110.5 -16q-100 0 -190 47l31 108q82 -28 143 -28q46 0 67 14t21 51q0 27 -16.5 43.5t-51.5 16.5q-32 0 -82 -15l-53 53l13 150q-153 35 -233.5 145t-80.5 279z" />
<glyph unicode="&#xe8;" horiz-adv-x="1028" d="M92 389v322q0 207 108 322.5t322 115.5q424 0 424 -438v-234h-608v-110q0 -72 49 -121t154 -49q90 0 150 19t149 67l82 -183q-102 -58 -188 -87t-204 -29q-216 0 -327 106t-111 299zM272 1616h254l107 -354h-166zM338 670h369q0 141 -38.5 203.5t-146.5 62.5 q-107 0 -145.5 -60t-38.5 -206z" />
<glyph unicode="&#xe9;" horiz-adv-x="1028" d="M92 389v322q0 207 108 322.5t322 115.5q424 0 424 -438v-234h-608v-110q0 -72 49 -121t154 -49q90 0 150 19t149 67l82 -183q-102 -58 -188 -87t-204 -29q-216 0 -327 106t-111 299zM338 670h369q0 141 -38.5 203.5t-146.5 62.5q-107 0 -145.5 -60t-38.5 -206zM408 1262 l106 354h254l-195 -354h-165z" />
<glyph unicode="&#xea;" horiz-adv-x="1028" d="M92 389v322q0 207 108 322.5t322 115.5q424 0 424 -438v-234h-608v-110q0 -72 49 -121t154 -49q90 0 150 19t149 67l82 -183q-102 -58 -188 -87t-204 -29q-216 0 -327 106t-111 299zM205 1262l229 354h193l229 -354h-168l-158 161l-157 -161h-168zM338 670h369 q0 141 -38.5 203.5t-146.5 62.5q-107 0 -145.5 -60t-38.5 -206z" />
<glyph unicode="&#xeb;" horiz-adv-x="1028" d="M92 389v322q0 207 108 322.5t322 115.5q424 0 424 -438v-234h-608v-110q0 -72 49 -121t154 -49q90 0 150 19t149 67l82 -183q-102 -58 -188 -87t-204 -29q-216 0 -327 106t-111 299zM211 1284v248h246v-248h-246zM338 670h369q0 141 -38.5 203.5t-146.5 62.5 q-107 0 -145.5 -60t-38.5 -206zM596 1284v248h246v-248h-246z" />
<glyph unicode="&#xec;" horiz-adv-x="526" d="M12 1616h254l107 -354h-166zM143 0v1133h246v-1133h-246z" />
<glyph unicode="&#xed;" horiz-adv-x="526" d="M143 0v1133h246v-1133h-246zM143 1262l107 354h254l-195 -354h-166z" />
<glyph unicode="&#xee;" horiz-adv-x="526" d="M-59 1262l229 354h192l230 -354h-168l-158 161l-157 -161h-168zM143 0v1133h246v-1133h-246z" />
<glyph unicode="&#xef;" horiz-adv-x="526" d="M-43 1284v248h246v-248h-246zM143 0v1133h246v-1133h-246zM342 1284v248h246v-248h-246z" />
<glyph unicode="&#xf0;" horiz-adv-x="1060" d="M88 420v121q0 209 110.5 325.5t329.5 116.5q119 0 197 -47q0 146 -51 207l-119 -107l-123 121l105 103q-47 14 -97 14q-103 0 -190 -41l-57 164q59 31 134 50t138 19q137 0 233 -49l131 133l125 -123l-116 -116q129 -152 129 -420q2 -295 2 -471q0 -209 -110 -322.5 t-331 -113.5q-219 0 -329.5 115t-110.5 321zM334 434q0 -122 44 -177.5t150 -55.5t150.5 55.5t44.5 177.5v96q0 123 -44 178.5t-151 55.5q-106 0 -150 -55.5t-44 -178.5v-96z" />
<glyph unicode="&#xf1;" horiz-adv-x="1146" d="M137 0v1133h201l22 -121q56 56 137.5 96.5t182.5 40.5q89 0 155.5 -30t105.5 -85t58 -125.5t19 -156.5v-752h-246v698q0 115 -44 164t-134 49q-60 0 -118 -28.5t-93 -63.5v-819h-246zM231 1335q79 217 224 217q50 0 100.5 -25.5t92.5 -51t73 -25.5q28 0 50.5 19.5 t53.5 76.5l131 -69q-82 -217 -225 -217q-50 0 -100.5 25.5t-92.5 51t-73 25.5q-28 0 -50.5 -19.5t-54.5 -76.5z" />
<glyph unicode="&#xf2;" horiz-adv-x="1064" d="M92 420v287q0 209 110.5 325.5t329.5 116.5q221 0 331 -115.5t110 -326.5v-287q0 -209 -110 -322.5t-331 -113.5q-219 0 -329.5 115t-110.5 321zM281 1616h254l106 -354h-166zM338 434q0 -122 44 -177.5t150 -55.5t150.5 55.5t44.5 177.5v262q0 123 -44 178.5t-151 55.5 q-106 0 -150 -55.5t-44 -178.5v-262z" />
<glyph unicode="&#xf3;" horiz-adv-x="1064" d="M92 420v287q0 209 110.5 325.5t329.5 116.5q221 0 331 -115.5t110 -326.5v-287q0 -209 -110 -322.5t-331 -113.5q-219 0 -329.5 115t-110.5 321zM338 434q0 -122 44 -177.5t150 -55.5t150.5 55.5t44.5 177.5v262q0 123 -44 178.5t-151 55.5q-106 0 -150 -55.5t-44 -178.5 v-262zM412 1262l106 354h254l-194 -354h-166z" />
<glyph unicode="&#xf4;" horiz-adv-x="1064" d="M92 420v287q0 209 110.5 325.5t329.5 116.5q221 0 331 -115.5t110 -326.5v-287q0 -209 -110 -322.5t-331 -113.5q-219 0 -329.5 115t-110.5 321zM211 1262l229 354h193l229 -354h-168l-157 161l-158 -161h-168zM338 434q0 -122 44 -177.5t150 -55.5t150.5 55.5 t44.5 177.5v262q0 123 -44 178.5t-151 55.5q-106 0 -150 -55.5t-44 -178.5v-262z" />
<glyph unicode="&#xf5;" horiz-adv-x="1064" d="M92 420v287q0 209 110.5 325.5t329.5 116.5q221 0 331 -115.5t110 -326.5v-287q0 -209 -110 -322.5t-331 -113.5q-219 0 -329.5 115t-110.5 321zM178 1335q79 217 223 217q50 0 100.5 -25.5t93 -51t73.5 -25.5q28 0 50.5 19.5t53.5 76.5l131 -69q-82 -217 -225 -217 q-50 0 -100.5 25.5t-92.5 51t-73 25.5q-28 0 -50.5 -19.5t-54.5 -76.5zM338 434q0 -122 44 -177.5t150 -55.5t150.5 55.5t44.5 177.5v262q0 123 -44 178.5t-151 55.5q-106 0 -150 -55.5t-44 -178.5v-262z" />
<glyph unicode="&#xf6;" horiz-adv-x="1064" d="M92 420v287q0 209 110.5 325.5t329.5 116.5q221 0 331 -115.5t110 -326.5v-287q0 -209 -110 -322.5t-331 -113.5q-219 0 -329.5 115t-110.5 321zM227 1284v248h246v-248h-246zM338 434q0 -122 44 -177.5t150 -55.5t150.5 55.5t44.5 177.5v262q0 123 -44 178.5t-151 55.5 q-106 0 -150 -55.5t-44 -178.5v-262zM612 1284v248h246v-248h-246z" />
<glyph unicode="&#xf7;" horiz-adv-x="1013" d="M27 508v209h960v-209h-960zM356 264q0 66 36.5 106t113.5 40t113 -40t36 -106t-35.5 -104.5t-113.5 -38.5t-114 38.5t-36 104.5zM356 956q0 66 36.5 106t113.5 40t113 -40t36 -106t-35.5 -104.5t-113.5 -38.5t-114 38.5t-36 104.5z" />
<glyph unicode="&#xf8;" horiz-adv-x="1064" d="M92 420v287q0 209 110.5 325.5t329.5 116.5q75 0 144 -16l33 84h163l-59 -144q160 -109 160 -366v-287q0 -209 -110 -322.5t-331 -113.5q-76 0 -145 16l-31 -78h-161l53 137q-156 109 -156 361zM338 434q0 -68 12 -117l242 607q-27 6 -60 6q-106 0 -150 -55.5t-44 -178.5 v-262zM469 207q27 -6 63 -6q106 0 150.5 55.5t44.5 177.5v262q0 75 -14 121z" />
<glyph unicode="&#xf9;" horiz-adv-x="1136" d="M127 381v752h246v-699q0 -115 44 -164t134 -49q60 0 118 28.5t93 63.5v820h246v-1133h-201l-23 121q-137 -137 -319 -137q-89 0 -155.5 30t-105.5 85t-58 125.5t-19 156.5zM334 1616h254l106 -354h-166z" />
<glyph unicode="&#xfa;" horiz-adv-x="1136" d="M127 381v752h246v-699q0 -115 44 -164t134 -49q60 0 118 28.5t93 63.5v820h246v-1133h-201l-23 121q-137 -137 -319 -137q-89 0 -155.5 30t-105.5 85t-58 125.5t-19 156.5zM459 1262l106 354h254l-194 -354h-166z" />
<glyph unicode="&#xfb;" horiz-adv-x="1136" d="M127 381v752h246v-699q0 -115 44 -164t134 -49q60 0 118 28.5t93 63.5v820h246v-1133h-201l-23 121q-137 -137 -319 -137q-89 0 -155.5 30t-105.5 85t-58 125.5t-19 156.5zM256 1262l229 354h193l229 -354h-168l-157 161l-158 -161h-168z" />
<glyph unicode="&#xfc;" horiz-adv-x="1136" d="M127 381v752h246v-699q0 -115 44 -164t134 -49q60 0 118 28.5t93 63.5v820h246v-1133h-201l-23 121q-137 -137 -319 -137q-89 0 -155.5 30t-105.5 85t-58 125.5t-19 156.5zM264 1284v248h246v-248h-246zM649 1284v248h246v-248h-246z" />
<glyph unicode="&#xfd;" horiz-adv-x="1019" d="M35 1133h256l211 -814h8l223 814h258l-479 -1547h-233l133 414h-45zM412 1262l106 354h254l-194 -354h-166z" />
<glyph unicode="&#xfe;" horiz-adv-x="1110" d="M137 -414v1950h246v-489q47 45 116 73.5t144 28.5q183 0 279 -115.5t96 -324.5v-287q0 -208 -94 -323t-275 -115q-79 0 -149.5 32t-116.5 80v-510h-246zM383 305q38 -39 90.5 -64.5t106.5 -25.5q101 0 146.5 57t45.5 177v235q0 120 -45.5 177t-146.5 57 q-54 0 -106.5 -26.5t-90.5 -66.5v-520z" />
<glyph unicode="&#xff;" horiz-adv-x="1019" d="M35 1133h256l211 -814h8l223 814h258l-479 -1547h-233l133 414h-45zM203 1284v248h246v-248h-246zM588 1284v248h246v-248h-246z" />
<glyph unicode="&#x100;" horiz-adv-x="1245" d="M39 0l463 1434h241l463 -1434h-262l-98 317h-447l-100 -317h-260zM340 1638v189h565v-189h-565zM459 545h327l-159 526h-9z" />
<glyph unicode="&#x101;" horiz-adv-x="1079" d="M88 309q0 91 37 165t98 121.5t142.5 80t166.5 46t175 13.5v49q0 154 -195 154q-145 0 -307 -78l-76 170q188 119 393 119q216 0 323 -101.5t107 -293.5v-754h-198l-23 115q-38 -54 -112.5 -92.5t-178.5 -38.5q-150 0 -251 90.5t-101 234.5zM266 1337v189h565v-189h-565z M336 326q0 -63 46 -99.5t114 -36.5q72 0 129 36.5t84 88.5v238q-69 0 -133 -12.5t-119 -38t-88 -71t-33 -105.5z" />
<glyph unicode="&#x102;" horiz-adv-x="1245" d="M39 0l463 1434h241l463 -1434h-262l-98 317h-447l-100 -317h-260zM303 1847v39h199v-41q0 -119 121 -119q118 0 118 119v41h199v-39q0 -80 -24.5 -138t-69.5 -90.5t-99.5 -47.5t-123.5 -15t-124 15t-100.5 47.5t-70.5 90.5t-25 138zM459 545h327l-159 526h-9z" />
<glyph unicode="&#x103;" horiz-adv-x="1079" d="M88 309q0 91 37 165t98 121.5t142.5 80t166.5 46t175 13.5v49q0 154 -195 154q-145 0 -307 -78l-76 170q188 119 393 119q216 0 323 -101.5t107 -293.5v-754h-198l-23 115q-38 -54 -112.5 -92.5t-178.5 -38.5q-150 0 -251 90.5t-101 234.5zM221 1546v39h199v-41 q0 -119 121 -119q118 0 118 119v41h199v-39q0 -80 -24.5 -138t-69.5 -90.5t-99.5 -47.5t-123.5 -15t-124 15t-100.5 47.5t-70.5 90.5t-25 138zM336 326q0 -63 46 -99.5t114 -36.5q72 0 129 36.5t84 88.5v238q-69 0 -133 -12.5t-119 -38t-88 -71t-33 -105.5z" />
<glyph unicode="&#x104;" horiz-adv-x="1245" d="M39 0l463 1434h241l463 -1434q-81 -35 -138.5 -88.5t-57.5 -114.5q0 -30 18.5 -48.5t46.5 -18.5q36 0 88 22l43 -135q-80 -57 -202 -57q-89 0 -144 48t-55 138q0 79 57.5 147.5t159.5 106.5h-78l-98 317h-447l-100 -317h-260zM459 545h327l-159 526h-9z" />
<glyph unicode="&#x105;" horiz-adv-x="1079" d="M88 309q0 91 37 165t98 121.5t142.5 80t166.5 46t175 13.5v49q0 154 -195 154q-145 0 -307 -78l-76 170q188 119 393 119q216 0 323 -101.5t107 -293.5v-754q-81 -35 -138.5 -88.5t-57.5 -114.5q0 -30 18.5 -48.5t46.5 -18.5q36 0 88 22l43 -135q-80 -57 -202 -57 q-89 0 -144 48t-55 138q0 79 52.5 144.5t154.5 109.5l-27 115q-38 -54 -112.5 -92.5t-178.5 -38.5q-150 0 -251 90.5t-101 234.5zM336 326q0 -63 46 -99.5t114 -36.5q72 0 129 36.5t84 88.5v238q-69 0 -133 -12.5t-119 -38t-88 -71t-33 -105.5z" />
<glyph unicode="&#x106;" horiz-adv-x="1130" d="M113 535v364q0 259 124.5 405t385.5 146q330 0 460 -295l-200 -104q-53 89 -115.5 126t-144.5 37q-135 0 -193.5 -76t-58.5 -218v-406q0 -295 258 -295q86 0 147 33.5t113 128.5l201 -98q-73 -155 -182.5 -227t-278.5 -72q-262 0 -389 146.5t-127 404.5zM518 1569 l107 354h254l-195 -354h-166z" />
<glyph unicode="&#x107;" horiz-adv-x="958" d="M92 424v285q0 206 117 323t336 117q240 0 377 -207l-166 -137q-45 66 -96 95.5t-115 29.5q-207 0 -207 -242v-244q0 -241 213 -241q65 0 114.5 26t104.5 101l154 -137q-132 -209 -373 -209q-220 0 -339.5 117.5t-119.5 322.5zM430 1262l107 354h254l-195 -354h-166z" />
<glyph unicode="&#x108;" horiz-adv-x="1130" d="M113 535v364q0 259 124.5 405t385.5 146q330 0 460 -295l-200 -104q-53 89 -115.5 126t-144.5 37q-135 0 -193.5 -76t-58.5 -218v-406q0 -295 258 -295q86 0 147 33.5t113 128.5l201 -98q-73 -155 -182.5 -227t-278.5 -72q-262 0 -389 146.5t-127 404.5zM297 1563 l229 354h193l229 -354h-168l-157 161l-158 -161h-168z" />
<glyph unicode="&#x109;" horiz-adv-x="958" d="M92 424v285q0 206 117 323t336 117q240 0 377 -207l-166 -137q-45 66 -96 95.5t-115 29.5q-207 0 -207 -242v-244q0 -241 213 -241q65 0 114.5 26t104.5 101l154 -137q-132 -209 -373 -209q-220 0 -339.5 117.5t-119.5 322.5zM213 1262l229 354h193l229 -354h-168 l-157 161l-158 -161h-168z" />
<glyph unicode="&#x10a;" horiz-adv-x="1130" d="M113 535v364q0 259 124.5 405t385.5 146q330 0 460 -295l-200 -104q-53 89 -115.5 126t-144.5 37q-135 0 -193.5 -76t-58.5 -218v-406q0 -295 258 -295q86 0 147 33.5t113 128.5l201 -98q-73 -155 -182.5 -227t-278.5 -72q-262 0 -389 146.5t-127 404.5zM494 1567v270 h268v-270h-268z" />
<glyph unicode="&#x10b;" horiz-adv-x="958" d="M92 424v285q0 206 117 323t336 117q240 0 377 -207l-166 -137q-45 66 -96 95.5t-115 29.5q-207 0 -207 -242v-244q0 -241 213 -241q65 0 114.5 26t104.5 101l154 -137q-132 -209 -373 -209q-220 0 -339.5 117.5t-119.5 322.5zM414 1266v270h268v-270h-268z" />
<glyph unicode="&#x10c;" horiz-adv-x="1130" d="M113 535v364q0 259 124.5 405t385.5 146q330 0 460 -295l-200 -104q-53 89 -115.5 126t-144.5 37q-135 0 -193.5 -76t-58.5 -218v-406q0 -295 258 -295q86 0 147 33.5t113 128.5l201 -98q-73 -155 -182.5 -227t-278.5 -72q-262 0 -389 146.5t-127 404.5zM313 1917h168 l158 -162l158 162h168l-230 -354h-192z" />
<glyph unicode="&#x10d;" horiz-adv-x="958" d="M92 424v285q0 206 117 323t336 117q240 0 377 -207l-166 -137q-45 66 -96 95.5t-115 29.5q-207 0 -207 -242v-244q0 -241 213 -241q65 0 114.5 26t104.5 101l154 -137q-132 -209 -373 -209q-220 0 -339.5 117.5t-119.5 322.5zM203 1616h168l157 -162l158 162h168 l-229 -354h-193z" />
<glyph unicode="&#x10e;" horiz-adv-x="1304" d="M162 0v1434h463q270 0 423.5 -180.5t153.5 -532.5q0 -325 -150 -523t-382 -198h-508zM274 1917h168l158 -162l158 162h168l-230 -354h-192zM418 225h190q78 0 137.5 27.5t96 72.5t59 110.5t31 134t8.5 151.5q0 75 -8.5 140t-31 130.5t-58.5 112t-96 75.5t-138 29h-190 v-983z" />
<glyph unicode="&#x10f;" horiz-adv-x="1247" d="M92 424v287q0 208 94 323t275 115q78 0 148.5 -32.5t117.5 -80.5v500h246v-1536h-195l-33 104q-45 -52 -120 -86t-158 -34q-183 0 -279 115.5t-96 324.5zM338 449q0 -120 45.5 -177t146.5 -57q54 0 106.5 26t90.5 66v520q-38 39 -90.5 65t-106.5 26q-101 0 -146.5 -57 t-45.5 -177v-235zM1053 1118l37 418h241l-106 -418h-172z" />
<glyph unicode="&#x110;" horiz-adv-x="1304" d="M33 625v215h129v594h463q270 0 423.5 -180.5t153.5 -532.5q0 -325 -150 -523t-382 -198h-508v625h-129zM418 225h190q78 0 137.5 27.5t96 72.5t59 110.5t31 134t8.5 151.5q0 75 -8.5 140t-31 130.5t-58.5 112t-96 75.5t-138 29h-190v-368h266v-215h-266v-400z" />
<glyph unicode="&#x111;" horiz-adv-x="1105" d="M92 424v287q0 208 94 323t275 115q78 0 148.5 -32.5t117.5 -80.5v189h-250v184h250v127h246v-127h133v-184h-133v-1225h-195l-33 104q-45 -52 -120 -86t-158 -34q-183 0 -279 115.5t-96 324.5zM338 449q0 -120 45.5 -177t146.5 -57q54 0 106.5 26t90.5 66v520 q-38 39 -90.5 65t-106.5 26q-101 0 -146.5 -57t-45.5 -177v-235z" />
<glyph unicode="&#x112;" horiz-adv-x="1087" d="M162 0v1434h805v-226h-547v-364h502v-226h-502v-393h547v-225h-805zM303 1638v189h565v-189h-565z" />
<glyph unicode="&#x113;" horiz-adv-x="1028" d="M92 389v322q0 207 108 322.5t322 115.5q424 0 424 -438v-234h-608v-110q0 -72 49 -121t154 -49q90 0 150 19t149 67l82 -183q-102 -58 -188 -87t-204 -29q-216 0 -327 106t-111 299zM252 1337v189h565v-189h-565zM338 670h369q0 141 -38.5 203.5t-146.5 62.5 q-107 0 -145.5 -60t-38.5 -206z" />
<glyph unicode="&#x114;" horiz-adv-x="1087" d="M162 0v1434h805v-226h-547v-364h502v-226h-502v-393h547v-225h-805zM256 1847v39h199v-41q0 -119 120 -119q119 0 119 119v41h199v-39q0 -80 -24.5 -138t-69.5 -90.5t-100 -47.5t-124 -15t-124 15t-100 47.5t-70 90.5t-25 138z" />
<glyph unicode="&#x115;" horiz-adv-x="1028" d="M92 389v322q0 207 108 322.5t322 115.5q424 0 424 -438v-234h-608v-110q0 -72 49 -121t154 -49q90 0 150 19t149 67l82 -183q-102 -58 -188 -87t-204 -29q-216 0 -327 106t-111 299zM217 1546v39h199v-41q0 -119 121 -119q118 0 118 119v41h199v-39q0 -80 -24.5 -138 t-69.5 -90.5t-99.5 -47.5t-123.5 -15t-124 15t-100.5 47.5t-70.5 90.5t-25 138zM338 670h369q0 141 -38.5 203.5t-146.5 62.5q-107 0 -145.5 -60t-38.5 -206z" />
<glyph unicode="&#x116;" horiz-adv-x="1087" d="M162 0v1434h805v-226h-547v-364h502v-226h-502v-393h547v-225h-805zM465 1567v270h268v-270h-268z" />
<glyph unicode="&#x117;" horiz-adv-x="1028" d="M92 389v322q0 207 108 322.5t322 115.5q424 0 424 -438v-234h-608v-110q0 -72 49 -121t154 -49q90 0 150 19t149 67l82 -183q-102 -58 -188 -87t-204 -29q-216 0 -327 106t-111 299zM338 670h369q0 141 -38.5 203.5t-146.5 62.5q-107 0 -145.5 -60t-38.5 -206zM395 1266 v270h269v-270h-269z" />
<glyph unicode="&#x118;" horiz-adv-x="1087" d="M162 0v1434h805v-226h-547v-364h502v-226h-502v-393h547v-225h-805zM565 -254q0 79 57.5 147.5t159.5 106.5h185q-81 -35 -139 -88.5t-58 -114.5q0 -30 19 -48.5t47 -18.5q36 0 88 22l43 -135q-80 -57 -203 -57q-89 0 -144 48t-55 138z" />
<glyph unicode="&#x119;" horiz-adv-x="1028" d="M92 389v322q0 207 108 322.5t322 115.5q424 0 424 -438v-234h-608v-110q0 -72 49 -121t154 -49q90 0 150 19t149 67l82 -183q-148 -84 -220.5 -155t-72.5 -148q0 -30 18.5 -48.5t46.5 -18.5q36 0 88 22l43 -135q-80 -57 -202 -57q-89 0 -144 48t-55 138q0 65 42.5 130.5 t115.5 109.5q-16 -2 -52 -2q-216 0 -327 106t-111 299zM338 670h369q0 141 -38.5 203.5t-146.5 62.5q-107 0 -145.5 -60t-38.5 -206z" />
<glyph unicode="&#x11a;" horiz-adv-x="1087" d="M162 0v1434h805v-226h-547v-364h502v-226h-502v-393h547v-225h-805zM258 1923h168l158 -162l157 162h168l-229 -354h-193z" />
<glyph unicode="&#x11b;" horiz-adv-x="1028" d="M92 389v322q0 207 108 322.5t322 115.5q424 0 424 -438v-234h-608v-110q0 -72 49 -121t154 -49q90 0 150 19t149 67l82 -183q-102 -58 -188 -87t-204 -29q-216 0 -327 106t-111 299zM203 1616h168l157 -162l158 162h168l-229 -354h-193zM338 670h369q0 141 -38.5 203.5 t-146.5 62.5q-107 0 -145.5 -60t-38.5 -206z" />
<glyph unicode="&#x11c;" horiz-adv-x="1241" d="M113 537v362q0 259 124.5 405t385.5 146q330 0 460 -295l-200 -104q-53 89 -115.5 126t-144.5 37q-135 0 -193.5 -76t-58.5 -218v-404q0 -295 258 -295q171 0 245 98v254h-256v222h498v-553q-26 -43 -63.5 -83.5t-96.5 -82t-145.5 -67t-187.5 -25.5q-133 0 -232 39.5 t-159.5 113.5t-89.5 174t-29 226zM307 1569l230 354h192l229 -354h-167l-158 162l-158 -162h-168z" />
<glyph unicode="&#x11d;" horiz-adv-x="1093" d="M90 436v273q0 209 96 324.5t279 115.5q83 0 158 -34.5t120 -86.5l31 105h197v-1094q0 -97 -24.5 -179t-75 -148.5t-137.5 -104t-204 -37.5q-201 0 -383 90l64 188q175 -61 307 -61q204 0 207 225v99q-47 -48 -117.5 -80.5t-148.5 -32.5q-181 0 -275 115t-94 323z M221 1262l230 354h192l229 -354h-167l-158 161l-158 -161h-168zM336 463q0 -120 45.5 -177t146.5 -57q54 0 106.5 25.5t90.5 64.5v506q-38 40 -90.5 66.5t-106.5 26.5q-101 0 -146.5 -57t-45.5 -177v-221z" />
<glyph unicode="&#x11e;" horiz-adv-x="1241" d="M113 537v362q0 259 124.5 405t385.5 146q330 0 460 -295l-200 -104q-53 89 -115.5 126t-144.5 37q-135 0 -193.5 -76t-58.5 -218v-404q0 -295 258 -295q171 0 245 98v254h-256v222h498v-553q-26 -43 -63.5 -83.5t-96.5 -82t-145.5 -67t-187.5 -25.5q-133 0 -232 39.5 t-159.5 113.5t-89.5 174t-29 226zM311 1853v39h199v-41q0 -118 121 -118q119 0 119 118v41h198v-39q0 -80 -24.5 -138t-69.5 -90.5t-99.5 -47t-123.5 -14.5t-124 14.5t-100.5 47t-70.5 90.5t-25 138z" />
<glyph unicode="&#x11f;" horiz-adv-x="1093" d="M90 436v273q0 209 96 324.5t279 115.5q83 0 158 -34.5t120 -86.5l31 105h197v-1094q0 -97 -24.5 -179t-75 -148.5t-137.5 -104t-204 -37.5q-201 0 -383 90l64 188q175 -61 307 -61q204 0 207 225v99q-47 -48 -117.5 -80.5t-148.5 -32.5q-181 0 -275 115t-94 323z M233 1546v39h199v-41q0 -119 121 -119q119 0 119 119v41h198v-39q0 -80 -24.5 -138t-69.5 -90.5t-99.5 -47.5t-123.5 -15t-124 15t-100.5 47.5t-70.5 90.5t-25 138zM336 463q0 -120 45.5 -177t146.5 -57q54 0 106.5 25.5t90.5 64.5v506q-38 40 -90.5 66.5t-106.5 26.5 q-101 0 -146.5 -57t-45.5 -177v-221z" />
<glyph unicode="&#x120;" horiz-adv-x="1241" d="M113 537v362q0 259 124.5 405t385.5 146q330 0 460 -295l-200 -104q-53 89 -115.5 126t-144.5 37q-135 0 -193.5 -76t-58.5 -218v-404q0 -295 258 -295q171 0 245 98v254h-256v222h498v-553q-26 -43 -63.5 -83.5t-96.5 -82t-145.5 -67t-187.5 -25.5q-133 0 -232 39.5 t-159.5 113.5t-89.5 174t-29 226zM498 1567v270h268v-270h-268z" />
<glyph unicode="&#x121;" horiz-adv-x="1093" d="M90 436v273q0 209 96 324.5t279 115.5q83 0 158 -34.5t120 -86.5l31 105h197v-1094q0 -97 -24.5 -179t-75 -148.5t-137.5 -104t-204 -37.5q-201 0 -383 90l64 188q175 -61 307 -61q204 0 207 225v99q-47 -48 -117.5 -80.5t-148.5 -32.5q-181 0 -275 115t-94 323zM336 463 q0 -120 45.5 -177t146.5 -57q54 0 106.5 25.5t90.5 64.5v506q-38 40 -90.5 66.5t-106.5 26.5q-101 0 -146.5 -57t-45.5 -177v-221zM449 1266v270h268v-270h-268z" />
<glyph unicode="&#x122;" horiz-adv-x="1241" d="M113 537v362q0 259 124.5 405t385.5 146q330 0 460 -295l-200 -104q-53 89 -115.5 126t-144.5 37q-135 0 -193.5 -76t-58.5 -218v-404q0 -295 258 -295q171 0 245 98v254h-256v222h498v-553q-26 -43 -63.5 -83.5t-96.5 -82t-145.5 -67t-187.5 -25.5q-133 0 -232 39.5 t-159.5 113.5t-89.5 174t-29 226zM477 -532q109 87 109 174h-97v260h259v-219q0 -183 -175 -318z" />
<glyph unicode="&#x123;" horiz-adv-x="1093" d="M90 436v273q0 209 96 324.5t279 115.5q83 0 158 -34.5t120 -86.5l31 105h197v-1094q0 -97 -24.5 -179t-75 -148.5t-137.5 -104t-204 -37.5q-201 0 -383 90l64 188q175 -61 307 -61q204 0 207 225v99q-47 -48 -117.5 -80.5t-148.5 -32.5q-181 0 -275 115t-94 323zM336 463 q0 -120 45.5 -177t146.5 -57q54 0 106.5 25.5t90.5 64.5v506q-38 40 -90.5 66.5t-106.5 26.5q-101 0 -146.5 -57t-45.5 -177v-221zM395 1268v219q0 183 174 317l97 -102q-109 -87 -109 -174h96v-260h-258z" />
<glyph unicode="&#x124;" horiz-adv-x="1341" d="M162 0v1434h258v-588h502v588h258v-1434h-258v618h-502v-618h-258zM356 1569l230 354h192l230 -354h-168l-158 162l-158 -162h-168z" />
<glyph unicode="&#x125;" horiz-adv-x="1153" d="M-57 1638l229 355h193l229 -355h-168l-158 162l-157 -162h-168zM137 0v1536h246v-504q134 117 301 117q89 0 155.5 -30.5t106.5 -85t59 -125t19 -156.5v-752h-246v698q0 114 -45 163.5t-135 49.5q-60 0 -120.5 -29t-94.5 -63v-819h-246z" />
<glyph unicode="&#x126;" horiz-adv-x="1341" d="M31 1049v188h131v197h258v-197h502v197h258v-197h131v-188h-131v-1049h-258v618h-502v-618h-258v1049h-131zM420 846h502v203h-502v-203z" />
<glyph unicode="&#x127;" horiz-adv-x="1153" d="M-12 1225v184h149v127h246v-127h262v-184h-262v-193q134 117 301 117q89 0 155.5 -30.5t106.5 -85t59 -125t19 -156.5v-752h-246v698q0 114 -45 163.5t-135 49.5q-60 0 -120.5 -29t-94.5 -63v-819h-246v1225h-149z" />
<glyph unicode="&#x128;" horiz-adv-x="581" d="M-61 1642q80 218 223 218q50 0 100.5 -26t92.5 -51.5t73 -25.5q28 0 50.5 19.5t53.5 76.5l132 -69q-82 -217 -226 -217q-50 0 -100.5 25.5t-92.5 51t-73 25.5q-28 0 -50 -19t-54 -77zM162 0v1434h258v-1434h-258z" />
<glyph unicode="&#x129;" horiz-adv-x="526" d="M-98 1335q79 217 223 217q50 0 100.5 -25.5t92.5 -51t73 -25.5q28 0 51 19.5t54 76.5l131 -69q-82 -217 -226 -217q-50 0 -100.5 25.5t-92.5 51t-73 25.5q-28 0 -50 -19t-54 -77zM143 0v1133h246v-1133h-246z" />
<glyph unicode="&#x12a;" horiz-adv-x="581" d="M16 1638v189h566v-189h-566zM162 0v1434h258v-1434h-258z" />
<glyph unicode="&#x12b;" horiz-adv-x="526" d="M-4 1337v189h565v-189h-565zM143 0v1133h246v-1133h-246z" />
<glyph unicode="&#x12c;" horiz-adv-x="581" d="M-18 1847v39h198v-41q0 -119 121 -119q119 0 119 119v41h198v-39q0 -80 -24.5 -138t-69.5 -90.5t-99.5 -47.5t-123.5 -15t-124 15t-100 47.5t-70 90.5t-25 138zM162 0v1434h258v-1434h-258z" />
<glyph unicode="&#x12d;" horiz-adv-x="526" d="M-39 1546v39h199v-41q0 -119 121 -119q118 0 118 119v41h199v-39q0 -80 -24.5 -138t-69.5 -90.5t-99.5 -47.5t-123.5 -15t-124 15t-100.5 47.5t-70.5 90.5t-25 138zM143 0v1133h246v-1133h-246z" />
<glyph unicode="&#x12e;" horiz-adv-x="581" d="M18 -254q0 79 58 147.5t160 106.5h-74v1434h258v-1434q-81 -35 -139 -88.5t-58 -114.5q0 -30 19 -48.5t47 -18.5q36 0 88 22l43 -135q-80 -57 -203 -57q-89 0 -144 48t-55 138z" />
<glyph unicode="&#x12f;" horiz-adv-x="526" d="M-12 -254q0 79 57.5 147.5t159.5 106.5h-62v1133h246v-1133q-81 -35 -138.5 -88.5t-57.5 -114.5q0 -30 18.5 -48.5t46.5 -18.5q36 0 88 22l43 -135q-80 -57 -203 -57q-89 0 -143.5 48t-54.5 138zM131 1266v270h268v-270h-268z" />
<glyph unicode="&#x130;" horiz-adv-x="581" d="M158 1567v270h268v-270h-268zM162 0v1434h258v-1434h-258z" />
<glyph unicode="&#x131;" horiz-adv-x="526" d="M143 0v1133h246v-1133h-246z" />
<glyph unicode="&#x132;" horiz-adv-x="1421" d="M162 0v1434h258v-1434h-258zM627 12l24 217q106 -14 144 -14q53 0 90 12t59.5 32.5t35 55.5t17 73.5t4.5 94.5v951h259v-947q0 -90 -10 -160t-38 -137t-75 -110t-124.5 -69.5t-181.5 -26.5q-115 0 -204 28z" />
<glyph unicode="&#x133;" horiz-adv-x="1048" d="M131 1266v270h268v-270h-268zM143 0v1133h246v-1133h-246zM348 -377l60 187q62 -17 112 -17q150 0 150 148v1192h245v-1168q0 -186 -83.5 -285.5t-272.5 -99.5q-115 0 -211 43zM657 1266v270h269v-270h-269z" />
<glyph unicode="&#x134;" horiz-adv-x="839" d="M45 12l25 217q106 -14 143 -14q65 0 107 16.5t63.5 54t29 82.5t7.5 115v951h258v-947q0 -90 -10 -160t-38 -137t-74.5 -110t-124 -69.5t-181.5 -26.5q-116 0 -205 28zM211 1563l229 354h193l229 -354h-168l-157 161l-158 -161h-168z" />
<glyph unicode="&#x135;" horiz-adv-x="522" d="M-178 -377l59 187q62 -17 113 -17q149 0 149 148v1192h246v-1168q0 -186 -83.5 -285.5t-272.5 -99.5q-115 0 -211 43zM-53 1262l229 354h193l229 -354h-168l-158 161l-157 -161h-168z" />
<glyph unicode="&#x136;" horiz-adv-x="1187" d="M162 0v1434h258v-584h104l332 584h287l-402 -678l418 -756h-291l-336 623h-112v-623h-258zM494 -532q108 86 108 174h-96v260h258v-219q0 -184 -174 -318z" />
<glyph unicode="&#x137;" horiz-adv-x="1032" d="M137 0v1536h246v-825h94l252 422h262l-313 -515l321 -618h-266q-80 161 -250 504h-100v-504h-246zM395 -532q109 87 109 174h-96v260h258v-219q0 -184 -174 -318z" />
<glyph unicode="&#x138;" horiz-adv-x="1032" d="M137 0v1133h246v-422h94l252 422h262l-313 -515l321 -618h-266q-80 161 -250 504h-100v-504h-246z" />
<glyph unicode="&#x139;" horiz-adv-x="1044" d="M162 0v1434h258v-1209h547v-225h-805zM193 1563l106 354h254l-195 -354h-165z" />
<glyph unicode="&#x13a;" horiz-adv-x="512" d="M129 1612l107 354h253l-194 -354h-166zM137 0v1536h246v-1536h-246z" />
<glyph unicode="&#x13b;" horiz-adv-x="1044" d="M162 0v1434h258v-1209h547v-225h-805zM426 -532q109 87 109 174h-97v260h258v-219q0 -184 -174 -318z" />
<glyph unicode="&#x13c;" horiz-adv-x="512" d="M125 -532q108 86 108 174h-96v260h258v-219q0 -184 -174 -318zM137 0v1536h246v-1536h-246z" />
<glyph unicode="&#x13d;" horiz-adv-x="1044" d="M162 0v1434h258v-1209h547v-225h-805zM614 1016l37 418h242l-107 -418h-172z" />
<glyph unicode="&#x13e;" horiz-adv-x="649" d="M137 0v1536h246v-1536h-246zM465 1118l37 418h241l-106 -418h-172z" />
<glyph unicode="&#x13f;" horiz-adv-x="1044" d="M162 0v1434h258v-1209h547v-225h-805zM590 618v306h299v-306h-299z" />
<glyph unicode="&#x140;" horiz-adv-x="870" d="M137 0v1536h246v-1536h-246zM514 618v306h299v-306h-299z" />
<glyph unicode="&#x141;" horiz-adv-x="1107" d="M84 530v215l141 62v627h258v-516l342 149v-215l-342 -150v-477h547v-225h-805v592z" />
<glyph unicode="&#x142;" horiz-adv-x="784" d="M92 604v217l150 66v649h245v-541l209 92v-217l-209 -92v-778h-245v670z" />
<glyph unicode="&#x143;" horiz-adv-x="1372" d="M162 0v1434h221l575 -945h9v945h243v-1434h-225l-571 944h-8v-944h-244zM580 1563l106 354h254l-195 -354h-165z" />
<glyph unicode="&#x144;" horiz-adv-x="1146" d="M137 0v1133h201l22 -121q56 56 137.5 96.5t182.5 40.5q89 0 155.5 -30t105.5 -85t58 -125.5t19 -156.5v-752h-246v698q0 115 -44 164t-134 49q-60 0 -118 -28.5t-93 -63.5v-819h-246zM494 1262l106 354h254l-195 -354h-165z" />
<glyph unicode="&#x145;" horiz-adv-x="1372" d="M162 0v1434h221l575 -945h9v945h243v-1434h-225l-571 944h-8v-944h-244zM561 -532q109 87 109 174h-97v260h258v-219q0 -184 -174 -318z" />
<glyph unicode="&#x146;" horiz-adv-x="1146" d="M137 0v1133h201l22 -121q56 56 137.5 96.5t182.5 40.5q89 0 155.5 -30t105.5 -85t58 -125.5t19 -156.5v-752h-246v698q0 115 -44 164t-134 49q-60 0 -118 -28.5t-93 -63.5v-819h-246zM442 -532q109 87 109 174h-96v260h258v-219q0 -184 -174 -318z" />
<glyph unicode="&#x147;" horiz-adv-x="1372" d="M162 0v1434h221l575 -945h9v945h243v-1434h-225l-571 944h-8v-944h-244zM377 1917h168l157 -162l158 162h168l-229 -354h-193z" />
<glyph unicode="&#x148;" horiz-adv-x="1146" d="M137 0v1133h201l22 -121q56 56 137.5 96.5t182.5 40.5q89 0 155.5 -30t105.5 -85t58 -125.5t19 -156.5v-752h-246v698q0 115 -44 164t-134 49q-60 0 -118 -28.5t-93 -63.5v-819h-246zM248 1616h168l157 -162l158 162h168l-229 -354h-193z" />
<glyph unicode="&#x149;" horiz-adv-x="1208" d="M-66 1188q109 87 109 174h-96v260h258v-219q0 -184 -174 -318zM199 0v1133h200l23 -121q137 137 319 137q89 0 155.5 -30t105.5 -85t58 -125.5t19 -156.5v-752h-245v698q0 115 -44.5 164t-134.5 49q-60 0 -118 -28.5t-93 -63.5v-819h-245z" />
<glyph unicode="&#x14a;" horiz-adv-x="1372" d="M162 0v1434h221l575 -945h9v945h243v-1360q0 -90 -10 -160t-38 -137t-74.5 -110.5t-124 -70t-181.5 -26.5q-106 0 -198 29l18 217q79 -15 143 -15q118 0 166.5 56.5t53.5 173.5l-551 913h-8v-944h-244z" />
<glyph unicode="&#x14b;" horiz-adv-x="1146" d="M137 0v1133h201l22 -121q56 56 137.5 96.5t182.5 40.5q89 0 155.5 -30t105.5 -85t58 -125.5t19 -156.5v-787q0 -186 -83.5 -285.5t-272.5 -99.5q-115 0 -211 43l59 187q62 -17 113 -17q149 0 149 148v757q0 115 -44 164t-134 49q-60 0 -118 -28.5t-93 -63.5v-819h-246z " />
<glyph unicode="&#x14c;" horiz-adv-x="1243" d="M113 492v448q0 237 130 373.5t380 136.5t378.5 -136.5t128.5 -373.5v-448q0 -237 -128.5 -372.5t-378.5 -135.5t-380 135.5t-130 372.5zM348 1638v189h565v-189h-565zM371 514q0 -149 59 -222t193 -73q135 0 192 72.5t57 222.5v406q0 148 -57 221t-192 73 q-134 0 -193 -73.5t-59 -220.5v-406z" />
<glyph unicode="&#x14d;" horiz-adv-x="1064" d="M92 420v287q0 209 110.5 325.5t329.5 116.5q221 0 331 -115.5t110 -326.5v-287q0 -209 -110 -322.5t-331 -113.5q-219 0 -329.5 115t-110.5 321zM258 1337v189h565v-189h-565zM338 434q0 -122 44 -177.5t150 -55.5t150.5 55.5t44.5 177.5v262q0 123 -44 178.5t-151 55.5 q-106 0 -150 -55.5t-44 -178.5v-262z" />
<glyph unicode="&#x14e;" horiz-adv-x="1243" d="M113 492v448q0 237 130 373.5t380 136.5t378.5 -136.5t128.5 -373.5v-448q0 -237 -128.5 -372.5t-378.5 -135.5t-380 135.5t-130 372.5zM313 1847v39h199v-41q0 -119 121 -119q119 0 119 119v41h198v-39q0 -80 -24.5 -138t-69.5 -90.5t-99.5 -47.5t-123.5 -15t-124 15 t-100.5 47.5t-70.5 90.5t-25 138zM371 514q0 -149 59 -222t193 -73q135 0 192 72.5t57 222.5v406q0 148 -57 221t-192 73q-134 0 -193 -73.5t-59 -220.5v-406z" />
<glyph unicode="&#x14f;" horiz-adv-x="1064" d="M92 420v287q0 209 110.5 325.5t329.5 116.5q221 0 331 -115.5t110 -326.5v-287q0 -209 -110 -322.5t-331 -113.5q-219 0 -329.5 115t-110.5 321zM221 1546v39h199v-41q0 -119 121 -119q118 0 118 119v41h199v-39q0 -80 -24.5 -138t-69.5 -90.5t-99.5 -47.5t-123.5 -15 t-124 15t-100.5 47.5t-70.5 90.5t-25 138zM338 434q0 -122 44 -177.5t150 -55.5t150.5 55.5t44.5 177.5v262q0 123 -44 178.5t-151 55.5q-106 0 -150 -55.5t-44 -178.5v-262z" />
<glyph unicode="&#x150;" horiz-adv-x="1243" d="M113 492v448q0 237 130 373.5t380 136.5t378.5 -136.5t128.5 -373.5v-448q0 -237 -128.5 -372.5t-378.5 -135.5t-380 135.5t-130 372.5zM358 1569l107 354h254l-195 -354h-166zM371 514q0 -149 59 -222t193 -73q135 0 192 72.5t57 222.5v406q0 148 -57 221t-192 73 q-134 0 -193 -73.5t-59 -220.5v-406zM680 1569l106 354h254l-194 -354h-166z" />
<glyph unicode="&#x151;" horiz-adv-x="1064" d="M92 420v287q0 209 110.5 325.5t329.5 116.5q221 0 331 -115.5t110 -326.5v-287q0 -209 -110 -322.5t-331 -113.5q-219 0 -329.5 115t-110.5 321zM254 1262l106 354h254l-194 -354h-166zM338 434q0 -122 44 -177.5t150 -55.5t150.5 55.5t44.5 177.5v262q0 123 -44 178.5 t-151 55.5q-106 0 -150 -55.5t-44 -178.5v-262zM575 1262l107 354h254l-195 -354h-166z" />
<glyph unicode="&#x152;" horiz-adv-x="1798" d="M113 492v448q0 237 130 373.5t380 136.5q143 0 249 -59v43h805v-226h-547v-364h502v-226h-502v-393h547v-225h-805v43q-91 -59 -249 -59q-250 0 -380 135.5t-130 372.5zM371 514q0 -149 59 -222t193 -73q131 0 190 73.5t59 221.5v420q0 139 -60.5 209.5t-188.5 70.5 q-134 0 -193 -73.5t-59 -220.5v-406z" />
<glyph unicode="&#x153;" horiz-adv-x="1662" d="M92 420v287q0 209 110.5 325.5t329.5 116.5q205 0 316 -102q111 102 309 102q424 0 424 -438v-234h-608v-110q0 -72 49 -121t154 -49q90 0 150 19t149 67l81 -183q-102 -59 -187.5 -87.5t-203.5 -28.5q-205 0 -317 98q-110 -98 -316 -98q-219 0 -329.5 115t-110.5 321z M338 434q0 -122 44 -177.5t150 -55.5t150.5 55.5t44.5 177.5v262q0 123 -44 178.5t-151 55.5q-106 0 -150 -55.5t-44 -178.5v-262zM973 670h368q0 142 -38.5 204t-145.5 62q-103 0 -142 -54t-42 -186v-26z" />
<glyph unicode="&#x154;" horiz-adv-x="1212" d="M162 0v1434h432q249 0 381.5 -108.5t132.5 -346.5q0 -94 -23 -168.5t-62 -121.5t-79 -75.5t-86 -46.5l309 -567h-286l-269 526h-194v-526h-256zM418 752h184q123 0 184.5 52t61.5 175q0 129 -64.5 179t-201.5 50h-164v-456zM483 1569l107 354h254l-195 -354h-166z" />
<glyph unicode="&#x155;" horiz-adv-x="798" d="M137 0v1133h203l20 -150q21 27 46 52t61 53t81.5 44.5t92.5 16.5q75 0 123 -23l-45 -237q-58 20 -115 20q-133 0 -221 -118v-791h-246zM309 1262l107 354h254l-195 -354h-166z" />
<glyph unicode="&#x156;" horiz-adv-x="1212" d="M162 0v1434h432q249 0 381.5 -108.5t132.5 -346.5q0 -94 -23 -168.5t-62 -121.5t-79 -75.5t-86 -46.5l309 -567h-286l-269 526h-194v-526h-256zM418 752h184q123 0 184.5 52t61.5 175q0 129 -64.5 179t-201.5 50h-164v-456zM485 -532q109 87 109 174h-96v260h258v-219 q0 -184 -174 -318z" />
<glyph unicode="&#x157;" horiz-adv-x="798" d="M137 0v1133h203l20 -150q21 27 46 52t61 53t81.5 44.5t92.5 16.5q75 0 123 -23l-45 -237q-58 20 -115 20q-133 0 -221 -118v-791h-246zM152 -532q108 86 108 174h-96v260h258v-219q0 -184 -174 -318z" />
<glyph unicode="&#x158;" horiz-adv-x="1212" d="M162 0v1434h432q249 0 381.5 -108.5t132.5 -346.5q0 -94 -23 -168.5t-62 -121.5t-79 -75.5t-86 -46.5l309 -567h-286l-269 526h-194v-526h-256zM281 1923h168l157 -162l158 162h168l-230 -354h-192zM418 752h184q123 0 184.5 52t61.5 175q0 129 -64.5 179t-201.5 50h-164 v-456z" />
<glyph unicode="&#x159;" horiz-adv-x="798" d="M115 1616h168l157 -162l158 162h168l-229 -354h-193zM137 0v1133h203l20 -150q21 27 46 52t61 53t81.5 44.5t92.5 16.5q75 0 123 -23l-45 -237q-58 20 -115 20q-133 0 -221 -118v-791h-246z" />
<glyph unicode="&#x15a;" horiz-adv-x="1099" d="M53 137l111 185q205 -109 362 -109q125 0 184.5 52t59.5 132q0 54 -23 95t-62 66.5t-89.5 45.5t-106.5 37.5t-112 37.5t-106.5 49.5t-89.5 69.5t-62 102.5t-23 143.5q0 198 125 302t332 104q228 0 424 -137l-111 -191q-94 50 -169.5 74.5t-153.5 24.5q-195 0 -195 -168 q0 -44 23 -76.5t62 -54.5t90 -40t107 -36.5t112 -40t107 -55t90 -77t62 -110.5t23 -151q0 -202 -132 -315t-345 -113q-154 0 -271.5 41t-222.5 112zM453 1569l106 354h254l-195 -354h-165z" />
<glyph unicode="&#x15b;" horiz-adv-x="923" d="M59 92l70 180q190 -82 324 -82q172 0 172 146q0 37 -23 65.5t-61 45t-86.5 34t-99 32.5t-99 41t-86.5 58.5t-61 86t-23 122.5q0 162 107 245t284 83q200 0 361 -100l-74 -183q-167 76 -277 76q-163 0 -163 -113q0 -37 30 -63.5t77.5 -44.5t105 -36t115 -43.5t105 -59.5 t77.5 -92t30 -134q0 -185 -99 -278.5t-312 -93.5q-100 0 -209.5 31t-184.5 77zM365 1262l106 354h254l-195 -354h-165z" />
<glyph unicode="&#x15c;" horiz-adv-x="1099" d="M53 137l111 185q205 -109 362 -109q125 0 184.5 52t59.5 132q0 54 -23 95t-62 66.5t-89.5 45.5t-106.5 37.5t-112 37.5t-106.5 49.5t-89.5 69.5t-62 102.5t-23 143.5q0 198 125 302t332 104q228 0 424 -137l-111 -191q-94 50 -169.5 74.5t-153.5 24.5q-195 0 -195 -168 q0 -44 23 -76.5t62 -54.5t90 -40t107 -36.5t112 -40t107 -55t90 -77t62 -110.5t23 -151q0 -202 -132 -315t-345 -113q-154 0 -271.5 41t-222.5 112zM238 1569l229 354h192l230 -354h-168l-158 162l-157 -162h-168z" />
<glyph unicode="&#x15d;" horiz-adv-x="923" d="M59 92l70 180q190 -82 324 -82q172 0 172 146q0 37 -23 65.5t-61 45t-86.5 34t-99 32.5t-99 41t-86.5 58.5t-61 86t-23 122.5q0 162 107 245t284 83q200 0 361 -100l-74 -183q-167 76 -277 76q-163 0 -163 -113q0 -37 30 -63.5t77.5 -44.5t105 -36t115 -43.5t105 -59.5 t77.5 -92t30 -134q0 -185 -99 -278.5t-312 -93.5q-100 0 -209.5 31t-184.5 77zM160 1262l229 354h193l229 -354h-168l-158 161l-157 -161h-168z" />
<glyph unicode="&#x15e;" horiz-adv-x="1099" d="M53 137l111 185q205 -109 362 -109q125 0 184.5 52t59.5 132q0 54 -23 95t-62 66.5t-89.5 45.5t-106.5 37.5t-112 37.5t-106.5 49.5t-89.5 69.5t-62 102.5t-23 143.5q0 198 125 302t332 104q228 0 424 -137l-111 -191q-94 50 -169.5 74.5t-153.5 24.5q-195 0 -195 -168 q0 -44 23 -76.5t62 -54.5t90 -40t107 -36.5t112 -40t107 -55t90 -77t62 -110.5t23 -151q0 -196 -124 -308t-325 -120l-16 -68q21 4 39 4q45 0 81 -13.5t62.5 -52.5t26.5 -100q0 -41 -8 -72.5t-30 -60.5t-66.5 -45t-110.5 -16q-101 0 -191 47l31 108q82 -28 144 -28 q46 0 67 14t21 51q0 27 -16.5 43.5t-51.5 16.5q-33 0 -82 -15l-53 53l12 140q-194 21 -381 147z" />
<glyph unicode="&#x15f;" horiz-adv-x="923" d="M59 92l70 180q190 -82 324 -82q172 0 172 146q0 42 -29.5 73t-77.5 50t-105 37t-114.5 42.5t-105.5 58t-77.5 90.5t-29.5 134q0 162 107 245t284 83q200 0 361 -100l-74 -183q-167 76 -277 76q-163 0 -163 -113q0 -37 30 -64t77.5 -45.5t105 -37t115 -44t105 -59.5 t77.5 -91t30 -132q0 -178 -92 -270.5t-287 -99.5l-16 -70q21 4 39 4q45 0 81 -13.5t62.5 -52.5t26.5 -100q0 -41 -8 -72.5t-30 -60.5t-66.5 -45t-110.5 -16q-101 0 -191 47l31 108q82 -28 143 -28q46 0 67.5 14t21.5 51q0 27 -16.5 43.5t-51.5 16.5q-32 0 -82 -15l-53 53 l12 144q-78 10 -154 36.5t-131 61.5z" />
<glyph unicode="&#x160;" horiz-adv-x="1099" d="M53 137l111 185q205 -109 362 -109q125 0 184.5 52t59.5 132q0 54 -23 95t-62 66.5t-89.5 45.5t-106.5 37.5t-112 37.5t-106.5 49.5t-89.5 69.5t-62 102.5t-23 143.5q0 198 125 302t332 104q228 0 424 -137l-111 -191q-94 50 -169.5 74.5t-153.5 24.5q-195 0 -195 -168 q0 -44 23 -76.5t62 -54.5t90 -40t107 -36.5t112 -40t107 -55t90 -77t62 -110.5t23 -151q0 -202 -132 -315t-345 -113q-154 0 -271.5 41t-222.5 112zM242 1923h168l157 -162l158 162h168l-229 -354h-193z" />
<glyph unicode="&#x161;" horiz-adv-x="923" d="M59 92l70 180q190 -82 324 -82q172 0 172 146q0 37 -23 65.5t-61 45t-86.5 34t-99 32.5t-99 41t-86.5 58.5t-61 86t-23 122.5q0 162 107 245t284 83q200 0 361 -100l-74 -183q-167 76 -277 76q-163 0 -163 -113q0 -37 30 -63.5t77.5 -44.5t105 -36t115 -43.5t105 -59.5 t77.5 -92t30 -134q0 -185 -99 -278.5t-312 -93.5q-100 0 -209.5 31t-184.5 77zM160 1616h168l157 -162l158 162h168l-229 -354h-193z" />
<glyph unicode="&#x162;" horiz-adv-x="1177" d="M80 1208v226h1016v-226h-379v-1208h-99l-28 -84q21 4 39 4q45 0 81 -13.5t62.5 -52.5t26.5 -100q0 -41 -8 -72.5t-30 -60.5t-66.5 -45t-110.5 -16q-101 0 -191 47l31 108q82 -28 143 -28q46 0 67 14t21 51q0 60 -67 60q-32 0 -82 -15l-53 53l24 150h-18v1208h-379z" />
<glyph unicode="&#x163;" horiz-adv-x="882" d="M47 926v194l193 13v217l241 26v-243h297v-207h-297v-592q0 -67 28 -96t95 -29q72 0 166 27l51 -187q-121 -59 -241 -59h-29l-16 -74q20 4 38 4q45 0 81 -13.5t62.5 -52.5t26.5 -100q0 -41 -8 -72.5t-30 -60.5t-66.5 -45t-110.5 -16q-100 0 -190 47l31 108q82 -28 143 -28 q46 0 67 14t21 51q0 27 -16.5 43.5t-51.5 16.5q-32 0 -81 -15l-54 53l13 166q-174 68 -174 314v596h-189z" />
<glyph unicode="&#x164;" horiz-adv-x="1177" d="M80 1208v226h1016v-226h-379v-1208h-258v1208h-379zM272 1923h168l158 -162l158 162h168l-230 -354h-192z" />
<glyph unicode="&#x165;" horiz-adv-x="882" d="M47 926v194l193 13v217l241 26v-243h297v-207h-297v-592q0 -67 28 -96t95 -29q72 0 166 27l51 -187q-121 -59 -241 -59q-180 0 -262 85.5t-82 254.5v596h-189zM588 1235l37 418h241l-106 -418h-172z" />
<glyph unicode="&#x166;" horiz-adv-x="1177" d="M80 1208v226h1016v-226h-379v-303h256v-188h-256v-717h-258v717h-256v188h256v303h-379z" />
<glyph unicode="&#x167;" horiz-adv-x="882" d="M47 926v194l193 13v217l241 26v-243h297v-207h-297v-148h258v-188h-258v-256q0 -67 28 -96t95 -29q72 0 166 27l51 -187q-121 -59 -241 -59q-180 0 -262 85.5t-82 254.5v260h-175v188h175v148h-189z" />
<glyph unicode="&#x168;" horiz-adv-x="1314" d="M158 467v967h258v-947q0 -134 52.5 -203t188.5 -69t189 69t53 203v947h258v-967q0 -233 -127 -358t-373 -125t-372.5 125t-126.5 358zM305 1642q80 218 223 218q50 0 100.5 -26t93 -51.5t73.5 -25.5q28 0 50.5 19.5t53.5 76.5l131 -69q-82 -217 -225 -217 q-50 0 -100.5 25.5t-92.5 51t-73 25.5q-28 0 -50.5 -19.5t-54.5 -76.5z" />
<glyph unicode="&#x169;" horiz-adv-x="1136" d="M127 381v752h246v-699q0 -115 44 -164t134 -49q60 0 118 28.5t93 63.5v820h246v-1133h-201l-23 121q-137 -137 -319 -137q-89 0 -155.5 30t-105.5 85t-58 125.5t-19 156.5zM217 1335q79 217 223 217q50 0 100.5 -25.5t93 -51t73.5 -25.5q28 0 50.5 19.5t53.5 76.5 l131 -69q-82 -217 -225 -217q-50 0 -100.5 25.5t-92.5 51t-73 25.5q-28 0 -50.5 -19.5t-54.5 -76.5z" />
<glyph unicode="&#x16a;" horiz-adv-x="1314" d="M158 467v967h258v-947q0 -134 52.5 -203t188.5 -69t189 69t53 203v947h258v-967q0 -233 -127 -358t-373 -125t-372.5 125t-126.5 358zM383 1638v189h565v-189h-565z" />
<glyph unicode="&#x16b;" horiz-adv-x="1136" d="M127 381v752h246v-699q0 -115 44 -164t134 -49q60 0 118 28.5t93 63.5v820h246v-1133h-201l-23 121q-137 -137 -319 -137q-89 0 -155.5 30t-105.5 85t-58 125.5t-19 156.5zM297 1337v189h565v-189h-565z" />
<glyph unicode="&#x16c;" horiz-adv-x="1314" d="M158 467v967h258v-947q0 -134 52.5 -203t188.5 -69t189 69t53 203v947h258v-967q0 -233 -127 -358t-373 -125t-372.5 125t-126.5 358zM346 1847v39h199v-41q0 -119 121 -119q118 0 118 119v41h199v-39q0 -80 -24.5 -138t-69.5 -90.5t-99.5 -47.5t-123.5 -15t-124 15 t-100.5 47.5t-70.5 90.5t-25 138z" />
<glyph unicode="&#x16d;" horiz-adv-x="1136" d="M127 381v752h246v-699q0 -115 44 -164t134 -49q60 0 118 28.5t93 63.5v820h246v-1133h-201l-23 121q-137 -137 -319 -137q-89 0 -155.5 30t-105.5 85t-58 125.5t-19 156.5zM264 1546v39h199v-41q0 -119 121 -119q118 0 118 119v41h199v-39q0 -80 -24.5 -138t-69.5 -90.5 t-99.5 -47.5t-123.5 -15t-124 15t-100.5 47.5t-70.5 90.5t-25 138z" />
<glyph unicode="&#x16e;" horiz-adv-x="1314" d="M158 467v967h258v-947q0 -134 52.5 -203t188.5 -69t189 69t53 203v947h258v-967q0 -233 -127 -358t-373 -125t-372.5 125t-126.5 358zM432 1741q0 101 65 161t167 60q103 0 167 -60t64 -161q0 -103 -64 -162t-167 -59q-102 0 -167 59.5t-65 161.5zM571 1741 q0 -40 25.5 -65t67.5 -25q43 0 67.5 24.5t24.5 65.5q0 42 -24 66t-68 24t-68.5 -24t-24.5 -66z" />
<glyph unicode="&#x16f;" horiz-adv-x="1136" d="M127 381v752h246v-699q0 -115 44 -164t134 -49q60 0 118 28.5t93 63.5v820h246v-1133h-201l-23 121q-137 -137 -319 -137q-89 0 -155.5 30t-105.5 85t-58 125.5t-19 156.5zM350 1434q0 101 65 161t167 60q103 0 167 -60t64 -161q0 -103 -64 -162.5t-167 -59.5 q-102 0 -167 60t-65 162zM489 1434q0 -40 25.5 -65.5t67.5 -25.5q43 0 67.5 25t24.5 66q0 42 -24 66t-68 24t-68.5 -24t-24.5 -66z" />
<glyph unicode="&#x170;" horiz-adv-x="1314" d="M158 467v967h258v-947q0 -134 52.5 -203t188.5 -69t189 69t53 203v947h258v-967q0 -233 -127 -358t-373 -125t-372.5 125t-126.5 358zM397 1569l107 354h254l-195 -354h-166zM719 1569l106 354h254l-194 -354h-166z" />
<glyph unicode="&#x171;" horiz-adv-x="1136" d="M127 381v752h246v-699q0 -115 44 -164t134 -49q60 0 118 28.5t93 63.5v820h246v-1133h-201l-23 121q-137 -137 -319 -137q-89 0 -155.5 30t-105.5 85t-58 125.5t-19 156.5zM289 1262l106 354h254l-194 -354h-166zM610 1262l107 354h254l-195 -354h-166z" />
<glyph unicode="&#x172;" horiz-adv-x="1314" d="M158 467v967h258v-947q0 -134 52.5 -203t188.5 -69t189 69t53 203v947h258v-967q0 -285 -186 -406q-97 -82 -144 -142t-47 -122q0 -30 19 -48.5t47 -18.5q36 0 88 22l43 -135q-80 -57 -203 -57q-89 0 -144 48t-55 138q0 61 43 125t115 117q-50 -4 -76 -4 q-246 0 -372.5 125t-126.5 358z" />
<glyph unicode="&#x173;" horiz-adv-x="1136" d="M127 381v752h246v-699q0 -115 44 -164t134 -49q60 0 118 28.5t93 63.5v820h246v-1133q-81 -35 -139 -88.5t-58 -114.5q0 -30 19 -48.5t47 -18.5q36 0 88 22l43 -135q-80 -57 -203 -57q-89 0 -144 48t-55 138q0 77 57.5 146t149.5 108l-29 121q-137 -137 -319 -137 q-89 0 -155.5 30t-105.5 85t-58 125.5t-19 156.5z" />
<glyph unicode="&#x174;" horiz-adv-x="1759" d="M47 1434h264l213 -1057h8l230 1057h235l232 -1057h8l211 1057h264l-340 -1434h-268l-221 901h-9l-219 -901h-268zM553 1569l229 354h193l229 -354h-168l-157 162l-158 -162h-168z" />
<glyph unicode="&#x175;" horiz-adv-x="1478" d="M39 1133h266l148 -779h8l174 779h209l176 -779h8l146 779h268l-281 -1133h-262l-151 616h-9l-149 -616h-271zM416 1262l229 354h193l229 -354h-168l-158 161l-157 -161h-168z" />
<glyph unicode="&#x176;" horiz-adv-x="1191" d="M33 1434h278l281 -643h8l283 643h274l-432 -893v-541h-258v541zM274 1569l230 354h192l230 -354h-168l-158 162l-158 -162h-168z" />
<glyph unicode="&#x177;" horiz-adv-x="1019" d="M35 1133h256l211 -814h8l223 814h258l-479 -1547h-233l133 414h-45zM184 1262l230 354h192l230 -354h-168l-158 161l-158 -161h-168z" />
<glyph unicode="&#x178;" horiz-adv-x="1191" d="M33 1434h278l281 -643h8l283 643h274l-432 -893v-541h-258v541zM285 1591v248h245v-248h-245zM670 1591v248h245v-248h-245z" />
<glyph unicode="&#x179;" horiz-adv-x="1118" d="M102 0v195l607 1013h-576v226h879v-193l-606 -1016h606v-225h-910zM467 1569l106 354h254l-194 -354h-166z" />
<glyph unicode="&#x17a;" horiz-adv-x="991" d="M84 0v178l498 742h-469v213h778v-172l-498 -746h525v-215h-834zM379 1262l106 354h254l-194 -354h-166z" />
<glyph unicode="&#x17b;" horiz-adv-x="1118" d="M102 0v195l607 1013h-576v226h879v-193l-606 -1016h606v-225h-910zM442 1567v270h269v-270h-269z" />
<glyph unicode="&#x17c;" horiz-adv-x="991" d="M84 0v178l498 742h-469v213h778v-172l-498 -746h525v-215h-834zM414 1266v270h268v-270h-268z" />
<glyph unicode="&#x17d;" horiz-adv-x="1118" d="M102 0v195l607 1013h-576v226h879v-193l-606 -1016h606v-225h-910zM254 1923h168l158 -162l157 162h168l-229 -354h-193z" />
<glyph unicode="&#x17e;" horiz-adv-x="991" d="M84 0v178l498 742h-469v213h778v-172l-498 -746h525v-215h-834zM180 1616h168l158 -162l158 162h167l-229 -354h-192z" />
<glyph unicode="&#x192;" horiz-adv-x="1060" d="M-203 -379l80 193q82 -23 129 -23q89 0 129 46.5t53 135.5l127 820h-184l35 194l184 12l25 144q33 198 132 300.5t277 102.5q132 0 226 -51l-78 -192q-68 22 -129 22q-88 0 -127.5 -46.5t-54.5 -135.5l-25 -144h283l-37 -206h-281l-127 -820q-32 -200 -132.5 -301.5 t-293.5 -101.5q-120 0 -211 51z" />
<glyph unicode="&#x1e2;" horiz-adv-x="1683" d="M39 0l467 1434h1057v-226h-742l117 -364h580v-226h-510l120 -393h435v-225h-617l-100 317h-447l-100 -317h-260zM459 545h327l-159 526h-9zM696 1638v189h566v-189h-566z" />
<glyph unicode="&#x1e3;" horiz-adv-x="1644" d="M88 309q0 91 37 165t98 121.5t142.5 80t166.5 46t175 13.5v49q0 154 -195 154q-145 0 -307 -78l-76 170q188 119 393 119q209 0 316 -96q113 96 301 96q424 0 424 -438v-234h-609v-110q0 -72 49 -121t154 -49q90 0 150 19t149 67l82 -183q-102 -59 -187.5 -87.5 t-203.5 -28.5q-263 0 -371 155q-117 -155 -336 -155q-150 0 -251 90.5t-101 234.5zM336 336q0 -62 45.5 -98.5t114.5 -36.5q72 0 129 36.5t84 88.5v237q-69 0 -133 -12.5t-119 -38t-88 -71t-33 -105.5zM549 1337v189h565v-189h-565zM954 670h369q0 142 -38.5 204t-145.5 62 t-146 -60t-39 -206z" />
<glyph unicode="&#x1fa;" horiz-adv-x="1245" d="M39 0l434 1346q-76 60 -76 176q0 102 62.5 161.5t163.5 59.5q102 0 163.5 -59.5t61.5 -161.5q0 -117 -78 -176l436 -1346h-262l-98 317h-447l-100 -317h-260zM459 545h327l-159 526h-9zM530 1522q0 -40 25.5 -65t67.5 -25q43 0 67.5 24.5t24.5 65.5q0 42 -24 66t-68 24 t-68.5 -24t-24.5 -66zM547 1782l106 354h254l-194 -354h-166z" />
<glyph unicode="&#x1fb;" horiz-adv-x="1079" d="M88 309q0 91 37 165t98 121.5t142.5 80t166.5 46t175 13.5v49q0 154 -195 154q-145 0 -307 -78l-76 170q188 119 393 119q216 0 323 -101.5t107 -293.5v-754h-198l-23 115q-38 -54 -112.5 -92.5t-178.5 -38.5q-150 0 -251 90.5t-101 234.5zM313 1434q0 96 54.5 154.5 t146.5 64.5l68 227h254l-150 -272q78 -59 78 -174q0 -103 -61.5 -162.5t-163.5 -59.5q-101 0 -163.5 59.5t-62.5 162.5zM336 326q0 -63 46 -99.5t114 -36.5q72 0 129 36.5t84 88.5v238q-69 0 -133 -12.5t-119 -38t-88 -71t-33 -105.5zM446 1434q0 -40 25.5 -65.5t67.5 -25.5 q43 0 67.5 25t24.5 66q0 42 -24 66t-68 24t-68.5 -24t-24.5 -66z" />
<glyph unicode="&#x1fc;" horiz-adv-x="1683" d="M39 0l467 1434h1057v-226h-742l117 -364h580v-226h-510l120 -393h435v-225h-617l-100 317h-447l-100 -317h-260zM459 545h327l-159 526h-9zM748 1569l106 354h254l-195 -354h-165z" />
<glyph unicode="&#x1fd;" horiz-adv-x="1644" d="M88 309q0 91 37 165t98 121.5t142.5 80t166.5 46t175 13.5v49q0 154 -195 154q-145 0 -307 -78l-76 170q188 119 393 119q209 0 316 -96q113 96 301 96q424 0 424 -438v-234h-609v-110q0 -72 49 -121t154 -49q90 0 150 19t149 67l82 -183q-102 -59 -187.5 -87.5 t-203.5 -28.5q-263 0 -371 155q-117 -155 -336 -155q-150 0 -251 90.5t-101 234.5zM336 336q0 -62 45.5 -98.5t114.5 -36.5q72 0 129 36.5t84 88.5v237q-69 0 -133 -12.5t-119 -38t-88 -71t-33 -105.5zM721 1262l106 354h254l-194 -354h-166zM954 670h369q0 142 -38.5 204 t-145.5 62t-146 -60t-39 -206z" />
<glyph unicode="&#x1fe;" horiz-adv-x="1243" d="M113 492v448q0 237 130 373.5t380 136.5q95 0 188 -27l45 111h182l-75 -186q167 -130 167 -408v-448q0 -237 -128.5 -372.5t-378.5 -135.5q-104 0 -197 26l-45 -110h-184l77 188q-161 130 -161 404zM371 514q0 -84 18 -143l334 829q-41 14 -100 14q-134 0 -193 -73.5 t-59 -220.5v-406zM500 1569l106 354h254l-194 -354h-166zM514 233q43 -14 109 -14q135 0 192 72.5t57 222.5v406q0 92 -20 153z" />
<glyph unicode="&#x1ff;" horiz-adv-x="1064" d="M92 420v287q0 209 110.5 325.5t329.5 116.5q75 0 144 -16l33 84h163l-59 -144q160 -109 160 -366v-287q0 -209 -110 -322.5t-331 -113.5q-76 0 -145 16l-31 -78h-161l53 137q-156 109 -156 361zM338 434q0 -68 12 -117l242 607q-27 6 -60 6q-106 0 -150 -55.5t-44 -178.5 v-262zM418 1262l106 354h254l-194 -354h-166zM469 207q27 -6 63 -6q106 0 150.5 55.5t44.5 177.5v262q0 75 -14 121z" />
<glyph unicode="&#x218;" horiz-adv-x="1099" d="M53 137l111 185q205 -109 362 -109q125 0 184.5 52t59.5 132q0 54 -23 95t-62 66.5t-89.5 45.5t-106.5 37.5t-112 37.5t-106.5 49.5t-89.5 69.5t-62 102.5t-23 143.5q0 198 125 302t332 104q228 0 424 -137l-111 -191q-94 50 -169.5 74.5t-153.5 24.5q-195 0 -195 -168 q0 -44 23 -76.5t62 -54.5t90 -40t107 -36.5t112 -40t107 -55t90 -77t62 -110.5t23 -151q0 -202 -132 -315t-345 -113q-154 0 -271.5 41t-222.5 112zM412 -532q108 86 108 174h-96v260h258v-219q0 -184 -174 -318z" />
<glyph unicode="&#x219;" horiz-adv-x="923" d="M59 92l70 180q190 -82 324 -82q172 0 172 146q0 37 -23 65.5t-61 45t-86.5 34t-99 32.5t-99 41t-86.5 58.5t-61 86t-23 122.5q0 162 107 245t284 83q200 0 361 -100l-74 -183q-167 76 -277 76q-163 0 -163 -113q0 -37 30 -63.5t77.5 -44.5t105 -36t115 -43.5t105 -59.5 t77.5 -92t30 -134q0 -185 -99 -278.5t-312 -93.5q-100 0 -209.5 31t-184.5 77zM326 -532q108 86 108 174h-96v260h258v-219q0 -184 -174 -318z" />
<glyph unicode="&#x21a;" horiz-adv-x="1177" d="M80 1208v226h1016v-226h-379v-1208h-258v1208h-379zM446 -532q109 87 109 174h-96v260h258v-219q0 -184 -174 -318z" />
<glyph unicode="&#x21b;" horiz-adv-x="882" d="M47 926v194l193 13v217l241 26v-243h297v-207h-297v-592q0 -67 28 -96t95 -29q72 0 166 27l51 -187q-121 -59 -241 -59q-180 0 -262 85.5t-82 254.5v596h-189zM340 -532q109 87 109 174h-97v260h258v-219q0 -184 -174 -318z" />
<glyph unicode="&#x237;" horiz-adv-x="522" d="M-178 -377l59 187q62 -17 113 -17q149 0 149 148v1192h246v-1168q0 -186 -83.5 -285.5t-272.5 -99.5q-115 0 -211 43z" />
<glyph unicode="&#x2c6;" horiz-adv-x="968" d="M158 1262l229 354h193l229 -354h-168l-158 161l-157 -161h-168z" />
<glyph unicode="&#x2c7;" horiz-adv-x="968" d="M158 1616h168l157 -162l158 162h168l-229 -354h-193z" />
<glyph unicode="&#x2d8;" horiz-adv-x="806" d="M84 1546v39h199v-41q0 -119 120 -119q119 0 119 119v41h199v-39q0 -80 -24.5 -138t-69.5 -90.5t-100 -47.5t-124 -15t-124 15t-100 47.5t-70 90.5t-25 138z" />
<glyph unicode="&#x2d9;" horiz-adv-x="456" d="M94 1266v270h268v-270h-268z" />
<glyph unicode="&#x2da;" horiz-adv-x="944" d="M240 1434q0 101 64.5 161t166.5 60q103 0 167 -60t64 -161q0 -103 -64 -162.5t-167 -59.5q-102 0 -166.5 60t-64.5 162zM379 1434q0 -40 25 -65.5t67 -25.5q43 0 67.5 25t24.5 66q0 42 -24 66t-68 24t-68 -24t-24 -66z" />
<glyph unicode="&#x2db;" horiz-adv-x="849" d="M223 -254q0 79 57.5 147.5t159.5 106.5h185q-81 -35 -139 -88.5t-58 -114.5q0 -30 19 -48.5t47 -18.5q36 0 88 22l43 -135q-80 -57 -203 -57q-89 0 -144 48t-55 138z" />
<glyph unicode="&#x2dc;" horiz-adv-x="849" d="M63 1335q79 217 224 217q50 0 100.5 -25.5t92.5 -51t73 -25.5q28 0 50.5 19.5t53.5 76.5l131 -69q-82 -217 -225 -217q-50 0 -100.5 25.5t-92.5 51t-73 25.5q-28 0 -50 -19t-54 -77z" />
<glyph unicode="&#x2dd;" horiz-adv-x="866" d="M92 1262l107 354h254l-195 -354h-166zM414 1262l106 354h254l-194 -354h-166z" />
<glyph unicode="&#x1e80;" horiz-adv-x="1759" d="M47 1434h264l213 -1057h8l230 1057h235l232 -1057h8l211 1057h264l-340 -1434h-268l-221 901h-9l-219 -901h-268zM631 1923h254l106 -354h-166z" />
<glyph unicode="&#x1e81;" horiz-adv-x="1478" d="M39 1133h266l148 -779h8l174 779h209l176 -779h8l146 779h268l-281 -1133h-262l-151 616h-9l-149 -616h-271zM481 1616h254l107 -354h-166z" />
<glyph unicode="&#x1e82;" horiz-adv-x="1759" d="M47 1434h264l213 -1057h8l230 1057h235l232 -1057h8l211 1057h264l-340 -1434h-268l-221 901h-9l-219 -901h-268zM768 1569l106 354h254l-194 -354h-166z" />
<glyph unicode="&#x1e83;" horiz-adv-x="1478" d="M39 1133h266l148 -779h8l174 779h209l176 -779h8l146 779h268l-281 -1133h-262l-151 616h-9l-149 -616h-271zM645 1262l107 354h254l-195 -354h-166z" />
<glyph unicode="&#x1e84;" horiz-adv-x="1759" d="M47 1434h264l213 -1057h8l230 1057h235l232 -1057h8l211 1057h264l-340 -1434h-268l-221 901h-9l-219 -901h-268zM565 1591v248h246v-248h-246zM950 1591v248h246v-248h-246z" />
<glyph unicode="&#x1e85;" horiz-adv-x="1478" d="M39 1133h266l148 -779h8l174 779h209l176 -779h8l146 779h268l-281 -1133h-262l-151 616h-9l-149 -616h-271zM428 1284v248h246v-248h-246zM813 1284v248h246v-248h-246z" />
<glyph unicode="&#x1ef2;" horiz-adv-x="1191" d="M33 1434h278l281 -643h8l283 643h274l-432 -893v-541h-258v541zM342 1923h254l106 -354h-165z" />
<glyph unicode="&#x1ef3;" horiz-adv-x="1019" d="M35 1133h256l211 -814h8l223 814h258l-479 -1547h-233l133 414h-45zM272 1616h254l107 -354h-166z" />
<glyph unicode="&#x2000;" horiz-adv-x="1068" />
<glyph unicode="&#x2001;" horiz-adv-x="2136" />
<glyph unicode="&#x2002;" horiz-adv-x="1068" />
<glyph unicode="&#x2003;" horiz-adv-x="2136" />
<glyph unicode="&#x2004;" horiz-adv-x="712" />
<glyph unicode="&#x2005;" horiz-adv-x="534" />
<glyph unicode="&#x2006;" horiz-adv-x="356" />
<glyph unicode="&#x2007;" horiz-adv-x="356" />
<glyph unicode="&#x2008;" horiz-adv-x="267" />
<glyph unicode="&#x2009;" horiz-adv-x="427" />
<glyph unicode="&#x200a;" horiz-adv-x="118" />
<glyph unicode="&#x2010;" horiz-adv-x="696" d="M72 510v215h553v-215h-553z" />
<glyph unicode="&#x2011;" horiz-adv-x="696" d="M72 510v215h553v-215h-553z" />
<glyph unicode="&#x2012;" horiz-adv-x="696" d="M72 510v215h553v-215h-553z" />
<glyph unicode="&#x2013;" horiz-adv-x="1019" d="M61 510v215h897v-215h-897z" />
<glyph unicode="&#x2014;" horiz-adv-x="1681" d="M80 510v215h1519v-215h-1519z" />
<glyph unicode="&#x2018;" horiz-adv-x="559" d="M117 993v250q0 112 54.5 209t150.5 172l120 -119q-34 -27 -57 -49.5t-47.5 -67t-24.5 -90.5h103v-305h-299z" />
<glyph unicode="&#x2019;" horiz-adv-x="559" d="M117 1090q25 20 42 36t40 43t35 59.5t12 67.5h-103v306h299v-250q0 -112 -54 -209t-150 -172z" />
<glyph unicode="&#x201a;" horiz-adv-x="577" d="M113 -207q34 27 57 49.5t47.5 67t24.5 90.5h-103v305h299v-250q0 -112 -54.5 -209t-150.5 -172z" />
<glyph unicode="&#x201c;" horiz-adv-x="989" d="M111 993v250q0 112 54 209t150 172l121 -119q-34 -27 -57 -49.5t-47.5 -67t-24.5 -90.5h103v-305h-299zM551 993v250q0 112 54.5 209t150.5 172l121 -119q-34 -27 -57 -49.5t-47.5 -67t-24.5 -90.5h102v-305h-299z" />
<glyph unicode="&#x201d;" horiz-adv-x="989" d="M113 1090q25 20 42 36t40 43t35 59.5t12 67.5h-103v306h299v-250q0 -112 -54.5 -209t-150.5 -172zM553 1090q25 20 42 36t40 43t35 59.5t12 67.5h-102v306h299v-250q0 -112 -54.5 -209t-150.5 -172z" />
<glyph unicode="&#x201e;" horiz-adv-x="1017" d="M113 -207q34 27 57 49.5t47.5 67t24.5 90.5h-103v305h299v-250q0 -112 -54.5 -209t-150.5 -172zM553 -207q34 27 57 49.5t47.5 67t24.5 90.5h-102v305h299v-250q0 -112 -54.5 -209t-150.5 -172z" />
<glyph unicode="&#x2020;" horiz-adv-x="980" d="M133 885v223l240 -6l-6 407h247l-6 -407l240 6v-223l-238 6l-8 -975h-223l-8 975z" />
<glyph unicode="&#x2021;" horiz-adv-x="980" d="M133 317v224l242 -6v356l-242 -6v223l240 -6l-6 407h247l-6 -407l240 6v-223l-242 6v-356l242 6v-224l-240 7l6 -408h-247l6 408z" />
<glyph unicode="&#x2022;" horiz-adv-x="835" d="M143 625q0 123 76 198.5t199 75.5t198.5 -75.5t75.5 -198.5t-75.5 -199t-198.5 -76t-199 76t-76 199z" />
<glyph unicode="&#x202f;" horiz-adv-x="427" />
<glyph unicode="&#x2030;" horiz-adv-x="2486" d="M102 958v189q0 147 81.5 225t224.5 78t222 -78t79 -225v-189q0 -146 -79 -222.5t-222 -76.5t-224.5 77.5t-81.5 221.5zM315 969q0 -54 18.5 -84.5t74.5 -30.5q54 0 72 30.5t18 84.5v170q0 62 -19.5 89t-70.5 27q-52 0 -72.5 -27t-20.5 -89v-170zM504 -59l538 1552h226 l-539 -1552h-225zM1057 281v192q0 150 79 224.5t228 74.5t227 -74.5t78 -224.5v-192q0 -149 -78.5 -223t-226.5 -74q-149 0 -228 74.5t-79 222.5zM1276 295q0 -53 18.5 -83t69.5 -30t69.5 30t18.5 83v164q0 59 -20 86.5t-68 27.5q-49 0 -68.5 -27.5t-19.5 -86.5v-164z M1772 281v192q0 150 79 224.5t228 74.5t227 -74.5t78 -224.5v-192q0 -149 -78.5 -223t-226.5 -74q-149 0 -228 74.5t-79 222.5zM1991 295q0 -53 18.5 -83t69.5 -30t69.5 30t18.5 83v164q0 59 -20 86.5t-68 27.5q-49 0 -68.5 -27.5t-19.5 -86.5v-164z" />
<glyph unicode="&#x2039;" horiz-adv-x="729" d="M82 541v143l563 379v-191l-283 -260l283 -262v-188z" />
<glyph unicode="&#x203a;" horiz-adv-x="729" d="M82 162v188l283 262l-283 260v191l563 -379v-143z" />
<glyph unicode="&#x2044;" horiz-adv-x="788" d="M10 -51l525 1536h241l-524 -1536h-242z" />
<glyph unicode="&#x205f;" horiz-adv-x="534" />
<glyph unicode="&#x20ac;" horiz-adv-x="1251" d="M66 496v168h106v104h-106v168h106v29q0 225 129 355t373 130q214 0 416 -119l-91 -188q-172 78 -319 78q-254 0 -254 -267v-18h362v-168h-362v-104h362v-168h-362v-15q0 -266 254 -266q133 0 319 80l88 -184q-201 -125 -413 -125q-244 0 -373 130t-129 355v25h-106z" />
<glyph unicode="&#x2122;" horiz-adv-x="1486" d="M78 1288v146h551v-146h-195v-616h-162v616h-194zM727 672v762h131l205 -416h8l207 416h129v-762h-147v411h-9l-137 -295h-94l-137 295h-9v-411h-147z" />
<glyph unicode="&#x2190;" horiz-adv-x="1755" d="M121 709l672 649l153 -154l-414 -389h1080v-215h-1080l414 -391l-149 -152z" />
<glyph unicode="&#x2191;" horiz-adv-x="1482" d="M92 819l649 672l652 -676l-152 -149l-391 413v-1079h-215v1079l-389 -413z" />
<glyph unicode="&#x2192;" horiz-adv-x="1755" d="M143 600v215h1080l-414 389l154 154l671 -649l-676 -652l-149 152l414 391h-1080z" />
<glyph unicode="&#x2193;" horiz-adv-x="1482" d="M92 651l154 154l389 -414v1079h215v-1079l391 414l152 -150l-652 -675z" />
<glyph unicode="&#x2212;" horiz-adv-x="1013" d="M27 508v209h960v-209h-960z" />
<glyph unicode="&#x2260;" horiz-adv-x="1009" d="M27 291v209h354l72 227h-426v209h489l49 158h172l-49 -158h299v-209h-362l-72 -227h434v-209h-498l-47 -154h-172l47 154h-290z" />
<glyph unicode="&#x25fc;" horiz-adv-x="1136" d="M0 0v1137h1137v-1137h-1137z" />
<glyph unicode="&#xf6c3;" horiz-adv-x="536" d="M133 -532q109 87 109 174h-97v260h258v-219q0 -184 -174 -318z" />
<glyph horiz-adv-x="1183" d="M113 520v393q0 240 129.5 388.5t349.5 148.5t349.5 -148.5t129.5 -388.5v-393q0 -239 -129.5 -387.5t-349.5 -148.5t-349.5 148.5t-129.5 387.5zM365 537q0 -100 20 -164l252 848q-21 6 -45 6q-113 0 -170 -86.5t-57 -243.5v-360zM539 213q27 -6 53 -6q113 0 170 86.5 t57 243.5v360q0 103 -24 174z" />
<glyph d="M119 520v393q0 240 129.5 388.5t349.5 148.5t349.5 -148.5t129.5 -388.5v-393q0 -239 -129.5 -387.5t-349.5 -148.5t-349.5 148.5t-129.5 387.5zM375 541q0 -155 55.5 -239.5t167.5 -84.5t167.5 84.5t55.5 239.5v352q0 155 -55.5 239.5t-167.5 84.5t-167.5 -84.5 t-55.5 -239.5v-352z" />
<glyph d="M133 1245l481 189h187v-1213h250v-221h-846v221h340v955l-330 -127z" />
<glyph d="M131 1305q87 64 199.5 104.5t232.5 40.5q218 0 348.5 -103.5t130.5 -293.5q0 -78 -35 -153t-90.5 -135.5t-123 -118.5t-135 -110t-123 -101t-90.5 -101.5t-35 -102.5h641v-231h-908v160q0 88 35.5 171t92.5 149t126 128t137.5 116.5t125.5 105.5t92.5 105t35.5 105 q0 183 -227 183q-147 0 -334 -99z" />
<glyph d="M121 135l94 180q179 -102 348 -102q77 0 129.5 17t78 48.5t35 65.5t9.5 80q0 99 -61 150t-176 51h-244v219h215q225 0 225 182q0 197 -205 197q-156 0 -325 -97l-94 172q73 63 187 107.5t234 44.5q224 0 341.5 -107t117.5 -292q0 -205 -145 -293q180 -89 180 -336 q0 -70 -16 -132t-53 -119t-93.5 -98t-142.5 -65t-195 -24q-120 0 -246 46t-198 105z" />
<glyph d="M70 274v177l413 983h277l-412 -938h330v397h250v-397h198v-222h-198v-274h-250v274h-608z" />
<glyph d="M117 135l98 180q176 -102 338 -102q64 0 112.5 14.5t76.5 37t45 56t22.5 65t5.5 69.5q0 109 -62.5 178t-185.5 69q-134 0 -252 -71l-137 94l47 709h750v-232h-543l-20 -309q80 33 180 33q120 0 212 -36.5t148 -101t84.5 -149t28.5 -184.5q0 -76 -15.5 -142.5 t-52.5 -127.5t-93.5 -105t-143 -70t-195.5 -26q-139 0 -255.5 44.5t-192.5 106.5z" />
<glyph d="M106 479v389q0 127 31 231.5t93 183.5t164 123t235 44q236 0 415 -137l-98 -187q-174 97 -325 97q-125 0 -193 -79t-68 -218v-88q46 46 117 79t160 33q211 0 330.5 -126t119.5 -349q0 -222 -126.5 -356.5t-364.5 -134.5q-221 0 -355.5 137.5t-134.5 357.5zM360 479 q0 -132 63 -200t173 -68q109 0 173.5 67t64.5 197q0 131 -64 194.5t-174 63.5q-72 0 -134 -34t-102 -83v-137z" />
<glyph d="M125 1202v232h946v-195l-545 -1239h-276l549 1202h-674z" />
<glyph d="M106 399q0 231 242 353q-95 54 -152 136.5t-57 184.5q0 166 125 271.5t336 105.5t335 -105.5t124 -271.5q0 -102 -56.5 -185t-152.5 -136q244 -123 244 -353q0 -193 -132 -304t-362 -111q-231 0 -362.5 110.5t-131.5 304.5zM354 408q0 -93 68 -147t178 -54 q109 0 176.5 54.5t67.5 146.5q0 80 -56.5 137t-187.5 92q-132 -35 -189 -91.5t-57 -137.5zM391 1061q0 -43 15.5 -77.5t47.5 -61t64.5 -45t81.5 -39.5q49 21 81 39.5t64 45t48 61t16 77.5q0 76 -54 122t-155 46t-155 -46t-54 -122z" />
<glyph d="M106 958q0 222 127 357t365 135q221 0 355 -138t134 -358v-389q0 -127 -31 -231t-93 -183.5t-163.5 -123t-234.5 -43.5q-236 0 -415 137l98 186q172 -96 325 -96q125 0 193 79t68 218v88q-46 -46 -117 -79.5t-160 -33.5q-211 0 -331 126t-120 349zM360 958 q0 -131 64 -194.5t174 -63.5q72 0 134 34t102 83v137q0 132 -63 200.5t-173 68.5q-109 0 -173.5 -67t-64.5 -198z" />
<glyph d="M119 520v393q0 240 129.5 388.5t349.5 148.5t349.5 -148.5t129.5 -388.5v-393q0 -239 -129.5 -387.5t-349.5 -148.5t-349.5 148.5t-129.5 387.5zM371 537q0 -100 20 -164l252 848q-21 6 -45 6q-113 0 -170 -86.5t-57 -243.5v-360zM545 213q27 -6 53 -6q113 0 170 86.5 t57 243.5v360q0 103 -24 174z" />
<glyph d="M104 137l111 185q205 -109 363 -109q125 0 184 52t59 132q0 54 -23 95t-62 66.5t-89.5 45.5t-106.5 37.5t-112 37.5t-106.5 49.5t-89.5 69.5t-62 102.5t-23 143.5q0 198 125 302t332 104q237 0 424 -137l-110 -191q-94 50 -170 74.5t-154 24.5q-195 0 -195 -168 q0 -44 23 -76.5t62 -54.5t90 -40t107 -36.5t112 -40t107 -55t90 -77t62 -110.5t23 -151q0 -202 -132 -315t-345 -113q-154 0 -271.5 41t-222.5 112zM498 39h200v-234h-200v234zM498 1358v233h200v-233h-200z" />
<glyph d="M92 629v180l164 25q-31 117 -31 196q0 112 41.5 196t112.5 131.5t154 70t178 22.5q114 0 218 -34.5t177 -84.5l-88 -186q-158 76 -305 76q-32 0 -61.5 -4.5t-62.5 -18.5t-57 -36t-39.5 -60t-15.5 -88q0 -86 27 -178h467v-207h-416q27 -111 27 -174q0 -71 -31.5 -129.5 t-81.5 -96.5l4 -8h631v-221h-975v190q55 28 88.5 50.5t65.5 54.5t46.5 72t14.5 92q0 58 -33 170h-219z" />
<glyph d="M33 1434h278l281 -643h8l283 643h274l-348 -717h199v-182h-283v-105h283v-182h-283v-248h-258v248h-285v182h285v105h-285v182h199z" />
<glyph d="M61 496v168h107v104h-107v168h107v29q0 225 129 355t373 130q213 0 415 -119l-90 -188q-172 78 -319 78q-254 0 -254 -267v-18h362v-168h-362v-104h362v-168h-362v-15q0 -266 254 -266q133 0 319 80l88 -184q-201 -125 -413 -125q-244 0 -373 130t-129 355v25h-107z" />
<glyph horiz-adv-x="563" d="M139 1016l37 418h242l-107 -418h-172z" />
</font>
</defs>
</svg>
