<?xml version="1.0" standalone="no"?>
<!DOCTYPE svg PUBLIC "-//W3C//DTD SVG 1.1//EN" "http://www.w3.org/Graphics/SVG/1.1/DTD/svg11.dtd" >
<svg xmlns="http://www.w3.org/2000/svg" xmlns:xlink="http://www.w3.org/1999/xlink" version="1.1">
<metadata></metadata>
<defs>
<font id="nowaybold" horiz-adv-x="1253" >
<font-face units-per-em="2048" ascent="1536" descent="-512" />
<missing-glyph horiz-adv-x="516" />
<glyph unicode="&#x2e;&#x2e;&#x2e;" horiz-adv-x="1669" d="M92 0v371h369v-371h-369zM651 0v371h369v-371h-369zM1208 0v371h369v-371h-369z" />
<glyph unicode="&#xd;" horiz-adv-x="571" />
<glyph unicode=" "  horiz-adv-x="516" />
<glyph unicode="&#x09;" horiz-adv-x="516" />
<glyph unicode="&#xa0;" horiz-adv-x="516" />
<glyph unicode="!" horiz-adv-x="548" d="M90 0v371h369v-371h-369zM92 1434h365l-47 -955h-271z" />
<glyph unicode="&#x22;" horiz-adv-x="823" d="M68 1434h297l-27 -574h-244zM459 1434h297l-27 -574h-244z" />
<glyph unicode="#" horiz-adv-x="1261" d="M59 371l45 252h158l35 180h-164l45 252h166l41 205h272l-41 -205h144l41 205h272l-41 -205h168l-45 -252h-170l-35 -180h176l-45 -252h-180l-39 -205h-272l39 205h-144l-39 -205h-272l39 205h-154zM535 623h143l35 180h-144z" />
<glyph unicode="$" horiz-adv-x="1120" d="M35 139l117 256q241 -112 399 -112q94 0 141 39t47 98q0 46 -28.5 80t-75 53.5t-106 40.5t-121 39t-121 51t-106 75t-75 112t-28.5 161q0 169 88 273t256 133v153h272v-153q168 -30 340 -140l-141 -245q-173 102 -322 102q-81 0 -121 -29t-40 -82q0 -33 22.5 -58.5 t61 -43t88.5 -33.5t105 -35t110.5 -41.5t105.5 -58t88.5 -80t61 -112t22.5 -150.5q0 -181 -94.5 -293.5t-286.5 -142.5v-191h-272v187q-194 27 -387 147z" />
<glyph unicode="%" horiz-adv-x="1953" d="M94 954v181q0 153 88.5 234t243.5 81q154 0 240 -81t86 -234v-181q0 -153 -85.5 -233t-240.5 -80t-243.5 81t-88.5 232zM365 938q0 -28 18 -43.5t43 -15.5q24 0 41.5 15.5t17.5 43.5v217q0 28 -17.5 43.5t-41.5 15.5q-25 0 -43 -15.5t-18 -43.5v-217zM582 -59l501 1552 h289l-502 -1552h-288zM1200 297v180q0 153 88.5 234.5t243.5 81.5q154 0 240 -81.5t86 -234.5v-180q0 -153 -85.5 -233t-240.5 -80t-243.5 81t-88.5 232zM1470 281q0 -28 18.5 -44t43.5 -16q23 0 41 16t18 44v217q0 28 -17.5 43.5t-41.5 15.5q-25 0 -43.5 -15.5t-18.5 -43.5 v-217z" />
<glyph unicode="&#x26;" horiz-adv-x="1349" d="M61 410q0 134 47 227.5t177 159.5q-63 78 -94 142t-31 142q0 163 121.5 266t310.5 103q114 0 225.5 -36t190.5 -91l-117 -238q-141 76 -281 76q-59 0 -91 -21.5t-32 -58.5q0 -28 13 -52.5t45 -63.5l338 -398q34 90 53 258h299q-1 -136 -40.5 -268t-94.5 -227l258 -330 h-383l-68 82q-136 -98 -360 -98q-105 0 -192.5 26t-153.5 77t-103 133.5t-37 189.5zM385 424q0 -70 47.5 -114t124.5 -44q111 0 156 45l-242 277q-86 -41 -86 -164z" />
<glyph unicode="'" horiz-adv-x="432" d="M68 1434h297l-27 -574h-244z" />
<glyph unicode="(" horiz-adv-x="774" d="M82 641q0 227 96.5 474.5t284.5 465.5l242 -160q-135 -192 -207 -398.5t-72 -381.5t72 -381.5t207 -398.5l-242 -160q-188 218 -284.5 465.5t-96.5 474.5z" />
<glyph unicode=")" horiz-adv-x="774" d="M70 -139q135 192 206.5 398.5t71.5 381.5t-71.5 381.5t-206.5 398.5l241 160q188 -218 284.5 -465.5t96.5 -474.5t-96.5 -474.5t-284.5 -465.5z" />
<glyph unicode="*" horiz-adv-x="948" d="M100 1176l76 215l207 -95l-29 240h238l-29 -240l207 95l76 -215l-236 -60l174 -182l-184 -141l-127 217l-127 -217l-184 141l174 182z" />
<glyph unicode="+" horiz-adv-x="1046" d="M33 485v271h350v354h279v-354h352v-271h-352v-356h-279v356h-350z" />
<glyph unicode="," horiz-adv-x="552" d="M49 -197q167 97 170 197h-127v371h369v-254q0 -134 -30 -222t-90.5 -147t-170.5 -113z" />
<glyph unicode="-" horiz-adv-x="765" d="M72 481v279h622v-279h-622z" />
<glyph unicode="." horiz-adv-x="552" d="M92 0v371h369v-371h-369z" />
<glyph unicode="/" horiz-adv-x="874" d="M4 -162l553 1757h315l-553 -1757h-315z" />
<glyph unicode="0" horiz-adv-x="1220" d="M104 524v385q0 117 30 213.5t90.5 171t158.5 115.5t227 41t227 -41t158.5 -115.5t90.5 -171t30 -213.5v-385q0 -117 -30 -213.5t-90.5 -170.5t-158.5 -115t-227 -41t-227 41t-158.5 115t-90.5 170.5t-30 213.5zM442 543q0 -122 37.5 -187t130.5 -65t130.5 65t37.5 187 v348q0 123 -37.5 187.5t-130.5 64.5t-130.5 -64.5t-37.5 -187.5v-348z" />
<glyph unicode="1" horiz-adv-x="1083" d="M35 1237l508 197h233v-1149h242v-285h-905v285h327v811l-301 -115q-8 18 -104 256z" />
<glyph unicode="2" horiz-adv-x="1136" d="M59 1282q106 78 234 123t256 45q226 0 356.5 -108t130.5 -298q0 -78 -33.5 -151.5t-86.5 -131.5t-117.5 -111.5t-129 -100t-117.5 -88.5t-86.5 -84.5t-33.5 -81.5h627v-295h-977v217q0 79 34 155.5t88.5 139t120.5 122t132 112t120.5 100t88.5 96t34 90.5q0 60 -47 93.5 t-127 33.5q-151 0 -327 -110z" />
<glyph unicode="3" horiz-adv-x="1140" d="M51 147l129 238q213 -109 357 -109q60 0 101.5 14t61 39.5t27.5 52t8 60.5q0 78 -46.5 121t-137.5 43h-268v264h241q77 0 124.5 36.5t47.5 105.5q0 67 -38.5 106t-120.5 39q-85 0 -172.5 -30t-153.5 -74l-131 235q110 81 239 121.5t248 40.5q225 0 345 -112t120 -302 q0 -74 -29.5 -147.5t-89.5 -124.5q80 -57 117 -135.5t37 -194.5q0 -72 -17 -136t-56.5 -122t-98.5 -100t-150.5 -67t-205.5 -25q-239 0 -488 163z" />
<glyph unicode="4" horiz-adv-x="1243" d="M66 258v217l397 959h338l-375 -891h256v340h324v-340h170v-285h-170v-258h-324v258h-616z" />
<glyph unicode="5" horiz-adv-x="1173" d="M70 150l127 233q212 -107 356 -107q197 0 197 195q0 87 -53.5 143t-149.5 56q-106 0 -236 -72l-174 109l43 727h813v-289h-536l-15 -219q62 24 150 24q123 0 218 -37t153 -103t87 -151.5t29 -187.5q0 -78 -16 -146.5t-55 -132t-97.5 -109t-149.5 -72.5t-206 -27 q-128 0 -257 43.5t-228 122.5z" />
<glyph unicode="6" horiz-adv-x="1230" d="M96 487v367q0 102 21 191t65 163.5t108.5 127.5t156 82.5t202.5 29.5q246 0 447 -141l-125 -238q-78 47 -145 68.5t-148 21.5q-112 0 -179 -60t-67 -179v-46q97 93 240 93q217 0 339 -128.5t122 -355.5q0 -225 -134 -363t-387 -138q-233 0 -374.5 140.5t-141.5 364.5z M432 487q0 -105 47.5 -160t132.5 -55t135 53.5t50 157.5q0 203 -185 203q-101 0 -180 -92v-107z" />
<glyph unicode="7" horiz-adv-x="1189" d="M94 1141v293h1002v-222l-537 -1212h-358l522 1141h-629z" />
<glyph unicode="8" horiz-adv-x="1226" d="M94 424q0 108 58.5 193.5t154.5 138.5q-80 52 -130 128t-50 169q0 177 130 287t355 110t355.5 -110t130.5 -287q0 -93 -50 -169t-130 -128q95 -53 153.5 -138t58.5 -194q0 -203 -137.5 -321.5t-380.5 -118.5t-380.5 118.5t-137.5 321.5zM422 432q0 -74 52 -118t138 -44 t138.5 44t52.5 118q0 131 -191 180q-190 -49 -190 -180zM457 1044q0 -109 155 -174q156 66 156 174q0 56 -40 89.5t-116 33.5t-115.5 -33.5t-39.5 -89.5z" />
<glyph unicode="9" horiz-adv-x="1230" d="M98 946q0 226 134 364t386 138q233 0 375 -141t142 -365v-367q0 -128 -33.5 -234.5t-100 -187.5t-173.5 -126t-246 -45q-246 0 -447 141l125 237q78 -47 145 -68.5t148 -21.5q112 0 179 60.5t67 179.5v45q-96 -92 -240 -92q-217 0 -339 128t-122 355zM434 946 q0 -203 184 -203q102 0 181 93v106q0 105 -48 160t-133 55t-134.5 -53.5t-49.5 -157.5z" />
<glyph unicode=":" horiz-adv-x="552" d="M92 0v371h369v-371h-369zM92 711v370h369v-370h-369z" />
<glyph unicode=";" horiz-adv-x="552" d="M49 -197q167 97 170 197h-127v371h369v-254q0 -134 -30 -222t-90.5 -147t-170.5 -113zM92 711v370h369v-370h-369z" />
<glyph unicode="&#x3c;" horiz-adv-x="1095" d="M96 528v164l903 459v-297l-516 -244l516 -243v-297z" />
<glyph unicode="=" horiz-adv-x="1042" d="M33 254v270h981v-270h-981zM33 717v270h981v-270h-981z" />
<glyph unicode="&#x3e;" horiz-adv-x="1095" d="M96 70v297l516 243l-516 244v297l903 -459v-164z" />
<glyph unicode="?" horiz-adv-x="1079" d="M55 1292q223 158 465 158q241 0 364.5 -102t123.5 -291q0 -64 -21.5 -116.5t-56.5 -88t-77 -65t-84 -52t-77 -44t-56.5 -47t-21.5 -54.5v-111h-319v154q0 54 21 99t55 76t74.5 57.5t81.5 49t75 44t55 48.5t21 58q0 51 -46.5 77.5t-125.5 26.5q-139 0 -334 -102zM272 0 v371h369v-371h-369z" />
<glyph unicode="@" horiz-adv-x="1626" d="M113 608q0 155 44.5 284.5t129.5 226.5t219.5 151.5t304.5 54.5q330 0 515 -176t185 -502q0 -203 -93 -316.5t-249 -113.5q-72 0 -125.5 26t-78.5 72h-9q-30 -42 -84 -70t-122 -28q-113 0 -179.5 71t-66.5 224v160q0 143 63 222t170 79q53 0 95 -22t63 -52l23 68h165 v-441q0 -106 82 -106q66 0 96.5 53t30.5 174q0 220 -122 341.5t-359 121.5q-234 0 -353.5 -135t-119.5 -367q0 -266 131.5 -401t388.5 -135q252 0 485 100l68 -172q-107 -63 -257 -102t-300 -39q-358 0 -549.5 192t-191.5 557zM715 522q0 -98 78 -98q52 0 86 39v264 q-34 39 -86 39q-78 0 -78 -98v-146z" />
<glyph unicode="A" horiz-adv-x="1269" d="M18 0l455 1434h324l454 -1434h-356l-82 281h-356l-82 -281h-357zM524 573h221l-106 416h-8z" />
<glyph unicode="B" horiz-adv-x="1230" d="M131 0v1434h539q229 0 349 -109.5t120 -292.5q0 -95 -45 -168t-123 -112v-9q192 -98 192 -323q0 -420 -518 -420h-514zM467 291h154q103 0 149.5 33t46.5 118q0 83 -45 117.5t-137 34.5h-168v-303zM467 870h186q75 0 108.5 34t33.5 102q0 69 -33.5 103t-108.5 34h-186 v-273z" />
<glyph unicode="C" horiz-adv-x="1165" d="M84 510v414q0 244 138.5 385t406.5 141q102 0 184 -23.5t141 -68.5t100.5 -99t75.5 -126l-270 -134q-32 71 -83 109.5t-134 38.5q-110 0 -162.5 -67t-52.5 -175v-377q0 -108 53 -174.5t164 -66.5q158 0 223 149l269 -137q-25 -57 -53.5 -102t-71.5 -86t-95 -68t-124 -43 t-160 -16q-268 0 -408.5 141.5t-140.5 384.5z" />
<glyph unicode="D" horiz-adv-x="1320" d="M131 0v1434h508q288 0 443 -175t155 -538q0 -338 -152 -529.5t-403 -191.5h-551zM469 291h143q279 0 279 436q0 83 -12.5 152t-42 131t-86.5 97.5t-138 35.5h-143v-852z" />
<glyph unicode="E" horiz-adv-x="1120" d="M131 0v1434h879v-291h-539v-266h492v-291h-492v-295h539v-291h-879z" />
<glyph unicode="F" horiz-adv-x="1101" d="M131 0v1434h879v-291h-539v-301h492v-291h-492v-551h-340z" />
<glyph unicode="G" d="M84 512v412q0 243 140.5 384.5t408.5 141.5q102 0 184 -23.5t141 -68.5t101 -99t76 -126l-265 -134q-33 70 -85 109t-140 39q-105 0 -161 -68t-56 -174v-375q0 -109 51.5 -177t161.5 -68q141 0 205 84v190h-248v272h557v-589q-44 -57 -92 -100.5t-111.5 -80.5t-145 -57 t-177.5 -20q-268 0 -406.5 142t-138.5 386z" />
<glyph unicode="H" horiz-adv-x="1343" d="M131 0v1434h340v-553h401v553h340v-1434h-340v588h-401v-588h-340z" />
<glyph unicode="I" horiz-adv-x="602" d="M131 0v1434h340v-1434h-340z" />
<glyph unicode="J" horiz-adv-x="870" d="M41 25l22 276q132 -18 181 -18q95 0 125 51t30 168v932h340v-928q0 -95 -10 -166.5t-39.5 -141.5t-79.5 -114.5t-135 -72t-201 -27.5q-108 0 -233 41z" />
<glyph unicode="K" horiz-adv-x="1220" d="M131 0v1434h340v-543h64l282 543h371l-379 -672l399 -762h-370l-303 596h-64v-596h-340z" />
<glyph unicode="L" horiz-adv-x="1064" d="M131 0v1434h340v-1123h537v-311h-877z" />
<glyph unicode="M" horiz-adv-x="1572" d="M131 0v1434h272l379 -744h9l380 744h271v-1434h-328v684h-8l-221 -446h-197l-221 446h-8v-684h-328z" />
<glyph unicode="N" horiz-adv-x="1363" d="M131 0v1434h305l482 -762h8v762h327v-1434h-299l-487 786h-8v-786h-328z" />
<glyph unicode="O" d="M84 508v416q0 244 138.5 385t406.5 141q266 0 403 -141t137 -385v-416q0 -245 -136.5 -384.5t-403.5 -139.5q-269 0 -407 139.5t-138 384.5zM426 530q0 -125 46.5 -185t156.5 -60q109 0 153.5 59.5t44.5 185.5v375q0 124 -44.5 183t-153.5 59t-156 -59.5t-47 -182.5v-375 z" />
<glyph unicode="P" horiz-adv-x="1218" d="M131 0v1434h455q110 0 192.5 -13t153.5 -46t116 -88t70 -140t25 -201q0 -251 -137 -365t-402 -114h-133v-467h-340zM471 760h109q121 0 170 44t49 148q0 107 -48 149t-171 42h-109v-383z" />
<glyph unicode="Q" d="M84 508v416q0 244 138.5 385t406.5 141q266 0 403 -141t137 -385v-416q0 -171 -69 -297l157 -141l-190 -201l-172 162q-112 -47 -266 -47q-269 0 -407 139.5t-138 384.5zM426 530q0 -129 49 -193.5t168 -64.5l-115 113l177 182l120 -104q2 20 2 67v375q0 124 -44.5 183 t-153.5 59t-156 -59.5t-47 -182.5v-375z" />
<glyph unicode="R" horiz-adv-x="1216" d="M131 0v1434h467q265 0 405 -113t140 -360q0 -87 -19.5 -158.5t-54 -120t-73.5 -80.5t-85 -53l308 -549h-377l-244 492h-129v-492h-338zM469 782h135q98 0 147.5 41.5t49.5 137.5q0 103 -52.5 142.5t-164.5 39.5h-115v-361z" />
<glyph unicode="S" horiz-adv-x="1120" d="M35 139l117 256q241 -112 399 -112q94 0 141 39t47 98q0 46 -28.5 80t-75 53.5t-106 40.5t-121 39t-121 51t-106 75t-75 112t-28.5 161q0 202 123 310t356 108q249 0 477 -152l-141 -245q-173 102 -322 102q-81 0 -121 -29t-40 -82q0 -33 22.5 -58.5t61 -43t88.5 -33.5 t105 -35t110.5 -41.5t105.5 -58t88.5 -80t61 -112t22.5 -150.5q0 -214 -131.5 -331t-402.5 -117q-251 0 -506 155z" />
<glyph unicode="T" horiz-adv-x="1220" d="M63 1122v312h1084v-312h-371v-1122h-340v1122h-373z" />
<glyph unicode="U" horiz-adv-x="1310" d="M121 485v949h340v-930q0 -110 42.5 -166.5t151.5 -56.5t152 56.5t43 166.5v930h340v-949q0 -240 -136 -370.5t-399 -130.5t-398.5 130t-135.5 371z" />
<glyph unicode="V" horiz-adv-x="1255" d="M41 1434h352l228 -926h8l229 926h369l-449 -1434h-309z" />
<glyph unicode="W" horiz-adv-x="1820" d="M41 1434h369l149 -910h8l205 910h275l204 -910h9l149 910h371l-340 -1434h-340l-187 780h-8l-188 -780h-336z" />
<glyph unicode="X" horiz-adv-x="1157" d="M20 0l349 741l-330 693h367l167 -437h9l170 437h364l-328 -693l347 -741h-369l-184 467h-9l-184 -467h-369z" />
<glyph unicode="Y" horiz-adv-x="1306" d="M39 1434h379l229 -551h12l232 551h377l-443 -875v-559h-344v559z" />
<glyph unicode="Z" horiz-adv-x="1153" d="M88 0v227l551 920h-520v287h946v-224l-553 -919h553v-291h-977z" />
<glyph unicode="[" horiz-adv-x="776" d="M123 -238v1774h545v-279h-219v-1216h219v-279h-545z" />
<glyph unicode="\" horiz-adv-x="874" d="M4 1595h315l553 -1757h-315z" />
<glyph unicode="]" horiz-adv-x="776" d="M109 41h219v1216h-219v279h544v-1774h-544v279z" />
<glyph unicode="^" horiz-adv-x="1105" d="M23 692l428 844h204l428 -844h-295l-235 482l-236 -482h-294z" />
<glyph unicode="_" horiz-adv-x="1161" d="M59 -49h1041v-254h-1041v254z" />
<glyph unicode="`" horiz-adv-x="894" d="M219 1653h330l108 -391h-225z" />
<glyph unicode="a" horiz-adv-x="1091" d="M68 313q0 108 48.5 189t133.5 127.5t187.5 69t221.5 22.5v49q0 113 -149 113q-140 0 -320 -84l-86 227q212 129 435 129q225 0 337.5 -106.5t112.5 -305.5v-743h-270l-23 113q-108 -129 -284 -129q-149 0 -246.5 89.5t-97.5 239.5zM389 344q0 -45 29.5 -72.5t81.5 -27.5 q56 0 96.5 26t62.5 64v166q-117 0 -193.5 -40t-76.5 -116z" />
<glyph unicode="b" horiz-adv-x="1124" d="M113 0v1536h327v-481q43 43 111.5 71.5t138.5 28.5q179 0 271 -117t92 -331v-273q0 -215 -95 -332.5t-282 -117.5q-76 0 -152 33.5t-118 86.5l-27 -104h-266zM440 369q66 -76 146 -76q72 0 105.5 43.5t33.5 136.5v193q0 91 -33.5 135.5t-105.5 44.5q-82 0 -146 -74v-403z " />
<glyph unicode="c" horiz-adv-x="995" d="M72 440v258q0 214 120 335.5t351 121.5q294 0 424 -248l-230 -164q-41 68 -84.5 97.5t-101.5 29.5q-72 0 -112 -45.5t-40 -122.5v-266q0 -77 40 -122.5t112 -45.5q55 0 100 27.5t92 99.5l234 -159q-77 -123 -176 -187.5t-252 -64.5q-232 0 -354.5 121.5t-122.5 334.5z " />
<glyph unicode="d" horiz-adv-x="1124" d="M72 434v273q0 214 91.5 331t270.5 117q70 0 138.5 -28.5t111.5 -71.5v481h328v-1536h-267l-26 104q-42 -53 -118 -86.5t-152 -33.5q-187 0 -282 117.5t-95 332.5zM399 473q0 -92 34 -136t106 -44q79 0 145 76v403q-64 74 -145 74q-72 0 -106 -44.5t-34 -135.5v-193z" />
<glyph unicode="e" horiz-adv-x="1044" d="M72 406v301q0 214 114.5 331t343.5 117q453 0 453 -448v-258h-582v-80q0 -51 37 -83t119 -32t149 13.5t173 56.5l79 -232q-159 -108 -419 -108q-230 0 -348.5 111.5t-118.5 310.5zM401 690h273v37q0 164 -135 164q-138 0 -138 -164v-37z" />
<glyph unicode="f" horiz-adv-x="880" d="M39 877v247l176 15v26q0 89 20 159.5t63 124.5t116.5 83t173.5 29q71 0 146 -17.5t132 -48.5l-71 -248q-71 29 -138 29q-55 0 -84.5 -25t-29.5 -71v-41h270v-262h-270v-877h-328v877h-176z" />
<glyph unicode="g" horiz-adv-x="1114" d="M72 463v242q0 215 95 332.5t282 117.5q76 0 152 -33.5t118 -87.5l26 105h267v-1092q0 -215 -130.5 -346t-357.5 -131q-115 0 -228 26.5t-187 75.5l84 238q95 -37 161 -49.5t144 -12.5q93 0 139.5 42.5t46.5 109.5v115q-43 -43 -112 -72t-138 -29q-179 0 -270.5 117.5 t-91.5 331.5zM399 504q0 -91 34 -135.5t106 -44.5q82 0 145 73v373q-66 76 -145 76q-72 0 -106 -44t-34 -136v-162z" />
<glyph unicode="h" horiz-adv-x="1165" d="M113 0v1536h327v-471q121 90 281 90q175 0 258.5 -111t83.5 -296v-748h-328v680q0 87 -33 125.5t-96 38.5q-82 0 -166 -68v-776h-327z" />
<glyph unicode="i" horiz-adv-x="552" d="M109 1255v322h335v-322h-335zM113 0v1139h327v-1139h-327z" />
<glyph unicode="j" horiz-adv-x="552" d="M-199 -358l78 241q68 -20 152 -20q44 0 68 25t24 71v1180h328v-1166q0 -90 -19 -159.5t-61.5 -124t-117 -83t-177.5 -28.5q-159 0 -275 64zM119 1255v322h336v-322h-336z" />
<glyph unicode="k" horiz-adv-x="1060" d="M113 0v1536h327v-791h49l187 394h371l-279 -518l285 -621h-377l-184 475h-52v-475h-327z" />
<glyph unicode="l" horiz-adv-x="542" d="M113 0v1536h327v-1536h-327z" />
<glyph unicode="m" horiz-adv-x="1726" d="M113 0v1139h268l27 -101q131 117 301 117q185 0 280 -123q71 63 137.5 93t157.5 30t158 -30.5t106 -87t57.5 -128t18.5 -161.5v-748h-328v680q0 88 -32 126t-95 38q-65 0 -133 -47q4 -54 4 -80v-717h-325v688q0 81 -31 118.5t-92 37.5q-77 0 -152 -68v-776h-327z" />
<glyph unicode="n" horiz-adv-x="1157" d="M113 0v1139h268l27 -101q127 117 309 117q72 0 129.5 -20.5t96 -56.5t64 -87.5t37 -111.5t11.5 -131v-748h-328v680q0 88 -31.5 126t-93.5 38q-78 0 -162 -68v-776h-327z" />
<glyph unicode="o" horiz-adv-x="1085" d="M72 432v266q0 216 119 336.5t352 120.5t352 -120.5t119 -336.5v-266q0 -212 -119 -330t-352 -118t-352 118t-119 330zM399 446q0 -94 32 -136t112 -42q81 0 112 42t31 136v244q0 97 -31 138.5t-112 41.5q-80 0 -112 -42t-32 -138v-244z" />
<glyph unicode="p" horiz-adv-x="1124" d="M113 -414v1553h266l27 -105q111 121 270 121q187 0 282 -117.5t95 -332.5v-273q0 -214 -92 -331t-271 -117q-70 0 -138.5 28.5t-111.5 71.5v-498h-327zM440 367q64 -74 146 -74q72 0 105.5 44.5t33.5 135.5v193q0 93 -33.5 136.5t-105.5 43.5q-80 0 -146 -76v-403z" />
<glyph unicode="q" horiz-adv-x="1114" d="M72 432v273q0 215 95 332.5t282 117.5q159 0 270 -121l26 105h267v-1553h-328v498q-43 -43 -111.5 -71.5t-138.5 -28.5q-179 0 -270.5 117t-91.5 331zM399 473q0 -91 34 -135.5t106 -44.5q81 0 145 74v403q-66 76 -145 76q-72 0 -106 -44t-34 -136v-193z" />
<glyph unicode="r" horiz-adv-x="829" d="M113 0v1139h270l25 -142q42 70 112.5 114t145.5 44q71 0 147 -37l-61 -301q-60 27 -117 27q-53 0 -105.5 -28.5t-89.5 -76.5v-739h-327z" />
<glyph unicode="s" horiz-adv-x="954" d="M47 106l70 238q224 -90 352 -90q70 0 98.5 24t28.5 70q0 34 -29 58t-75 39.5t-101.5 30.5t-111 39t-101.5 57.5t-75 93t-29 139.5q0 175 114 262.5t306 87.5q99 0 203 -31t184 -82l-78 -231q-174 82 -307 82q-107 0 -107 -68q0 -32 29 -54t75 -36.5t101.5 -29t111 -38.5 t101.5 -57.5t75 -94t29 -140.5q0 -197 -109.5 -294t-332.5 -97q-100 0 -211 31t-211 91z" />
<glyph unicode="t" horiz-adv-x="905" d="M37 877v247l186 15v209l320 32v-241h286v-262h-286v-519q0 -40 28.5 -63t75.5 -23q66 0 152 27l73 -233q-128 -82 -282 -82q-103 0 -177.5 28.5t-117 83t-61.5 124t-19 159.5v498h-178z" />
<glyph unicode="u" horiz-adv-x="1146" d="M102 391v748h328v-680q0 -88 31.5 -126t93.5 -38q80 0 162 67v777h327v-1139h-268l-26 100q-126 -116 -310 -116q-72 0 -129.5 20.5t-96 56.5t-64 87.5t-37 111.5t-11.5 131z" />
<glyph unicode="v" horiz-adv-x="1073" d="M23 1139h346l163 -723h9l164 723h348l-359 -1139h-319z" />
<glyph unicode="w" horiz-adv-x="1511" d="M27 1139h344l106 -703h8l133 703h275l133 -703h8l107 703h346l-285 -1139h-325l-117 504h-8l-121 -504h-322z" />
<glyph unicode="x" horiz-adv-x="1007" d="M23 0l272 578l-266 561h352l119 -330h8l119 330h352l-266 -561l274 -578h-350l-129 352h-8l-129 -352h-348z" />
<glyph unicode="y" horiz-adv-x="1073" d="M25 1139h344l141 -733h8l184 733h349l-488 -1553h-313l131 414h-45z" />
<glyph unicode="z" horiz-adv-x="1024" d="M66 0v219l452 641h-426v279h840v-209l-451 -643h475v-287h-890z" />
<glyph unicode="{" horiz-adv-x="866" d="M41 510v278h98q41 0 62.5 30t21.5 75v352q0 150 74 220.5t199 70.5h231v-279h-119q-27 0 -44 -18.5t-17 -42.5v-303q0 -92 -36 -156t-101 -84v-8q65 -20 101 -83.5t36 -155.5v-304q0 -24 17 -42.5t44 -18.5h119v-279h-231q-125 0 -199 70.5t-74 220.5v353 q0 45 -21.5 74.5t-62.5 29.5h-98z" />
<glyph unicode="|" horiz-adv-x="524" d="M100 -238v1809h324v-1809h-324z" />
<glyph unicode="}" horiz-adv-x="866" d="M139 41h119q27 0 44 18.5t17 42.5v304q0 92 36.5 155.5t101.5 83.5v8q-65 20 -101.5 84t-36.5 156v303q0 24 -17 42.5t-44 18.5h-119v279h232q125 0 198.5 -70t73.5 -221v-352q0 -45 21.5 -75t62.5 -30h98v-278h-98q-41 0 -62.5 -29.5t-21.5 -74.5v-353 q0 -151 -73.5 -221t-198.5 -70h-232v279z" />
<glyph unicode="&#xa1;" horiz-adv-x="548" d="M90 739v371h369v-371h-369zM92 -324l47 955h271l47 -955h-365z" />
<glyph unicode="&#xa2;" horiz-adv-x="980" d="M53 526v355q0 161 83.5 263t240.5 134v156h272v-158q56 -6 133.5 -38t130.5 -71l-65 -241q-208 88 -326 88q-75 0 -111 -28.5t-36 -76.5v-411q0 -48 36 -76.5t111 -28.5q118 0 326 88l65 -241q-53 -39 -130.5 -71t-133.5 -38v-131h-272v129q-157 32 -240.5 134t-83.5 263 z" />
<glyph unicode="&#xa3;" horiz-adv-x="1232" d="M20 594v244l158 26q-33 101 -33 160q0 90 28.5 163t76.5 121.5t114 81t138 46.5t151 14q229 0 443 -133l-123 -238q-177 82 -307 82q-33 0 -62.5 -6t-60.5 -22t-49.5 -49.5t-18.5 -82.5q0 -52 29 -137h452v-270h-391q21 -75 21 -127q0 -106 -76 -176l2 -6h575v-285h-1030 v242q38 17 63 29t57.5 33.5t51 43t32 53t13.5 68.5q0 65 -22 125h-232z" />
<glyph unicode="&#xa4;" horiz-adv-x="1159" d="M31 281l166 168q-47 92 -47 225q0 140 45 221l-164 168l164 168l170 -172q81 47 215 47q131 0 215 -47l170 172l163 -168l-167 -168q49 -91 49 -221q0 -134 -49 -225l167 -168l-163 -168l-172 172q-78 -45 -213 -45q-137 0 -215 45l-170 -172zM391 674q0 -98 46.5 -151.5 t142.5 -53.5q188 0 188 205q0 97 -46.5 151t-141.5 54t-142 -54t-47 -151z" />
<glyph unicode="&#xa5;" horiz-adv-x="1306" d="M39 1434h379l229 -551h12l232 551h377l-334 -660h156v-244h-265v-96h265v-244h-265v-190h-344v190h-264v244h264v96h-264v244h156z" />
<glyph unicode="&#xa6;" horiz-adv-x="524" d="M100 -238v828h324v-828h-324zM100 743v828h324v-828h-324z" />
<glyph unicode="&#xa7;" horiz-adv-x="1118" d="M55 584q0 129 92 239q-55 104 -55 226q0 187 125.5 294t345.5 107q243 0 459 -137l-104 -238q-71 39 -163 63.5t-169 24.5q-80 0 -122 -30t-42 -78q0 -43 27.5 -75.5t72.5 -52t102.5 -40.5t117 -40t117 -53t102.5 -77t72.5 -113.5t27.5 -161.5q0 -129 -92 -239 q55 -104 55 -226q0 -188 -121 -294.5t-340 -106.5q-243 0 -459 137l105 238q71 -39 163 -63.5t169 -24.5q73 0 113 30t40 78q0 43 -27.5 75.5t-72.5 52t-102.5 40.5t-117 40t-117 53t-102.5 77t-72.5 113.5t-27.5 161.5zM381 596q0 -39 17.5 -71t42 -51.5t63.5 -37 t70.5 -26.5t75 -21.5t65.5 -19.5q20 28 20 61q0 39 -17.5 71t-42 51.5t-63.5 37t-70.5 26.5t-75 21.5t-65.5 19.5q-20 -28 -20 -61z" />
<glyph unicode="&#xa8;" horiz-adv-x="929" d="M125 1268v280h274v-280h-274zM530 1268v280h275v-280h-275z" />
<glyph unicode="&#xa9;" horiz-adv-x="1820" d="M109 782q0 241 92 420t274 279t436 100q190 0 341.5 -57t252 -162t154 -252.5t53.5 -327.5q0 -240 -92 -418.5t-274 -278t-435 -99.5q-254 0 -436 99.5t-274 278t-92 418.5zM381 782q0 -263 136.5 -415t393.5 -152t393 152t136 415t-136 415.5t-393 152.5t-393.5 -152.5 t-136.5 -415.5zM573 655v254q0 151 86 238.5t252 87.5q207 0 312 -191l-166 -100q-32 54 -65 78.5t-81 24.5q-125 0 -125 -150v-229q0 -150 125 -150q92 0 148 103l166 -99q-108 -192 -314 -192q-166 0 -252 87t-86 238z" />
<glyph unicode="&#xaa;" horiz-adv-x="821" d="M100 885q0 96 58 162t145 94t195 28v23q0 70 -101 70q-98 0 -217 -58l-57 164q143 82 289 82q154 0 230.5 -71.5t76.5 -204.5v-500h-178l-17 69q-68 -79 -196 -79q-103 0 -165.5 60t-62.5 161zM322 909q0 -31 19 -49t50 -18q40 0 70.5 17.5t36.5 41.5v107 q-73 0 -124.5 -24.5t-51.5 -74.5z" />
<glyph unicode="&#xab;" horiz-adv-x="1398" d="M92 532v160l621 400v-236l-269 -244l269 -243v-236zM686 532v160l621 400v-236l-269 -244l269 -243v-236z" />
<glyph unicode="&#xac;" horiz-adv-x="1136" d="M33 549v270h1071v-715h-279v445h-792z" />
<glyph unicode="&#xad;" horiz-adv-x="765" d="M72 481v279h622v-279h-622z" />
<glyph unicode="&#xae;" horiz-adv-x="1093" d="M55 989q0 225 131.5 359.5t360.5 134.5t360 -134.5t131 -359.5q0 -228 -131 -364t-360 -136t-360.5 136t-131.5 364zM197 989q0 -356 350 -356t350 356q0 168 -86.5 261t-263.5 93t-263.5 -93t-86.5 -261zM365 721v539h182q209 0 209 -181q0 -63 -26 -102t-64 -55 l114 -201h-143l-94 178h-47v-178h-131zM496 1010h51q76 0 76 69q0 39 -20.5 55.5t-63.5 16.5h-43v-141z" />
<glyph unicode="&#xaf;" horiz-adv-x="808" d="M100 1298v238h609v-238h-609z" />
<glyph unicode="&#xb0;" horiz-adv-x="749" d="M72 1227q0 126 84 210.5t219 84.5t219 -84.5t84 -210.5t-84 -210.5t-219 -84.5t-219 84.5t-84 210.5zM262 1227q0 -50 30.5 -82.5t82.5 -32.5q51 0 81.5 32t30.5 83q0 50 -30 82t-82 32t-82.5 -32t-30.5 -82z" />
<glyph unicode="&#xb1;" horiz-adv-x="1046" d="M33 0v262h981v-262h-981zM33 653v271h350v333h279v-333h352v-271h-352v-319h-279v319h-350z" />
<glyph unicode="&#xb2;" horiz-adv-x="845" d="M68 1333q174 111 331 111q152 0 245 -73.5t93 -199.5q0 -64 -31.5 -122t-80 -101t-98.5 -79.5t-94.5 -73t-59.5 -66.5h366v-233h-657v141q0 52 21.5 101t56 88t76 75.5t83.5 68.5t76.5 61.5t56 59.5t21.5 58q0 29 -23.5 44t-64.5 15q-96 0 -227 -67z" />
<glyph unicode="&#xb3;" horiz-adv-x="845" d="M72 602l90 170q140 -70 239 -70q67 0 95 29t28 70q0 38 -27.5 63t-80.5 25h-199v184h176q51 0 80 23t29 61q0 36 -25 57t-71 21q-88 0 -218 -68l-92 166q168 111 324 111q154 0 231.5 -73t77.5 -204q0 -103 -84 -168q54 -33 78.5 -82.5t24.5 -132.5q0 -62 -18 -113 t-57 -93t-108 -65.5t-162 -23.5q-88 0 -177 32.5t-154 80.5z" />
<glyph unicode="&#xb4;" horiz-adv-x="894" d="M236 1262l108 391h330l-213 -391h-225z" />
<glyph unicode="&#xb5;" horiz-adv-x="1146" d="M102 -414v1553h328v-680q0 -88 31.5 -126t93.5 -38q80 0 162 67v777h327v-1139h-268l-26 100q-126 -116 -320 -116v-398h-328z" />
<glyph unicode="&#xb6;" horiz-adv-x="1277" d="M70 1004q0 184 123.5 307t302.5 123h727v-275h-140v-1573h-266v1573h-94v-1573h-266v989q-164 5 -275.5 126.5t-111.5 302.5z" />
<glyph unicode="&#xb7;" horiz-adv-x="505" d="M68 444v371h368v-371h-368z" />
<glyph unicode="&#xb8;" horiz-adv-x="909" d="M221 -420l41 141q92 -28 156 -28q37 0 51 13t14 40q0 20 -13 36.5t-46 16.5q-38 0 -78 -12l-61 61l14 152h188l-20 -76q90 8 154.5 -37t64.5 -139q0 -111 -67 -165t-181 -54q-109 0 -217 51z" />
<glyph unicode="&#xb9;" horiz-adv-x="862" d="M88 1298l332 136h192v-705h158v-233h-618v233h200v424l-176 -72z" />
<glyph unicode="&#xba;" horiz-adv-x="821" d="M94 965v178q0 145 80 226t238 81q155 0 235 -81.5t80 -225.5v-178q0 -141 -80 -221t-235 -80q-158 0 -238 79.5t-80 221.5zM315 975q0 -64 21.5 -92.5t75.5 -28.5t75 28.5t21 92.5v162q0 66 -21 94.5t-75 28.5t-75.5 -28.5t-21.5 -94.5v-162z" />
<glyph unicode="&#xbb;" horiz-adv-x="1398" d="M92 133v236l268 243l-268 244v236l621 -400v-160zM686 133v236l268 243l-268 244v236l621 -400v-160z" />
<glyph unicode="&#xbc;" horiz-adv-x="2160" d="M98 1298l332 136h193v-705h157v-233h-618v233h200v424l-176 -72zM692 -51l518 1536h310l-519 -1536h-309zM1294 178v187l260 573h258l-247 -541h139v174h235v-174h109v-219h-109v-178h-235v178h-410z" />
<glyph unicode="&#xbd;" horiz-adv-x="2172" d="M98 1298l332 136h193v-705h157v-233h-618v233h200v424l-176 -72zM692 -51l518 1536h310l-519 -1536h-309zM1382 838q172 110 332 110q153 0 245.5 -73t92.5 -199q0 -64 -31.5 -122t-80 -101.5t-98.5 -80t-94.5 -73t-59.5 -66.5h366v-233h-657v141q0 52 21.5 101t56 88 t76 75.5t83.5 68.5t76.5 61.5t56 59.5t21.5 58q0 29 -23.5 44.5t-64.5 15.5q-94 0 -227 -68z" />
<glyph unicode="&#xbe;" horiz-adv-x="2138" d="M104 602l91 170q140 -70 239 -70q67 0 95 29t28 70q0 38 -27.5 63t-80.5 25h-199v184h176q51 0 80 23t29 61q0 36 -25.5 57t-71.5 21q-87 0 -217 -68l-92 166q168 111 324 111q154 0 231.5 -73t77.5 -204q0 -103 -84 -168q54 -32 78 -82t24 -133q0 -62 -18 -113 t-56.5 -93t-107.5 -65.5t-162 -23.5q-88 0 -177.5 32.5t-154.5 80.5zM672 -51l518 1536h309l-518 -1536h-309zM1274 178v187l260 573h258l-248 -541h139v174h236v-174h109v-219h-109v-178h-236v178h-409z" />
<glyph unicode="&#xbf;" horiz-adv-x="1079" d="M72 53q0 64 21.5 116.5t56.5 88t76.5 65t83.5 52t77 44t56.5 47t21.5 54.5v111h319v-154q0 -54 -21 -99t-55 -76t-75 -57.5t-81.5 -49t-74.5 -44t-55 -48.5t-21 -58q0 -51 46.5 -77.5t125.5 -26.5q139 0 334 102l117 -225q-223 -158 -465 -158q-241 0 -364 102t-123 291z M438 739v371h369v-371h-369z" />
<glyph unicode="&#xc0;" horiz-adv-x="1269" d="M18 0l455 1434h324l454 -1434h-356l-82 281h-356l-82 -281h-357zM315 1960h330l109 -391h-226zM524 573h221l-106 416h-8z" />
<glyph unicode="&#xc1;" horiz-adv-x="1269" d="M18 0l455 1434h324l454 -1434h-356l-82 281h-356l-82 -281h-357zM496 1569l108 391h330l-213 -391h-225zM524 573h221l-106 416h-8z" />
<glyph unicode="&#xc2;" horiz-adv-x="1269" d="M18 0l455 1434h324l454 -1434h-356l-82 281h-356l-82 -281h-357zM279 1569l247 391h219l248 -391h-209l-147 164l-148 -164h-210zM524 573h221l-106 416h-8z" />
<glyph unicode="&#xc3;" horiz-adv-x="1269" d="M18 0l455 1434h324l454 -1434h-356l-82 281h-356l-82 -281h-357zM250 1628q86 252 246 252q48 0 98.5 -24.5t95 -49t76.5 -24.5q45 0 80 57l20 35l158 -72q-53 -141 -109 -196.5t-137 -55.5q-48 0 -98 25t-94.5 49.5t-77.5 24.5q-55 0 -100 -95zM524 573h221l-106 416h-8 z" />
<glyph unicode="&#xc4;" horiz-adv-x="1269" d="M18 0l455 1434h324l454 -1434h-356l-82 281h-356l-82 -281h-357zM299 1575v280h274v-280h-274zM524 573h221l-106 416h-8zM705 1575v280h274v-280h-274z" />
<glyph unicode="&#xc5;" horiz-adv-x="1269" d="M18 0l455 1434h324l454 -1434h-356l-82 281h-356l-82 -281h-357zM383 1761q0 109 71.5 176.5t182.5 67.5t182.5 -67.5t71.5 -176.5q0 -108 -71.5 -174.5t-182.5 -66.5t-182.5 66.5t-71.5 174.5zM524 573h221l-106 416h-8zM553 1761q0 -36 22.5 -59t61.5 -23t61.5 23 t22.5 59t-22.5 60t-61.5 24q-40 0 -62 -23.5t-22 -60.5z" />
<glyph unicode="&#xc6;" horiz-adv-x="1708" d="M16 0l455 1434h1126v-291h-708l78 -266h583v-291h-491l94 -295h444v-291h-702l-82 281h-356l-82 -281h-359zM524 573h221l-106 416h-8z" />
<glyph unicode="&#xc7;" horiz-adv-x="1165" d="M84 510v414q0 244 138.5 385t406.5 141q102 0 184 -23.5t141 -68.5t100.5 -99t75.5 -126l-270 -134q-32 71 -83 109.5t-134 38.5q-110 0 -162.5 -67t-52.5 -175v-377q0 -108 53 -174.5t164 -66.5q158 0 223 149l269 -137q-30 -69 -66.5 -120.5t-90.5 -95t-131 -68.5 t-175 -29l-17 -62q91 8 155.5 -37t64.5 -139q0 -111 -67 -165t-181 -54q-109 0 -217 51l41 141q92 -28 155 -28q38 0 52 13t14 40q0 20 -13.5 36.5t-46.5 16.5q-37 0 -77 -12l-62 61l14 148q-199 36 -302 171t-103 343z" />
<glyph unicode="&#xc8;" horiz-adv-x="1120" d="M131 0v1434h879v-291h-539v-266h492v-291h-492v-295h539v-291h-879zM291 1960h330l108 -391h-225z" />
<glyph unicode="&#xc9;" horiz-adv-x="1120" d="M131 0v1434h879v-291h-539v-266h492v-291h-492v-295h539v-291h-879zM430 1569l109 391h329l-213 -391h-225z" />
<glyph unicode="&#xca;" horiz-adv-x="1120" d="M131 0v1434h879v-291h-539v-266h492v-291h-492v-295h539v-291h-879zM215 1569l248 391h219l248 -391h-209l-148 164l-147 -164h-211z" />
<glyph unicode="&#xcb;" horiz-adv-x="1120" d="M131 0v1434h879v-291h-539v-266h492v-291h-492v-295h539v-291h-879zM240 1575v280h274v-280h-274zM645 1575v280h275v-280h-275z" />
<glyph unicode="&#xcc;" horiz-adv-x="602" d="M20 1960h330l109 -391h-226zM131 0v1434h340v-1434h-340z" />
<glyph unicode="&#xcd;" horiz-adv-x="602" d="M131 0v1434h340v-1434h-340zM143 1569l109 391h330l-213 -391h-226z" />
<glyph unicode="&#xce;" horiz-adv-x="602" d="M-51 1569l248 391h219l248 -391h-209l-148 164l-147 -164h-211zM131 0v1434h340v-1434h-340z" />
<glyph unicode="&#xcf;" horiz-adv-x="602" d="M-35 1575v280h275v-280h-275zM131 0v1434h340v-1434h-340zM371 1575v280h274v-280h-274z" />
<glyph unicode="&#xd0;" horiz-adv-x="1343" d="M43 590v278h111v566h508q288 0 443 -175t155 -538q0 -338 -152 -529.5t-403 -191.5h-551v590h-111zM492 291h143q278 0 278 436q0 83 -12.5 151.5t-41.5 131t-86 98t-138 35.5h-143v-275h235v-278h-235v-299z" />
<glyph unicode="&#xd1;" horiz-adv-x="1363" d="M131 0v1434h305l482 -762h8v762h327v-1434h-299l-487 786h-8v-786h-328zM315 1628q86 252 246 252q48 0 98.5 -24.5t95 -49t76.5 -24.5q45 0 80 57l21 35l158 -72q-53 -141 -109 -196.5t-137 -55.5q-48 0 -98.5 25t-95 49.5t-77.5 24.5q-55 0 -100 -95z" />
<glyph unicode="&#xd2;" d="M84 508v416q0 244 138.5 385t406.5 141q266 0 403 -141t137 -385v-416q0 -245 -136.5 -384.5t-403.5 -139.5q-269 0 -407 139.5t-138 384.5zM334 1960h330l108 -391h-225zM426 530q0 -125 46.5 -185t156.5 -60q109 0 153.5 59.5t44.5 185.5v375q0 124 -44.5 183 t-153.5 59t-156 -59.5t-47 -182.5v-375z" />
<glyph unicode="&#xd3;" d="M84 508v416q0 244 138.5 385t406.5 141q266 0 403 -141t137 -385v-416q0 -245 -136.5 -384.5t-403.5 -139.5q-269 0 -407 139.5t-138 384.5zM426 530q0 -125 46.5 -185t156.5 -60q109 0 153.5 59.5t44.5 185.5v375q0 124 -44.5 183t-153.5 59t-156 -59.5t-47 -182.5v-375 zM467 1569l108 391h330l-213 -391h-225z" />
<glyph unicode="&#xd4;" d="M84 508v416q0 244 138.5 385t406.5 141q266 0 403 -141t137 -385v-416q0 -245 -136.5 -384.5t-403.5 -139.5q-269 0 -407 139.5t-138 384.5zM274 1569l248 391h219l248 -391h-209l-147 164l-148 -164h-211zM426 530q0 -125 46.5 -185t156.5 -60q109 0 153.5 59.5 t44.5 185.5v375q0 124 -44.5 183t-153.5 59t-156 -59.5t-47 -182.5v-375z" />
<glyph unicode="&#xd5;" d="M84 508v416q0 244 138.5 385t406.5 141q266 0 403 -141t137 -385v-416q0 -245 -136.5 -384.5t-403.5 -139.5q-269 0 -407 139.5t-138 384.5zM242 1628q86 252 245 252q48 0 99 -24.5t95.5 -49t76.5 -24.5q45 0 80 57l20 35l158 -72q-53 -141 -109 -196.5t-137 -55.5 q-48 0 -98 25t-94.5 49.5t-77.5 24.5q-56 0 -101 -95zM426 530q0 -125 46.5 -185t156.5 -60q109 0 153.5 59.5t44.5 185.5v375q0 124 -44.5 183t-153.5 59t-156 -59.5t-47 -182.5v-375z" />
<glyph unicode="&#xd6;" d="M84 508v416q0 244 138.5 385t406.5 141q266 0 403 -141t137 -385v-416q0 -245 -136.5 -384.5t-403.5 -139.5q-269 0 -407 139.5t-138 384.5zM291 1575v280h274v-280h-274zM426 530q0 -125 46.5 -185t156.5 -60q109 0 153.5 59.5t44.5 185.5v375q0 124 -44.5 183 t-153.5 59t-156 -59.5t-47 -182.5v-375zM696 1575v280h275v-280h-275z" />
<glyph unicode="&#xd7;" horiz-adv-x="1056" d="M76 356l254 256l-254 256l198 195l252 -254l254 254l199 -195l-256 -256l256 -256l-199 -194l-254 254l-252 -254z" />
<glyph unicode="&#xd8;" d="M84 508v416q0 244 138.5 385t406.5 141q91 0 168 -18l51 129h229l-86 -218q178 -138 178 -419v-416q0 -245 -136.5 -384.5t-403.5 -139.5q-97 0 -174 18l-52 -129h-229l86 215q-176 136 -176 420zM426 504l254 639q-32 4 -51 4q-109 0 -156 -59.5t-47 -182.5v-401z M569 291q27 -6 60 -6q109 0 153.5 59.5t44.5 185.5v404z" />
<glyph unicode="&#xd9;" horiz-adv-x="1310" d="M121 485v949h340v-930q0 -110 42.5 -166.5t151.5 -56.5t152 56.5t43 166.5v930h340v-949q0 -240 -136 -370.5t-399 -130.5t-398.5 130t-135.5 371zM354 1960h330l109 -391h-226z" />
<glyph unicode="&#xda;" horiz-adv-x="1310" d="M121 485v949h340v-930q0 -110 42.5 -166.5t151.5 -56.5t152 56.5t43 166.5v930h340v-949q0 -240 -136 -370.5t-399 -130.5t-398.5 130t-135.5 371zM514 1569l109 391h329l-213 -391h-225z" />
<glyph unicode="&#xdb;" horiz-adv-x="1310" d="M121 485v949h340v-930q0 -110 42.5 -166.5t151.5 -56.5t152 56.5t43 166.5v930h340v-949q0 -240 -136 -370.5t-399 -130.5t-398.5 130t-135.5 371zM299 1569l248 391h219l248 -391h-209l-148 164l-147 -164h-211z" />
<glyph unicode="&#xdc;" horiz-adv-x="1310" d="M121 485v949h340v-930q0 -110 42.5 -166.5t151.5 -56.5t152 56.5t43 166.5v930h340v-949q0 -240 -136 -370.5t-399 -130.5t-398.5 130t-135.5 371zM324 1575v280h274v-280h-274zM729 1575v280h275v-280h-275z" />
<glyph unicode="&#xdd;" horiz-adv-x="1306" d="M39 1434h379l229 -551h12l232 551h377l-443 -875v-559h-344v559zM543 1556l108 392h330l-213 -392h-225z" />
<glyph unicode="&#xde;" horiz-adv-x="1218" d="M131 0v1434h340v-199h115q138 0 235 -21.5t172.5 -75t112.5 -150t37 -240.5q0 -252 -137.5 -366t-401.5 -114h-133v-268h-340zM471 561h109q121 0 170 44.5t49 148.5q0 107 -48 148.5t-171 41.5h-109v-383z" />
<glyph unicode="&#xdf;" horiz-adv-x="1275" d="M113 0v1075q0 124 40 218.5t112 152.5t167 86.5t211 28.5q239 0 378.5 -126t139.5 -323q0 -203 -151 -293v-8q87 -42 140.5 -124.5t53.5 -194.5q0 -254 -132 -373t-417 -119h-137v283h137q71 0 117.5 16t68.5 46.5t30 62t8 75.5q0 36 -9 67t-31 62t-67 49.5t-108 18.5 h-146v262h100q121 0 172.5 44t51.5 126q0 72 -49 120t-152 48q-109 0 -160 -54t-51 -136v-1090h-317z" />
<glyph unicode="&#xe0;" horiz-adv-x="1091" d="M68 313q0 108 48.5 189t133.5 127.5t187.5 69t221.5 22.5v49q0 113 -149 113q-140 0 -320 -84l-86 227q212 129 435 129q225 0 337.5 -106.5t112.5 -305.5v-743h-270l-23 113q-108 -129 -284 -129q-149 0 -246.5 89.5t-97.5 239.5zM264 1653h330l108 -391h-225zM389 344 q0 -45 29.5 -72.5t81.5 -27.5q56 0 96.5 26t62.5 64v166q-117 0 -193.5 -40t-76.5 -116z" />
<glyph unicode="&#xe1;" horiz-adv-x="1091" d="M68 313q0 108 48.5 189t133.5 127.5t187.5 69t221.5 22.5v49q0 113 -149 113q-140 0 -320 -84l-86 227q212 129 435 129q225 0 337.5 -106.5t112.5 -305.5v-743h-270l-23 113q-108 -129 -284 -129q-149 0 -246.5 89.5t-97.5 239.5zM389 344q0 -45 29.5 -72.5t81.5 -27.5 q56 0 96.5 26t62.5 64v166q-117 0 -193.5 -40t-76.5 -116zM397 1262l109 391h330l-213 -391h-226z" />
<glyph unicode="&#xe2;" horiz-adv-x="1091" d="M68 313q0 108 48.5 189t133.5 127.5t187.5 69t221.5 22.5v49q0 113 -149 113q-140 0 -320 -84l-86 227q212 129 435 129q225 0 337.5 -106.5t112.5 -305.5v-743h-270l-23 113q-108 -129 -284 -129q-149 0 -246.5 89.5t-97.5 239.5zM195 1262l247 391h220l247 -391h-209 l-147 163l-147 -163h-211zM389 344q0 -45 29.5 -72.5t81.5 -27.5q56 0 96.5 26t62.5 64v166q-117 0 -193.5 -40t-76.5 -116z" />
<glyph unicode="&#xe3;" horiz-adv-x="1091" d="M68 313q0 108 48.5 189t133.5 127.5t187.5 69t221.5 22.5v49q0 113 -149 113q-140 0 -320 -84l-86 227q212 129 435 129q225 0 337.5 -106.5t112.5 -305.5v-743h-270l-23 113q-108 -129 -284 -129q-149 0 -246.5 89.5t-97.5 239.5zM158 1321q86 252 245 252 q48 0 99 -24.5t95.5 -49t76.5 -24.5q45 0 80 57l20 35l158 -72q-53 -141 -109 -196.5t-137 -55.5q-48 0 -98 24.5t-94.5 49t-77.5 24.5q-57 0 -101 -94zM389 344q0 -45 29.5 -72.5t81.5 -27.5q56 0 96.5 26t62.5 64v166q-117 0 -193.5 -40t-76.5 -116z" />
<glyph unicode="&#xe4;" horiz-adv-x="1091" d="M68 313q0 108 48.5 189t133.5 127.5t187.5 69t221.5 22.5v49q0 113 -149 113q-140 0 -320 -84l-86 227q212 129 435 129q225 0 337.5 -106.5t112.5 -305.5v-743h-270l-23 113q-108 -129 -284 -129q-149 0 -246.5 89.5t-97.5 239.5zM215 1268v280h274v-280h-274zM389 344 q0 -45 29.5 -72.5t81.5 -27.5q56 0 96.5 26t62.5 64v166q-117 0 -193.5 -40t-76.5 -116zM621 1268v280h274v-280h-274z" />
<glyph unicode="&#xe5;" horiz-adv-x="1091" d="M68 313q0 108 48.5 189t133.5 127.5t187.5 69t221.5 22.5v49q0 113 -149 113q-140 0 -320 -84l-86 227q212 129 435 129q225 0 337.5 -106.5t112.5 -305.5v-743h-270l-23 113q-108 -129 -284 -129q-149 0 -246.5 89.5t-97.5 239.5zM299 1468q0 109 71.5 176.5t182.5 67.5 t182.5 -67.5t71.5 -176.5q0 -108 -71.5 -174.5t-182.5 -66.5t-182.5 66.5t-71.5 174.5zM389 344q0 -45 29.5 -72.5t81.5 -27.5q56 0 96.5 26t62.5 64v166q-117 0 -193.5 -40t-76.5 -116zM469 1468q0 -36 22.5 -59t61.5 -23t61.5 23t22.5 59t-22.5 60t-61.5 24 q-40 0 -62 -23.5t-22 -60.5z" />
<glyph unicode="&#xe6;" horiz-adv-x="1632" d="M68 313q0 108 48.5 189t133.5 127.5t187.5 69t221.5 22.5v49q0 113 -149 113q-140 0 -320 -84l-86 227q212 129 435 129q182 0 292 -72q115 72 287 72q453 0 453 -448v-258h-582v-80q0 -48 39 -81.5t117 -33.5q82 0 148.5 13.5t172.5 56.5l80 -232q-159 -108 -420 -108 q-275 0 -391 157q-35 -64 -116.5 -110.5t-206.5 -46.5q-149 0 -246.5 89.5t-97.5 239.5zM389 344q0 -45 29.5 -72.5t81.5 -27.5q56 0 96.5 26t62.5 64v166q-117 0 -193.5 -40t-76.5 -116zM989 690h273v37q0 164 -136 164q-137 0 -137 -164v-37z" />
<glyph unicode="&#xe7;" horiz-adv-x="995" d="M72 440v258q0 214 120 335.5t351 121.5q294 0 424 -248l-230 -164q-41 68 -84.5 97.5t-101.5 29.5q-72 0 -112 -45.5t-40 -122.5v-266q0 -77 40 -122.5t112 -45.5q55 0 100 27.5t92 99.5l234 -159q-72 -116 -163.5 -179.5t-227.5 -70.5l-17 -62q90 8 154.5 -37t64.5 -139 q0 -111 -66.5 -165t-180.5 -54q-109 0 -217 51l41 141q92 -28 155 -28q38 0 52 13t14 40q0 20 -13.5 36.5t-46.5 16.5q-37 0 -77 -12l-62 61l14 152q-162 35 -245.5 149.5t-83.5 290.5z" />
<glyph unicode="&#xe8;" horiz-adv-x="1044" d="M72 406v301q0 214 114.5 331t343.5 117q453 0 453 -448v-258h-582v-80q0 -51 37 -83t119 -32t149 13.5t173 56.5l79 -232q-159 -108 -419 -108q-230 0 -348.5 111.5t-118.5 310.5zM240 1653h329l109 -391h-225zM401 690h273v37q0 164 -135 164q-138 0 -138 -164v-37z" />
<glyph unicode="&#xe9;" horiz-adv-x="1044" d="M72 406v301q0 214 114.5 331t343.5 117q453 0 453 -448v-258h-582v-80q0 -51 37 -83t119 -32t149 13.5t173 56.5l79 -232q-159 -108 -419 -108q-230 0 -348.5 111.5t-118.5 310.5zM389 1262l109 391h329l-213 -391h-225zM401 690h273v37q0 164 -135 164q-138 0 -138 -164 v-37z" />
<glyph unicode="&#xea;" horiz-adv-x="1044" d="M72 406v301q0 214 114.5 331t343.5 117q453 0 453 -448v-258h-582v-80q0 -51 37 -83t119 -32t149 13.5t173 56.5l79 -232q-159 -108 -419 -108q-230 0 -348.5 111.5t-118.5 310.5zM176 1262l248 391h219l248 -391h-209l-147 163l-148 -163h-211zM401 690h273v37 q0 164 -135 164q-138 0 -138 -164v-37z" />
<glyph unicode="&#xeb;" horiz-adv-x="1044" d="M72 406v301q0 214 114.5 331t343.5 117q453 0 453 -448v-258h-582v-80q0 -51 37 -83t119 -32t149 13.5t173 56.5l79 -232q-159 -108 -419 -108q-230 0 -348.5 111.5t-118.5 310.5zM195 1268v280h274v-280h-274zM401 690h273v37q0 164 -135 164q-138 0 -138 -164v-37z M600 1268v280h274v-280h-274z" />
<glyph unicode="&#xec;" horiz-adv-x="552" d="M-10 1653h329l109 -391h-225zM113 0v1139h327v-1139h-327z" />
<glyph unicode="&#xed;" horiz-adv-x="552" d="M113 0v1139h327v-1139h-327zM131 1262l109 391h329l-213 -391h-225z" />
<glyph unicode="&#xee;" horiz-adv-x="552" d="M-80 1262l248 391h219l248 -391h-209l-147 163l-148 -163h-211zM113 0v1139h327v-1139h-327z" />
<glyph unicode="&#xef;" horiz-adv-x="552" d="M-57 1268v280h274v-280h-274zM113 0v1139h327v-1139h-327zM348 1268v280h275v-280h-275z" />
<glyph unicode="&#xf0;" horiz-adv-x="1118" d="M74 432v78q0 216 119 336.5t352 120.5q84 0 176 -29q0 117 -27 164l-96 -86l-133 143l67 60q-24 4 -59 4q-90 0 -188 -41l-62 209q60 30 140 48.5t145 18.5q126 0 221 -45l131 129l144 -145l-107 -107q63 -78 91 -174.5t28 -232.5v-451q0 -212 -119 -330t-352 -118 t-352 118t-119 330zM401 446q0 -94 32 -136t112 -42q81 0 112 42t31 136v62q0 96 -30.5 135t-112.5 39q-81 0 -112.5 -39.5t-31.5 -134.5v-62z" />
<glyph unicode="&#xf1;" horiz-adv-x="1157" d="M113 0v1139h268l27 -101q127 117 309 117q72 0 129.5 -20.5t96 -56.5t64 -87.5t37 -111.5t11.5 -131v-748h-328v680q0 88 -31.5 126t-93.5 38q-78 0 -162 -68v-776h-327zM219 1321q86 252 246 252q48 0 98.5 -24.5t95 -49t76.5 -24.5q45 0 80 57l21 35l157 -72 q-53 -141 -109 -196.5t-136 -55.5q-48 0 -98.5 24.5t-95 49t-77.5 24.5q-56 0 -100 -94z" />
<glyph unicode="&#xf2;" horiz-adv-x="1085" d="M72 432v266q0 216 119 336.5t352 120.5t352 -120.5t119 -336.5v-266q0 -212 -119 -330t-352 -118t-352 118t-119 330zM252 1653h330l108 -391h-225zM399 446q0 -94 32 -136t112 -42q81 0 112 42t31 136v244q0 97 -31 138.5t-112 41.5q-80 0 -112 -42t-32 -138v-244z" />
<glyph unicode="&#xf3;" horiz-adv-x="1085" d="M72 432v266q0 216 119 336.5t352 120.5t352 -120.5t119 -336.5v-266q0 -212 -119 -330t-352 -118t-352 118t-119 330zM383 1262l109 391h329l-213 -391h-225zM399 446q0 -94 32 -136t112 -42q81 0 112 42t31 136v244q0 97 -31 138.5t-112 41.5q-80 0 -112 -42t-32 -138 v-244z" />
<glyph unicode="&#xf4;" horiz-adv-x="1085" d="M72 432v266q0 216 119 336.5t352 120.5t352 -120.5t119 -336.5v-266q0 -212 -119 -330t-352 -118t-352 118t-119 330zM188 1262l248 391h219l248 -391h-209l-147 163l-148 -163h-211zM399 446q0 -94 32 -136t112 -42q81 0 112 42t31 136v244q0 97 -31 138.5t-112 41.5 q-80 0 -112 -42t-32 -138v-244z" />
<glyph unicode="&#xf5;" horiz-adv-x="1085" d="M72 432v266q0 216 119 336.5t352 120.5t352 -120.5t119 -336.5v-266q0 -212 -119 -330t-352 -118t-352 118t-119 330zM162 1321q86 252 246 252q48 0 98.5 -24.5t95 -49t76.5 -24.5q45 0 80 57l20 35l158 -72q-53 -141 -109 -196.5t-137 -55.5q-48 0 -98 24.5t-94.5 49 t-77.5 24.5q-57 0 -101 -94zM399 446q0 -94 32 -136t112 -42q81 0 112 42t31 136v244q0 97 -31 138.5t-112 41.5q-80 0 -112 -42t-32 -138v-244z" />
<glyph unicode="&#xf6;" horiz-adv-x="1085" d="M72 432v266q0 216 119 336.5t352 120.5t352 -120.5t119 -336.5v-266q0 -212 -119 -330t-352 -118t-352 118t-119 330zM209 1268v280h274v-280h-274zM399 446q0 -94 32 -136t112 -42q81 0 112 42t31 136v244q0 97 -31 138.5t-112 41.5q-80 0 -112 -42t-32 -138v-244z M614 1268v280h275v-280h-275z" />
<glyph unicode="&#xf7;" horiz-adv-x="1046" d="M33 469v266h981v-266h-981zM342 225q0 79 42 127.5t138 48.5q97 0 140 -49t43 -127q0 -174 -183 -174q-180 0 -180 174zM342 977q0 79 42 127.5t138 48.5q97 0 140 -49t43 -127q0 -174 -183 -174q-180 0 -180 174z" />
<glyph unicode="&#xf8;" horiz-adv-x="1085" d="M72 432v266q0 216 119 336.5t352 120.5q71 0 133 -12l35 90h180l-60 -150q183 -116 183 -385v-266q0 -212 -119 -330t-352 -118q-75 0 -137 12l-31 -80h-180l53 139q-176 109 -176 377zM393 422l178 455q-8 2 -28 2q-81 0 -115.5 -43t-34.5 -138v-276zM510 262 q8 -2 33 -2q81 0 115 42.5t34 135.5v293z" />
<glyph unicode="&#xf9;" horiz-adv-x="1146" d="M102 391v748h328v-680q0 -88 31.5 -126t93.5 -38q80 0 162 67v777h327v-1139h-268l-26 100q-126 -116 -310 -116q-72 0 -129.5 20.5t-96 56.5t-64 87.5t-37 111.5t-11.5 131zM293 1653h330l108 -391h-225z" />
<glyph unicode="&#xfa;" horiz-adv-x="1146" d="M102 391v748h328v-680q0 -88 31.5 -126t93.5 -38q80 0 162 67v777h327v-1139h-268l-26 100q-126 -116 -310 -116q-72 0 -129.5 20.5t-96 56.5t-64 87.5t-37 111.5t-11.5 131zM444 1262l109 391h330l-213 -391h-226z" />
<glyph unicode="&#xfb;" horiz-adv-x="1146" d="M102 391v748h328v-680q0 -88 31.5 -126t93.5 -38q80 0 162 67v777h327v-1139h-268l-26 100q-126 -116 -310 -116q-72 0 -129.5 20.5t-96 56.5t-64 87.5t-37 111.5t-11.5 131zM221 1262l248 391h219l248 -391h-209l-147 163l-148 -163h-211z" />
<glyph unicode="&#xfc;" horiz-adv-x="1146" d="M102 391v748h328v-680q0 -88 31.5 -126t93.5 -38q80 0 162 67v777h327v-1139h-268l-26 100q-126 -116 -310 -116q-72 0 -129.5 20.5t-96 56.5t-64 87.5t-37 111.5t-11.5 131zM242 1268v280h274v-280h-274zM647 1268v280h275v-280h-275z" />
<glyph unicode="&#xfd;" horiz-adv-x="1073" d="M25 1139h344l141 -733h8l184 733h349l-488 -1553h-313l131 414h-45zM412 1262l108 391h330l-213 -391h-225z" />
<glyph unicode="&#xfe;" horiz-adv-x="1124" d="M113 -414v1950h327v-467q46 40 109.5 63t126.5 23q187 0 282 -117.5t95 -332.5v-273q0 -214 -92 -331t-271 -117q-70 0 -138.5 28.5t-111.5 71.5v-498h-327zM440 367q64 -74 146 -74q72 0 105.5 44.5t33.5 135.5v193q0 93 -33.5 136.5t-105.5 43.5q-80 0 -146 -76v-403z " />
<glyph unicode="&#xff;" horiz-adv-x="1073" d="M25 1139h344l141 -733h8l184 733h349l-488 -1553h-313l131 414h-45zM197 1268v280h274v-280h-274zM602 1268v280h275v-280h-275z" />
<glyph unicode="&#x100;" horiz-adv-x="1269" d="M18 0l455 1434h324l454 -1434h-356l-82 281h-356l-82 -281h-357zM334 1593v238h608v-238h-608zM524 573h221l-106 416h-8z" />
<glyph unicode="&#x101;" horiz-adv-x="1091" d="M68 313q0 108 48.5 189t133.5 127.5t187.5 69t221.5 22.5v49q0 113 -149 113q-140 0 -320 -84l-86 227q212 129 435 129q225 0 337.5 -106.5t112.5 -305.5v-743h-270l-23 113q-108 -129 -284 -129q-149 0 -246.5 89.5t-97.5 239.5zM250 1298v238h608v-238h-608zM389 344 q0 -45 29.5 -72.5t81.5 -27.5q56 0 96.5 26t62.5 64v166q-117 0 -193.5 -40t-76.5 -116z" />
<glyph unicode="&#x102;" horiz-adv-x="1269" d="M18 0l455 1434h324l454 -1434h-356l-82 281h-356l-82 -281h-357zM291 1858v32h270v-37q0 -98 76 -98t76 98v37h270v-32q0 -86 -27 -149t-75.5 -99.5t-109 -54t-134.5 -17.5t-134.5 17.5t-109 54t-75.5 99.5t-27 149zM524 573h221l-106 416h-8z" />
<glyph unicode="&#x103;" horiz-adv-x="1091" d="M68 313q0 108 48.5 189t133.5 127.5t187.5 69t221.5 22.5v49q0 113 -149 113q-140 0 -320 -84l-86 227q212 129 435 129q225 0 337.5 -106.5t112.5 -305.5v-743h-270l-23 113q-108 -129 -284 -129q-149 0 -246.5 89.5t-97.5 239.5zM209 1563v32h270v-36q0 -99 76 -99 t76 99v36h270v-32q0 -86 -27 -149t-75.5 -99.5t-109 -54t-134.5 -17.5t-134.5 17.5t-109 54t-75.5 99.5t-27 149zM389 344q0 -45 29.5 -72.5t81.5 -27.5q56 0 96.5 26t62.5 64v166q-117 0 -193.5 -40t-76.5 -116z" />
<glyph unicode="&#x104;" horiz-adv-x="1269" d="M18 0l455 1434h324l454 -1434q-96 -29 -152.5 -75t-56.5 -105q0 -35 22.5 -54.5t59.5 -19.5q18 0 38 4t31 8l11 4l47 -174q-82 -59 -221 -59q-108 0 -178 50.5t-70 150.5q0 89 68.5 161t177.5 109h-133l-82 281h-356l-82 -281h-357zM524 573h221l-106 416h-8z" />
<glyph unicode="&#x105;" horiz-adv-x="1091" d="M68 313q0 108 48.5 189t133.5 127.5t187.5 69t221.5 22.5v49q0 113 -149 113q-140 0 -320 -84l-86 227q212 129 435 129q225 0 337.5 -106.5t112.5 -305.5v-743q-96 -29 -152.5 -75t-56.5 -105q0 -35 22.5 -54.5t59.5 -19.5q18 0 38 4t31 8l11 4l47 -174 q-82 -59 -221 -59q-108 0 -178 50.5t-70 150.5q0 89 68.5 161t177.5 109h-47l-23 113q-108 -129 -284 -129q-149 0 -246.5 89.5t-97.5 239.5zM389 344q0 -45 29.5 -72.5t81.5 -27.5q56 0 96.5 26t62.5 64v166q-117 0 -193.5 -40t-76.5 -116z" />
<glyph unicode="&#x106;" horiz-adv-x="1165" d="M84 510v414q0 244 138.5 385t406.5 141q102 0 184 -23.5t141 -68.5t100.5 -99t75.5 -126l-270 -134q-32 71 -83 109.5t-134 38.5q-110 0 -162.5 -67t-52.5 -175v-377q0 -108 53 -174.5t164 -66.5q158 0 223 149l269 -137q-25 -57 -53.5 -102t-71.5 -86t-95 -68t-124 -43 t-160 -16q-268 0 -408.5 141.5t-140.5 384.5zM473 1569l109 391h329l-213 -391h-225z" />
<glyph unicode="&#x107;" horiz-adv-x="995" d="M72 440v258q0 214 120 335.5t351 121.5q294 0 424 -248l-230 -164q-41 68 -84.5 97.5t-101.5 29.5q-72 0 -112 -45.5t-40 -122.5v-266q0 -77 40 -122.5t112 -45.5q55 0 100 27.5t92 99.5l234 -159q-77 -123 -176 -187.5t-252 -64.5q-232 0 -354.5 121.5t-122.5 334.5z M389 1262l109 391h329l-213 -391h-225z" />
<glyph unicode="&#x108;" horiz-adv-x="1165" d="M84 510v414q0 244 138.5 385t406.5 141q102 0 184 -23.5t141 -68.5t100.5 -99t75.5 -126l-270 -134q-32 71 -83 109.5t-134 38.5q-110 0 -162.5 -67t-52.5 -175v-377q0 -108 53 -174.5t164 -66.5q158 0 223 149l269 -137q-25 -57 -53.5 -102t-71.5 -86t-95 -68t-124 -43 t-160 -16q-268 0 -408.5 141.5t-140.5 384.5zM281 1569l247 391h220l247 -391h-209l-147 164l-147 -164h-211z" />
<glyph unicode="&#x109;" horiz-adv-x="995" d="M72 440v258q0 214 120 335.5t351 121.5q294 0 424 -248l-230 -164q-41 68 -84.5 97.5t-101.5 29.5q-72 0 -112 -45.5t-40 -122.5v-266q0 -77 40 -122.5t112 -45.5q55 0 100 27.5t92 99.5l234 -159q-77 -123 -176 -187.5t-252 -64.5q-232 0 -354.5 121.5t-122.5 334.5z M188 1262l248 391h219l248 -391h-209l-147 163l-148 -163h-211z" />
<glyph unicode="&#x10a;" horiz-adv-x="1165" d="M84 510v414q0 244 138.5 385t406.5 141q102 0 184 -23.5t141 -68.5t100.5 -99t75.5 -126l-270 -134q-32 71 -83 109.5t-134 38.5q-110 0 -162.5 -67t-52.5 -175v-377q0 -108 53 -174.5t164 -66.5q158 0 223 149l269 -137q-25 -57 -53.5 -102t-71.5 -86t-95 -68t-124 -43 t-160 -16q-268 0 -408.5 141.5t-140.5 384.5zM475 1550v322h336v-322h-336z" />
<glyph unicode="&#x10b;" horiz-adv-x="995" d="M72 440v258q0 214 120 335.5t351 121.5q294 0 424 -248l-230 -164q-41 68 -84.5 97.5t-101.5 29.5q-72 0 -112 -45.5t-40 -122.5v-266q0 -77 40 -122.5t112 -45.5q55 0 100 27.5t92 99.5l234 -159q-77 -123 -176 -187.5t-252 -64.5q-232 0 -354.5 121.5t-122.5 334.5z M385 1255v322h336v-322h-336z" />
<glyph unicode="&#x10c;" horiz-adv-x="1165" d="M84 510v414q0 244 138.5 385t406.5 141q102 0 184 -23.5t141 -68.5t100.5 -99t75.5 -126l-270 -134q-32 71 -83 109.5t-134 38.5q-110 0 -162.5 -67t-52.5 -175v-377q0 -108 53 -174.5t164 -66.5q158 0 223 149l269 -137q-25 -57 -53.5 -102t-71.5 -86t-95 -68t-124 -43 t-160 -16q-268 0 -408.5 141.5t-140.5 384.5zM281 1960h211l147 -164l147 164h209l-247 -391h-220z" />
<glyph unicode="&#x10d;" horiz-adv-x="995" d="M72 440v258q0 214 120 335.5t351 121.5q294 0 424 -248l-230 -164q-41 68 -84.5 97.5t-101.5 29.5q-72 0 -112 -45.5t-40 -122.5v-266q0 -77 40 -122.5t112 -45.5q55 0 100 27.5t92 99.5l234 -159q-77 -123 -176 -187.5t-252 -64.5q-232 0 -354.5 121.5t-122.5 334.5z M184 1653h211l148 -164l147 164h209l-248 -391h-219z" />
<glyph unicode="&#x10e;" horiz-adv-x="1320" d="M131 0v1434h508q288 0 443 -175t155 -538q0 -338 -152 -529.5t-403 -191.5h-551zM264 1960h211l148 -164l147 164h209l-248 -391h-219zM469 291h143q279 0 279 436q0 83 -12.5 152t-42 131t-86.5 97.5t-138 35.5h-143v-852z" />
<glyph unicode="&#x10f;" horiz-adv-x="1339" d="M72 434v273q0 214 91.5 331t270.5 117q70 0 138.5 -28.5t111.5 -71.5v481h328v-1536h-267l-26 104q-42 -53 -118 -86.5t-152 -33.5q-187 0 -282 117.5t-95 332.5zM399 473q0 -92 34 -136t106 -44q79 0 145 76v403q-64 74 -145 74q-72 0 -106 -44.5t-34 -135.5v-193z M1071 1092l39 444h322l-138 -444h-223z" />
<glyph unicode="&#x110;" horiz-adv-x="1343" d="M43 590v278h111v566h508q288 0 443 -175t155 -538q0 -338 -152 -529.5t-403 -191.5h-551v590h-111zM492 291h143q278 0 278 436q0 83 -12.5 151.5t-41.5 131t-86 98t-138 35.5h-143v-275h235v-278h-235v-299z" />
<glyph unicode="&#x111;" horiz-adv-x="1124" d="M72 434v273q0 214 91.5 331t270.5 117q70 0 138.5 -28.5t111.5 -71.5v157h-215v218h215v106h328v-106h137v-218h-137v-1212h-267l-26 104q-42 -53 -118 -86.5t-152 -33.5q-187 0 -282 117.5t-95 332.5zM399 473q0 -92 34 -136t106 -44q79 0 145 76v403q-64 74 -145 74 q-72 0 -106 -44.5t-34 -135.5v-193z" />
<glyph unicode="&#x112;" horiz-adv-x="1120" d="M131 0v1434h879v-291h-539v-266h492v-291h-492v-295h539v-291h-879zM276 1593v238h609v-238h-609z" />
<glyph unicode="&#x113;" horiz-adv-x="1044" d="M72 406v301q0 214 114.5 331t343.5 117q453 0 453 -448v-258h-582v-80q0 -51 37 -83t119 -32t149 13.5t173 56.5l79 -232q-159 -108 -419 -108q-230 0 -348.5 111.5t-118.5 310.5zM231 1298v238h609v-238h-609zM401 690h273v37q0 164 -135 164q-138 0 -138 -164v-37z" />
<glyph unicode="&#x114;" horiz-adv-x="1120" d="M131 0v1434h879v-291h-539v-266h492v-291h-492v-295h539v-291h-879zM238 1858v32h270v-37q0 -98 76 -98q75 0 75 98v37h271v-32q0 -86 -27 -149t-75.5 -99.5t-109 -54t-134.5 -17.5t-134.5 17.5t-109 54t-75.5 99.5t-27 149z" />
<glyph unicode="&#x115;" horiz-adv-x="1044" d="M72 406v301q0 214 114.5 331t343.5 117q453 0 453 -448v-258h-582v-80q0 -51 37 -83t119 -32t149 13.5t173 56.5l79 -232q-159 -108 -419 -108q-230 0 -348.5 111.5t-118.5 310.5zM190 1563v32h271v-36q0 -99 76 -99q75 0 75 99v36h271v-32q0 -86 -27 -149t-75.5 -99.5 t-109 -54t-134.5 -17.5t-135 17.5t-109.5 54t-75.5 99.5t-27 149zM401 690h273v37q0 164 -135 164q-138 0 -138 -164v-37z" />
<glyph unicode="&#x116;" horiz-adv-x="1120" d="M131 0v1434h879v-291h-539v-266h492v-291h-492v-295h539v-291h-879zM418 1550v322h336v-322h-336z" />
<glyph unicode="&#x117;" horiz-adv-x="1044" d="M72 406v301q0 214 114.5 331t343.5 117q453 0 453 -448v-258h-582v-80q0 -51 37 -83t119 -32t149 13.5t173 56.5l79 -232q-159 -108 -419 -108q-230 0 -348.5 111.5t-118.5 310.5zM375 1255v322h336v-322h-336zM401 690h273v37q0 164 -135 164q-138 0 -138 -164v-37z" />
<glyph unicode="&#x118;" horiz-adv-x="1120" d="M131 0v1434h879v-291h-539v-266h492v-291h-492v-295h539v-291q-96 -29 -152.5 -75t-56.5 -105q0 -35 22.5 -54.5t59.5 -19.5q18 0 38 4t31 8l11 4l47 -174q-82 -59 -222 -59q-108 0 -177.5 50.5t-69.5 150.5q0 89 68.5 161t176.5 109h-655z" />
<glyph unicode="&#x119;" horiz-adv-x="1044" d="M72 406v301q0 214 114.5 331t343.5 117q453 0 453 -448v-258h-582v-80q0 -51 37 -83t119 -32t149 13.5t173 56.5l79 -232q-110 -71 -166.5 -141t-56.5 -131q0 -35 22.5 -54.5t59.5 -19.5q18 0 38 4t31 8l11 4l47 -174q-82 -59 -221 -59q-108 0 -178 50.5t-70 150.5 q0 155 174 260q-55 -6 -110 -6q-230 0 -348.5 111.5t-118.5 310.5zM401 690h273v37q0 164 -135 164q-138 0 -138 -164v-37z" />
<glyph unicode="&#x11a;" horiz-adv-x="1120" d="M131 0v1434h879v-291h-539v-266h492v-291h-492v-295h539v-291h-879zM201 1960h211l147 -164l148 164h208l-247 -391h-219z" />
<glyph unicode="&#x11b;" horiz-adv-x="1044" d="M72 406v301q0 214 114.5 331t343.5 117q453 0 453 -448v-258h-582v-80q0 -51 37 -83t119 -32t149 13.5t173 56.5l79 -232q-159 -108 -419 -108q-230 0 -348.5 111.5t-118.5 310.5zM176 1653h211l148 -164l147 164h209l-248 -391h-219zM401 690h273v37q0 164 -135 164 q-138 0 -138 -164v-37z" />
<glyph unicode="&#x11c;" d="M84 512v412q0 243 140.5 384.5t408.5 141.5q102 0 184 -23.5t141 -68.5t101 -99t76 -126l-265 -134q-33 70 -85 109t-140 39q-105 0 -161 -68t-56 -174v-375q0 -109 51.5 -177t161.5 -68q141 0 205 84v190h-248v272h557v-589q-44 -57 -92 -100.5t-111.5 -80.5t-145 -57 t-177.5 -20q-268 0 -406.5 142t-138.5 386zM276 1569l248 391h219l248 -391h-209l-147 164l-148 -164h-211z" />
<glyph unicode="&#x11d;" horiz-adv-x="1114" d="M72 463v242q0 215 95 332.5t282 117.5q76 0 152 -33.5t118 -87.5l26 105h267v-1092q0 -215 -130.5 -346t-357.5 -131q-115 0 -228 26.5t-187 75.5l84 238q95 -37 161 -49.5t144 -12.5q93 0 139.5 42.5t46.5 109.5v115q-43 -43 -112 -72t-138 -29q-179 0 -270.5 117.5 t-91.5 331.5zM199 1262l247 391h220l247 -391h-208l-148 163l-147 -163h-211zM399 504q0 -91 34 -135.5t106 -44.5q82 0 145 73v373q-66 76 -145 76q-72 0 -106 -44t-34 -136v-162z" />
<glyph unicode="&#x11e;" d="M84 512v412q0 243 140.5 384.5t408.5 141.5q102 0 184 -23.5t141 -68.5t101 -99t76 -126l-265 -134q-33 70 -85 109t-140 39q-105 0 -161 -68t-56 -174v-375q0 -109 51.5 -177t161.5 -68q141 0 205 84v190h-248v272h557v-589q-44 -57 -92 -100.5t-111.5 -80.5t-145 -57 t-177.5 -20q-268 0 -406.5 142t-138.5 386zM291 1858v32h270v-37q0 -98 76 -98t76 98v37h270v-32q0 -86 -27 -149t-75.5 -99.5t-109 -54t-134.5 -17.5t-134.5 17.5t-109 54t-75.5 99.5t-27 149z" />
<glyph unicode="&#x11f;" horiz-adv-x="1114" d="M72 463v242q0 215 95 332.5t282 117.5q76 0 152 -33.5t118 -87.5l26 105h267v-1092q0 -215 -130.5 -346t-357.5 -131q-115 0 -228 26.5t-187 75.5l84 238q95 -37 161 -49.5t144 -12.5q93 0 139.5 42.5t46.5 109.5v115q-43 -43 -112 -72t-138 -29q-179 0 -270.5 117.5 t-91.5 331.5zM219 1563v32h270v-36q0 -99 76 -99t76 99v36h270v-32q0 -86 -27 -149t-75.5 -99.5t-109 -54t-134.5 -17.5t-134.5 17.5t-109 54t-75.5 99.5t-27 149zM399 504q0 -91 34 -135.5t106 -44.5q82 0 145 73v373q-66 76 -145 76q-72 0 -106 -44t-34 -136v-162z" />
<glyph unicode="&#x120;" d="M84 512v412q0 243 140.5 384.5t408.5 141.5q102 0 184 -23.5t141 -68.5t101 -99t76 -126l-265 -134q-33 70 -85 109t-140 39q-105 0 -161 -68t-56 -174v-375q0 -109 51.5 -177t161.5 -68q141 0 205 84v190h-248v272h557v-589q-44 -57 -92 -100.5t-111.5 -80.5t-145 -57 t-177.5 -20q-268 0 -406.5 142t-138.5 386zM477 1550v322h336v-322h-336z" />
<glyph unicode="&#x121;" horiz-adv-x="1114" d="M72 463v242q0 215 95 332.5t282 117.5q76 0 152 -33.5t118 -87.5l26 105h267v-1092q0 -215 -130.5 -346t-357.5 -131q-115 0 -228 26.5t-187 75.5l84 238q95 -37 161 -49.5t144 -12.5q93 0 139.5 42.5t46.5 109.5v115q-43 -43 -112 -72t-138 -29q-179 0 -270.5 117.5 t-91.5 331.5zM399 504q0 -91 34 -135.5t106 -44.5q82 0 145 73v373q-66 76 -145 76q-72 0 -106 -44t-34 -136v-162zM401 1255v322h336v-322h-336z" />
<glyph unicode="&#x122;" d="M84 512v412q0 243 140.5 384.5t408.5 141.5q102 0 184 -23.5t141 -68.5t101 -99t76 -126l-265 -134q-33 70 -85 109t-140 39q-105 0 -161 -68t-56 -174v-375q0 -109 51.5 -177t161.5 -68q141 0 205 84v190h-248v272h557v-589q-44 -57 -92 -100.5t-111.5 -80.5t-145 -57 t-177.5 -20q-268 0 -406.5 142t-138.5 386zM461 -557q52 32 83 75t34 79h-107v303h303v-226q0 -43 -7 -84.5t-25.5 -94.5t-60.5 -100t-103 -79zM477 -1343q53 32 83.5 74.5t33.5 78.5h-107v303h304v-225q0 -33 -3.5 -65t-16 -75.5t-33 -80t-57.5 -74t-87 -63.5z" />
<glyph unicode="&#x123;" horiz-adv-x="1114" d="M72 463v242q0 215 95 332.5t282 117.5q76 0 152 -33.5t118 -87.5l26 105h267v-1092q0 -215 -130.5 -346t-357.5 -131q-115 0 -228 26.5t-187 75.5l84 238q95 -37 161 -49.5t144 -12.5q93 0 139.5 42.5t46.5 109.5v115q-43 -43 -112 -72t-138 -29q-179 0 -270.5 117.5 t-91.5 331.5zM375 1262v225q0 43 7 84.5t25.5 94.5t60.5 100t103 79l117 -127q-53 -32 -83.5 -74.5t-33.5 -78.5h107v-303h-303zM399 504q0 -91 34 -135.5t106 -44.5q82 0 145 73v373q-66 76 -145 76q-72 0 -106 -44t-34 -136v-162z" />
<glyph unicode="&#x124;" horiz-adv-x="1343" d="M131 0v1434h340v-553h401v553h340v-1434h-340v588h-401v-588h-340zM319 1569l248 391h219l248 -391h-209l-147 164l-148 -164h-211z" />
<glyph unicode="&#x125;" horiz-adv-x="1165" d="M-86 1638l248 392h219l248 -392h-209l-148 164l-147 -164h-211zM113 0v1536h327v-471q121 90 281 90q175 0 258.5 -111t83.5 -296v-748h-328v680q0 87 -33 125.5t-96 38.5q-82 0 -166 -68v-776h-327z" />
<glyph unicode="&#x126;" horiz-adv-x="1343" d="M18 1030v238h113v166h340v-166h401v166h340v-166h113v-238h-113v-1030h-340v588h-401v-588h-340v1030h-113zM471 881h401v149h-401v-149z" />
<glyph unicode="&#x127;" horiz-adv-x="1165" d="M-20 1202v223h133v111h327v-111h222v-223h-222v-137q121 90 281 90q175 0 258.5 -111t83.5 -296v-748h-328v680q0 87 -33 125.5t-96 38.5q-82 0 -166 -68v-776h-327v1202h-133z" />
<glyph unicode="&#x128;" horiz-adv-x="602" d="M-78 1628q86 252 246 252q48 0 98.5 -24.5t95 -49t76.5 -24.5q45 0 80 57l21 35l157 -72q-53 -141 -109 -196.5t-136 -55.5q-48 0 -98.5 25t-95 49.5t-77.5 24.5q-55 0 -100 -95zM131 0v1434h340v-1434h-340z" />
<glyph unicode="&#x129;" horiz-adv-x="552" d="M-102 1321q86 252 245 252q48 0 99 -24.5t95.5 -49t76.5 -24.5q45 0 80 57l20 35l158 -72q-53 -141 -109 -196.5t-137 -55.5q-48 0 -98 24.5t-94.5 49t-77.5 24.5q-57 0 -101 -94zM113 0v1139h327v-1139h-327z" />
<glyph unicode="&#x12a;" horiz-adv-x="602" d="M-2 1593v238h608v-238h-608zM131 0v1434h340v-1434h-340z" />
<glyph unicode="&#x12b;" horiz-adv-x="552" d="M-18 1298v238h608v-238h-608zM113 0v1139h327v-1139h-327z" />
<glyph unicode="&#x12c;" horiz-adv-x="602" d="M-39 1858v32h270v-37q0 -98 76 -98t76 98v37h270v-32q0 -86 -27 -149t-75.5 -99.5t-109 -54t-134.5 -17.5t-134.5 17.5t-109 54t-75.5 99.5t-27 149zM131 0v1434h340v-1434h-340z" />
<glyph unicode="&#x12d;" horiz-adv-x="552" d="M-61 1563v32h270v-36q0 -99 76 -99q75 0 75 99v36h271v-32q0 -86 -27 -149t-75.5 -99.5t-109 -54t-134.5 -17.5t-134.5 17.5t-109 54t-75.5 99.5t-27 149zM113 0v1139h327v-1139h-327z" />
<glyph unicode="&#x12e;" horiz-adv-x="602" d="M-82 -307q0 98 82 183t209 124h-78v1434h340v-1434h-94q-101 -58 -150 -107t-49 -110q0 -35 22.5 -55.5t59.5 -20.5q58 0 154 37l57 -170q-153 -84 -289 -84q-121 0 -192.5 50.5t-71.5 152.5z" />
<glyph unicode="&#x12f;" horiz-adv-x="552" d="M-111 -307q0 98 82 183t209 124h-67v1139h327v-1139h-92q-101 -57 -149.5 -106.5t-48.5 -110.5q0 -35 22 -55.5t59 -20.5q58 0 154 37l57 -170q-153 -84 -288 -84q-121 0 -193 50.5t-72 152.5zM106 1255v322h340v-322h-340z" />
<glyph unicode="&#x130;" horiz-adv-x="602" d="M131 0v1434h340v-1434h-340zM133 1550v322h336v-322h-336z" />
<glyph unicode="&#x131;" horiz-adv-x="552" d="M113 0v1139h327v-1139h-327z" />
<glyph unicode="&#x132;" horiz-adv-x="1472" d="M131 0v1434h340v-1434h-340zM643 25l23 276q132 -18 180 -18q95 0 125 51t30 168v932h340v-928q0 -95 -9.5 -166t-39 -141.5t-79.5 -115t-135 -72t-201 -27.5q-109 0 -234 41z" />
<glyph unicode="&#x133;" horiz-adv-x="1105" d="M109 1255v322h335v-322h-335zM113 0v1139h327v-1139h-327zM354 -358l78 241q68 -20 152 -20q44 0 68 25t24 71v1180h328v-1166q0 -90 -19 -159.5t-61.5 -124t-117 -83t-177.5 -28.5q-159 0 -275 64zM672 1255v322h336v-322h-336z" />
<glyph unicode="&#x134;" horiz-adv-x="870" d="M41 25l22 276q132 -18 181 -18q95 0 125 51t30 168v932h340v-928q0 -95 -10 -166.5t-39.5 -141.5t-79.5 -114.5t-135 -72t-201 -27.5q-108 0 -233 41zM211 1569l248 391h219l248 -391h-209l-148 164l-147 -164h-211z" />
<glyph unicode="&#x135;" horiz-adv-x="552" d="M-199 -358l78 241q68 -20 152 -20q44 0 68 25t24 71v1180h328v-1166q0 -90 -19 -159.5t-61.5 -124t-117 -83t-177.5 -28.5q-159 0 -275 64zM-74 1262l248 391h219l248 -391h-209l-147 163l-148 -163h-211z" />
<glyph unicode="&#x136;" horiz-adv-x="1220" d="M131 0v1434h340v-543h64l282 543h371l-379 -672l399 -762h-370l-303 596h-64v-596h-340zM459 -557q52 32 82.5 74.5t33.5 79.5h-106v303h303v-226q0 -33 -3.5 -65t-16 -75.5t-33 -80t-57.5 -74t-87 -63.5z" />
<glyph unicode="&#x137;" horiz-adv-x="1060" d="M113 0v1536h327v-791h49l187 394h371l-279 -518l285 -621h-377l-184 475h-52v-475h-327zM385 -557q52 32 83 75t34 79h-107v303h303v-226q0 -43 -7 -84.5t-25.5 -94.5t-60.5 -100t-103 -79z" />
<glyph unicode="&#x138;" horiz-adv-x="1060" d="M113 0v1139h327v-394h35l201 394h371l-293 -518l299 -621h-377l-199 475h-37v-475h-327z" />
<glyph unicode="&#x139;" horiz-adv-x="1064" d="M131 0v1434h340v-1123h537v-311h-877zM172 1556l109 392h329l-213 -392h-225z" />
<glyph unicode="&#x13a;" horiz-adv-x="542" d="M100 1612l109 391h330l-213 -391h-226zM113 0v1536h327v-1536h-327z" />
<glyph unicode="&#x13b;" horiz-adv-x="1064" d="M131 0v1434h340v-1123h537v-311h-877zM383 -557q52 32 83 75t34 79h-107v303h303v-226q0 -43 -7 -84.5t-25.5 -94.5t-60.5 -100t-103 -79z" />
<glyph unicode="&#x13c;" horiz-adv-x="542" d="M113 0v1536h327v-1536h-327zM115 -557q52 32 82.5 74.5t33.5 79.5h-106v303h303v-226q0 -33 -3.5 -65t-16 -75.5t-33 -80t-57.5 -74t-87 -63.5z" />
<glyph unicode="&#x13d;" horiz-adv-x="1064" d="M131 0v1434h340v-1123h537v-311h-877zM618 989l39 445h322l-137 -445h-224z" />
<glyph unicode="&#x13e;" horiz-adv-x="788" d="M113 0v1536h327v-1536h-327zM510 1092l39 444h321l-137 -444h-223z" />
<glyph unicode="&#x13f;" horiz-adv-x="1064" d="M131 0v1434h340v-1123h537v-311h-877zM580 588v370h368v-370h-368z" />
<glyph unicode="&#x140;" horiz-adv-x="962" d="M113 0v1536h327v-1536h-327zM545 582v370h368v-370h-368z" />
<glyph unicode="&#x141;" horiz-adv-x="1144" d="M80 477v295l131 55v607h340v-459l307 133v-295l-307 -133v-369h536v-311h-876v532z" />
<glyph unicode="&#x142;" horiz-adv-x="821" d="M57 502v297l162 71v666h328v-518l188 86v-297l-188 -86v-721h-328v573z" />
<glyph unicode="&#x143;" horiz-adv-x="1363" d="M131 0v1434h305l482 -762h8v762h327v-1434h-299l-487 786h-8v-786h-328zM582 1569l108 391h330l-213 -391h-225z" />
<glyph unicode="&#x144;" horiz-adv-x="1157" d="M113 0v1139h268l27 -101q127 117 309 117q72 0 129.5 -20.5t96 -56.5t64 -87.5t37 -111.5t11.5 -131v-748h-328v680q0 88 -31.5 126t-93.5 38q-78 0 -162 -68v-776h-327zM449 1262l108 391h330l-213 -391h-225z" />
<glyph unicode="&#x145;" horiz-adv-x="1363" d="M131 0v1434h305l482 -762h8v762h327v-1434h-299l-487 786h-8v-786h-328zM551 -557q52 32 83 75t34 79h-107v303h303v-226q0 -43 -7 -84.5t-25.5 -94.5t-60.5 -100t-103 -79z" />
<glyph unicode="&#x146;" horiz-adv-x="1157" d="M113 0v1139h268l27 -101q127 117 309 117q72 0 129.5 -20.5t96 -56.5t64 -87.5t37 -111.5t11.5 -131v-748h-328v680q0 88 -31.5 126t-93.5 38q-78 0 -162 -68v-776h-327zM428 -557q52 32 83 75t34 79h-107v303h303v-226q0 -43 -7 -84.5t-25.5 -94.5t-60.5 -100t-103 -79z " />
<glyph unicode="&#x147;" horiz-adv-x="1363" d="M131 0v1434h305l482 -762h8v762h327v-1434h-299l-487 786h-8v-786h-328zM342 1960h211l147 -164l148 164h209l-248 -391h-219z" />
<glyph unicode="&#x148;" horiz-adv-x="1157" d="M113 0v1139h268l27 -101q127 117 309 117q72 0 129.5 -20.5t96 -56.5t64 -87.5t37 -111.5t11.5 -131v-748h-328v680q0 88 -31.5 126t-93.5 38q-78 0 -162 -68v-776h-327zM238 1653h211l147 -164l147 164h209l-247 -391h-220z" />
<glyph unicode="&#x149;" horiz-adv-x="1157" d="M-180 1198q52 32 83 75t34 79h-107v303h303v-225q0 -43 -7 -84.5t-25.5 -94.5t-60.5 -100.5t-103 -79.5zM113 0v1139h268l27 -101q127 117 309 117q72 0 129.5 -20.5t96 -56.5t64 -87.5t37 -111.5t11.5 -131v-748h-328v680q0 88 -31.5 126t-93.5 38q-78 0 -162 -68v-776 h-327z" />
<glyph unicode="&#x14a;" horiz-adv-x="1363" d="M131 0v1434h305l482 -762h8v762h327v-1342q0 -95 -10 -166.5t-39.5 -141.5t-79.5 -114.5t-135 -72t-201 -27.5q-108 0 -233 41l23 276q132 -18 180 -18q90 0 121.5 47t33.5 150l-446 720h-8v-786h-328z" />
<glyph unicode="&#x14b;" horiz-adv-x="1157" d="M113 0v1139h268l27 -101q127 117 309 117q72 0 129.5 -20.5t96 -56.5t64 -87.5t37 -111.5t11.5 -131v-775q0 -90 -19 -159.5t-61.5 -124t-117 -83t-177.5 -28.5q-158 0 -274 64l77 241q68 -20 152 -20q44 0 68 25t24 71v721q0 88 -31.5 126t-93.5 38q-78 0 -162 -68v-776 h-327z" />
<glyph unicode="&#x14c;" d="M84 508v416q0 244 138.5 385t406.5 141q266 0 403 -141t137 -385v-416q0 -245 -136.5 -384.5t-403.5 -139.5q-269 0 -407 139.5t-138 384.5zM322 1593v238h608v-238h-608zM426 530q0 -125 46.5 -185t156.5 -60q109 0 153.5 59.5t44.5 185.5v375q0 124 -44.5 183 t-153.5 59t-156 -59.5t-47 -182.5v-375z" />
<glyph unicode="&#x14d;" horiz-adv-x="1085" d="M72 432v266q0 216 119 336.5t352 120.5t352 -120.5t119 -336.5v-266q0 -212 -119 -330t-352 -118t-352 118t-119 330zM242 1298v238h608v-238h-608zM399 446q0 -94 32 -136t112 -42q81 0 112 42t31 136v244q0 97 -31 138.5t-112 41.5q-80 0 -112 -42t-32 -138v-244z" />
<glyph unicode="&#x14e;" d="M84 508v416q0 244 138.5 385t406.5 141q266 0 403 -141t137 -385v-416q0 -245 -136.5 -384.5t-403.5 -139.5q-269 0 -407 139.5t-138 384.5zM285 1858v32h270v-37q0 -98 76 -98t76 98v37h270v-32q0 -86 -27 -149t-75.5 -99.5t-109 -54t-134.5 -17.5t-134.5 17.5t-109 54 t-75.5 99.5t-27 149zM426 530q0 -125 46.5 -185t156.5 -60q109 0 153.5 59.5t44.5 185.5v375q0 124 -44.5 183t-153.5 59t-156 -59.5t-47 -182.5v-375z" />
<glyph unicode="&#x14f;" horiz-adv-x="1085" d="M72 432v266q0 216 119 336.5t352 120.5t352 -120.5t119 -336.5v-266q0 -212 -119 -330t-352 -118t-352 118t-119 330zM197 1563v32h270v-36q0 -99 76 -99q75 0 75 99v36h271v-32q0 -86 -27 -149t-75.5 -99.5t-109 -54t-134.5 -17.5t-134.5 17.5t-109 54t-75.5 99.5 t-27 149zM399 446q0 -94 32 -136t112 -42q81 0 112 42t31 136v244q0 97 -31 138.5t-112 41.5q-80 0 -112 -42t-32 -138v-244z" />
<glyph unicode="&#x150;" d="M84 508v416q0 244 138.5 385t406.5 141q266 0 403 -141t137 -385v-416q0 -245 -136.5 -384.5t-403.5 -139.5q-269 0 -407 139.5t-138 384.5zM319 1556l109 392h305l-201 -392h-213zM426 530q0 -125 46.5 -185t156.5 -60q109 0 153.5 59.5t44.5 185.5v375q0 124 -44.5 183 t-153.5 59t-156 -59.5t-47 -182.5v-375zM700 1556l109 392h305l-201 -392h-213z" />
<glyph unicode="&#x151;" horiz-adv-x="1085" d="M72 432v266q0 216 119 336.5t352 120.5t352 -120.5t119 -336.5v-266q0 -212 -119 -330t-352 -118t-352 118t-119 330zM244 1262l108 391h305l-200 -391h-213zM399 446q0 -94 32 -136t112 -42q81 0 112 42t31 136v244q0 97 -31 138.5t-112 41.5q-80 0 -112 -42t-32 -138 v-244zM625 1262l108 391h305l-200 -391h-213z" />
<glyph unicode="&#x152;" horiz-adv-x="1816" d="M84 508v416q0 244 133.5 385t392.5 141q69 0 136 -17t98 -42v43h862v-291h-539v-266h492v-291h-492v-295h539v-291h-860v43q-33 -24 -103.5 -41.5t-132.5 -17.5q-260 0 -393 139.5t-133 384.5zM426 530q0 -125 46.5 -185t156.5 -60q109 0 153.5 59.5t44.5 185.5v375 q0 124 -44.5 183t-153.5 59t-156 -59.5t-47 -182.5v-375z" />
<glyph unicode="&#x153;" horiz-adv-x="1656" d="M72 432v266q0 216 119 336.5t352 120.5q172 0 303 -88q124 88 297 88q452 0 452 -448v-258h-581v-80q0 -51 36.5 -83t118.5 -32t149 13.5t173 56.5l80 -232q-159 -108 -420 -108q-177 0 -305 88q-131 -88 -303 -88q-233 0 -352 118t-119 330zM399 446q0 -94 32 -136 t112 -42q81 0 112 42t31 136v244q0 97 -31 138.5t-112 41.5q-80 0 -112 -42t-32 -138v-244zM1014 690h272v37q0 164 -135 164q-137 0 -137 -164v-37z" />
<glyph unicode="&#x154;" horiz-adv-x="1216" d="M131 0v1434h467q265 0 405 -113t140 -360q0 -87 -19.5 -158.5t-54 -120t-73.5 -80.5t-85 -53l308 -549h-377l-244 492h-129v-492h-338zM459 1569l108 391h330l-213 -391h-225zM469 782h135q98 0 147.5 41.5t49.5 137.5q0 103 -52.5 142.5t-164.5 39.5h-115v-361z" />
<glyph unicode="&#x155;" horiz-adv-x="829" d="M113 0v1139h270l25 -142q42 70 112.5 114t145.5 44q71 0 147 -37l-61 -301q-60 27 -117 27q-53 0 -105.5 -28.5t-89.5 -76.5v-739h-327zM281 1262l108 391h330l-213 -391h-225z" />
<glyph unicode="&#x156;" horiz-adv-x="1216" d="M131 0v1434h467q265 0 405 -113t140 -360q0 -87 -19.5 -158.5t-54 -120t-73.5 -80.5t-85 -53l308 -549h-377l-244 492h-129v-492h-338zM469 782h135q98 0 147.5 41.5t49.5 137.5q0 103 -52.5 142.5t-164.5 39.5h-115v-361zM473 -557q52 32 83 75t34 79h-107v303h303v-226 q0 -43 -7 -84.5t-25.5 -94.5t-60.5 -100t-103 -79z" />
<glyph unicode="&#x157;" horiz-adv-x="829" d="M113 0v1139h270l25 -142q42 70 112.5 114t145.5 44q71 0 147 -37l-61 -301q-60 27 -117 27q-53 0 -105.5 -28.5t-89.5 -76.5v-739h-327zM176 -557q52 32 83 75t34 79h-107v303h303v-226q0 -43 -7 -84.5t-25.5 -94.5t-60.5 -100t-103 -79z" />
<glyph unicode="&#x158;" horiz-adv-x="1216" d="M131 0v1434h467q265 0 405 -113t140 -360q0 -87 -19.5 -158.5t-54 -120t-73.5 -80.5t-85 -53l308 -549h-377l-244 492h-129v-492h-338zM215 1960h211l147 -164l148 164h209l-248 -391h-219zM469 782h135q98 0 147.5 41.5t49.5 137.5q0 103 -52.5 142.5t-164.5 39.5h-115 v-361z" />
<glyph unicode="&#x159;" horiz-adv-x="829" d="M86 1653h211l147 -164l148 164h209l-248 -391h-219zM113 0v1139h270l25 -142q42 70 112.5 114t145.5 44q71 0 147 -37l-61 -301q-60 27 -117 27q-53 0 -105.5 -28.5t-89.5 -76.5v-739h-327z" />
<glyph unicode="&#x15a;" horiz-adv-x="1120" d="M35 139l117 256q241 -112 399 -112q94 0 141 39t47 98q0 46 -28.5 80t-75 53.5t-106 40.5t-121 39t-121 51t-106 75t-75 112t-28.5 161q0 202 123 310t356 108q249 0 477 -152l-141 -245q-173 102 -322 102q-81 0 -121 -29t-40 -82q0 -33 22.5 -58.5t61 -43t88.5 -33.5 t105 -35t110.5 -41.5t105.5 -58t88.5 -80t61 -112t22.5 -150.5q0 -214 -131.5 -331t-402.5 -117q-251 0 -506 155zM430 1569l109 391h329l-213 -391h-225z" />
<glyph unicode="&#x15b;" horiz-adv-x="954" d="M47 106l70 238q224 -90 352 -90q70 0 98.5 24t28.5 70q0 34 -29 58t-75 39.5t-101.5 30.5t-111 39t-101.5 57.5t-75 93t-29 139.5q0 175 114 262.5t306 87.5q99 0 203 -31t184 -82l-78 -231q-174 82 -307 82q-107 0 -107 -68q0 -32 29 -54t75 -36.5t101.5 -29t111 -38.5 t101.5 -57.5t75 -94t29 -140.5q0 -197 -109.5 -294t-332.5 -97q-100 0 -211 31t-211 91zM332 1262l108 391h330l-213 -391h-225z" />
<glyph unicode="&#x15c;" horiz-adv-x="1120" d="M35 139l117 256q241 -112 399 -112q94 0 141 39t47 98q0 46 -28.5 80t-75 53.5t-106 40.5t-121 39t-121 51t-106 75t-75 112t-28.5 161q0 202 123 310t356 108q249 0 477 -152l-141 -245q-173 102 -322 102q-81 0 -121 -29t-40 -82q0 -33 22.5 -58.5t61 -43t88.5 -33.5 t105 -35t110.5 -41.5t105.5 -58t88.5 -80t61 -112t22.5 -150.5q0 -214 -131.5 -331t-402.5 -117q-251 0 -506 155zM213 1556l248 392h219l248 -392h-209l-148 164l-147 -164h-211z" />
<glyph unicode="&#x15d;" horiz-adv-x="954" d="M47 106l70 238q224 -90 352 -90q70 0 98.5 24t28.5 70q0 34 -29 58t-75 39.5t-101.5 30.5t-111 39t-101.5 57.5t-75 93t-29 139.5q0 175 114 262.5t306 87.5q99 0 203 -31t184 -82l-78 -231q-174 82 -307 82q-107 0 -107 -68q0 -32 29 -54t75 -36.5t101.5 -29t111 -38.5 t101.5 -57.5t75 -94t29 -140.5q0 -197 -109.5 -294t-332.5 -97q-100 0 -211 31t-211 91zM137 1262l248 391h219l248 -391h-209l-147 163l-148 -163h-211z" />
<glyph unicode="&#x15e;" horiz-adv-x="1120" d="M35 139l117 256q241 -112 399 -112q94 0 141 39t47 98q0 46 -28.5 80t-75 53.5t-106 40.5t-121 39t-121 51t-106 75t-75 112t-28.5 161q0 202 123 310t356 108q249 0 477 -152l-141 -245q-173 102 -322 102q-81 0 -121 -29t-40 -82q0 -33 22.5 -58.5t61 -43t88.5 -33.5 t105 -35t110.5 -41.5t105.5 -58t88.5 -80t61 -112t22.5 -150.5q0 -204 -119.5 -320t-363.5 -126l-17 -62q91 8 155.5 -37t64.5 -139q0 -111 -67 -165t-181 -54q-109 0 -217 51l41 141q92 -28 155 -28q38 0 52 13t14 40q0 20 -13.5 36.5t-46.5 16.5q-37 0 -77 -12l-62 61 l10 146q-177 28 -368 145z" />
<glyph unicode="&#x15f;" horiz-adv-x="954" d="M47 106l70 238q224 -90 352 -90q70 0 98.5 24t28.5 70q0 34 -29 58t-75 39.5t-101.5 30.5t-111 39t-101.5 57.5t-75 93t-29 139.5q0 175 114 262.5t306 87.5q99 0 203 -31t184 -82l-78 -231q-174 82 -307 82q-107 0 -107 -68q0 -32 29 -54t75 -36.5t101.5 -29t111 -38.5 t101.5 -57.5t75 -94t29 -140.5q0 -369 -391 -387l-16 -64q90 8 154.5 -37t64.5 -139q0 -111 -67 -165t-181 -54q-109 0 -217 51l41 141q92 -28 156 -28q37 0 51 13t14 40q0 20 -13 36.5t-46 16.5q-38 0 -78 -12l-61 61l10 150q-145 24 -285 108z" />
<glyph unicode="&#x160;" horiz-adv-x="1120" d="M35 139l117 256q241 -112 399 -112q94 0 141 39t47 98q0 46 -28.5 80t-75 53.5t-106 40.5t-121 39t-121 51t-106 75t-75 112t-28.5 161q0 202 123 310t356 108q249 0 477 -152l-141 -245q-173 102 -322 102q-81 0 -121 -29t-40 -82q0 -33 22.5 -58.5t61 -43t88.5 -33.5 t105 -35t110.5 -41.5t105.5 -58t88.5 -80t61 -112t22.5 -150.5q0 -214 -131.5 -331t-402.5 -117q-251 0 -506 155zM217 1960h211l147 -164l148 164h209l-248 -391h-219z" />
<glyph unicode="&#x161;" horiz-adv-x="954" d="M47 106l70 238q224 -90 352 -90q70 0 98.5 24t28.5 70q0 34 -29 58t-75 39.5t-101.5 30.5t-111 39t-101.5 57.5t-75 93t-29 139.5q0 175 114 262.5t306 87.5q99 0 203 -31t184 -82l-78 -231q-174 82 -307 82q-107 0 -107 -68q0 -32 29 -54t75 -36.5t101.5 -29t111 -38.5 t101.5 -57.5t75 -94t29 -140.5q0 -197 -109.5 -294t-332.5 -97q-100 0 -211 31t-211 91zM119 1653h211l147 -164l148 164h209l-248 -391h-219z" />
<glyph unicode="&#x162;" horiz-adv-x="1220" d="M63 1122v312h1084v-312h-371v-1122h-127l-18 -76q90 8 154.5 -37t64.5 -139q0 -111 -67 -165t-181 -54q-109 0 -217 51l41 141q92 -28 156 -28q37 0 51 13t14 40q0 20 -13 36.5t-46 16.5q-38 0 -78 -12l-61 61l12 152h-25v1122h-373z" />
<glyph unicode="&#x163;" horiz-adv-x="905" d="M37 877v247l186 15v209l320 32v-241h286v-262h-286v-519q0 -40 28.5 -63t75.5 -23q66 0 152 27l73 -233q-128 -82 -280 -82l-14 -60q90 8 154.5 -37t64.5 -139q0 -111 -67 -165t-181 -54q-109 0 -217 51l41 141q92 -28 155 -28q38 0 52 13t14 40q0 20 -13 36.5t-46 16.5 q-38 0 -78 -12l-62 61l13 166q-193 78 -193 365v498h-178z" />
<glyph unicode="&#x164;" horiz-adv-x="1220" d="M63 1122v312h1084v-312h-371v-1122h-340v1122h-373zM252 1960h211l147 -164l148 164h209l-248 -391h-219z" />
<glyph unicode="&#x165;" horiz-adv-x="905" d="M37 877v247l186 15v209l320 32v-241h286v-262h-286v-519q0 -40 28.5 -63t75.5 -23q66 0 152 27l73 -233q-128 -82 -282 -82q-103 0 -177.5 28.5t-117 83t-61.5 124t-19 159.5v498h-178zM629 1229l39 444h321l-137 -444h-223z" />
<glyph unicode="&#x166;" horiz-adv-x="1220" d="M63 1143v291h1084v-291h-371v-238h236v-237h-236v-668h-340v668h-231v237h231v238h-373z" />
<glyph unicode="&#x167;" horiz-adv-x="905" d="M37 877v247l186 15v209l320 32v-241h286v-262h-286v-89h241v-237h-241v-193q0 -40 28.5 -63t75.5 -23q66 0 152 27l73 -233q-128 -82 -282 -82q-103 0 -177.5 28.5t-117 83t-61.5 124t-19 159.5v172h-160v237h160v89h-178z" />
<glyph unicode="&#x168;" horiz-adv-x="1310" d="M121 485v949h340v-930q0 -110 42.5 -166.5t151.5 -56.5t152 56.5t43 166.5v930h340v-949q0 -240 -136 -370.5t-399 -130.5t-398.5 130t-135.5 371zM274 1628q86 252 246 252q48 0 99 -24.5t95.5 -49t76.5 -24.5q25 0 42.5 13t36.5 44l21 35l158 -72q-53 -141 -109 -196.5 t-137 -55.5q-48 0 -98.5 25t-95 49.5t-77.5 24.5q-55 0 -100 -95z" />
<glyph unicode="&#x169;" horiz-adv-x="1146" d="M102 391v748h328v-680q0 -88 31.5 -126t93.5 -38q80 0 162 67v777h327v-1139h-268l-26 100q-126 -116 -310 -116q-72 0 -129.5 20.5t-96 56.5t-64 87.5t-37 111.5t-11.5 131zM193 1321q86 252 245 252q48 0 99 -24.5t95.5 -49t76.5 -24.5q25 0 42.5 13t36.5 44l21 35 l158 -72q-53 -141 -109 -196.5t-137 -55.5q-48 0 -98 24.5t-94.5 49t-77.5 24.5q-57 0 -101 -94z" />
<glyph unicode="&#x16a;" horiz-adv-x="1310" d="M121 485v949h340v-930q0 -110 42.5 -166.5t151.5 -56.5t152 56.5t43 166.5v930h340v-949q0 -240 -136 -370.5t-399 -130.5t-398.5 130t-135.5 371zM358 1593v238h609v-238h-609z" />
<glyph unicode="&#x16b;" horiz-adv-x="1146" d="M102 391v748h328v-680q0 -88 31.5 -126t93.5 -38q80 0 162 67v777h327v-1139h-268l-26 100q-126 -116 -310 -116q-72 0 -129.5 20.5t-96 56.5t-64 87.5t-37 111.5t-11.5 131zM281 1298v238h608v-238h-608z" />
<glyph unicode="&#x16c;" horiz-adv-x="1310" d="M121 485v949h340v-930q0 -110 42.5 -166.5t151.5 -56.5t152 56.5t43 166.5v930h340v-949q0 -240 -136 -370.5t-399 -130.5t-398.5 130t-135.5 371zM322 1858v32h270v-37q0 -98 76 -98q75 0 75 98v37h271v-32q0 -86 -27 -149t-75.5 -99.5t-109 -54t-134.5 -17.5 t-134.5 17.5t-109 54t-75.5 99.5t-27 149z" />
<glyph unicode="&#x16d;" horiz-adv-x="1146" d="M102 391v748h328v-680q0 -88 31.5 -126t93.5 -38q80 0 162 67v777h327v-1139h-268l-26 100q-126 -116 -310 -116q-72 0 -129.5 20.5t-96 56.5t-64 87.5t-37 111.5t-11.5 131zM233 1563v32h271v-36q0 -99 76 -99q75 0 75 99v36h271v-32q0 -86 -27 -149t-75.5 -99.5 t-109 -54t-134.5 -17.5t-135 17.5t-109.5 54t-75.5 99.5t-27 149z" />
<glyph unicode="&#x16e;" horiz-adv-x="1310" d="M121 485v949h340v-930q0 -110 42.5 -166.5t151.5 -56.5t152 56.5t43 166.5v930h340v-949q0 -240 -136 -370.5t-399 -130.5t-398.5 130t-135.5 371zM408 1763q0 109 71.5 176.5t182.5 67.5t182 -67.5t71 -176.5q0 -108 -71 -174.5t-182 -66.5t-182.5 66.5t-71.5 174.5z M578 1763q0 -36 22.5 -59t61.5 -23t61 23t22 59t-22 60t-61 24q-40 0 -62 -23.5t-22 -60.5z" />
<glyph unicode="&#x16f;" horiz-adv-x="1146" d="M102 391v748h328v-680q0 -88 31.5 -126t93.5 -38q80 0 162 67v777h327v-1139h-268l-26 100q-126 -116 -310 -116q-72 0 -129.5 20.5t-96 56.5t-64 87.5t-37 111.5t-11.5 131zM328 1468q0 109 71.5 176.5t182.5 67.5t182.5 -67.5t71.5 -176.5q0 -108 -71.5 -174.5 t-182.5 -66.5t-182.5 66.5t-71.5 174.5zM498 1468q0 -36 22.5 -59t61.5 -23t61.5 23t22.5 59t-22.5 60t-61.5 24q-40 0 -62 -23.5t-22 -60.5z" />
<glyph unicode="&#x170;" horiz-adv-x="1310" d="M121 485v949h340v-930q0 -110 42.5 -166.5t151.5 -56.5t152 56.5t43 166.5v930h340v-949q0 -240 -136 -370.5t-399 -130.5t-398.5 130t-135.5 371zM334 1569l108 391h306l-201 -391h-213zM715 1569l108 391h305l-200 -391h-213z" />
<glyph unicode="&#x171;" horiz-adv-x="1146" d="M102 391v748h328v-680q0 -88 31.5 -126t93.5 -38q80 0 162 67v777h327v-1139h-268l-26 100q-126 -116 -310 -116q-72 0 -129.5 20.5t-96 56.5t-64 87.5t-37 111.5t-11.5 131zM246 1262l108 391h305l-200 -391h-213zM627 1262l108 391h305l-200 -391h-213z" />
<glyph unicode="&#x172;" horiz-adv-x="1310" d="M121 485v949h340v-930q0 -110 42.5 -166.5t151.5 -56.5t152 56.5t43 166.5v930h340v-949q0 -273 -174 -403q-100 -75 -146.5 -135.5t-46.5 -120.5q0 -36 22 -58t58 -22q18 0 38.5 4t32.5 8l11 4l47 -174q-82 -59 -221 -59q-108 0 -178 50.5t-70 150.5q0 69 48 140 t118 118q-50 -4 -74 -4q-263 0 -398.5 130t-135.5 371z" />
<glyph unicode="&#x173;" horiz-adv-x="1146" d="M102 391v748h328v-680q0 -88 31.5 -126t93.5 -38q80 0 162 67v777h327v-1139q-96 -29 -152 -75t-56 -105q0 -35 22.5 -54.5t59.5 -19.5q18 0 38 4t30 8l11 4l47 -174q-82 -59 -221 -59q-108 0 -178 50.5t-70 150.5q0 89 68.5 161t177.5 109h-45l-26 100 q-126 -116 -310 -116q-72 0 -129.5 20.5t-96 56.5t-64 87.5t-37 111.5t-11.5 131z" />
<glyph unicode="&#x174;" horiz-adv-x="1820" d="M41 1434h369l149 -910h8l205 910h275l204 -910h9l149 910h371l-340 -1434h-340l-187 780h-8l-188 -780h-336zM555 1569l248 391h219l248 -391h-209l-148 164l-147 -164h-211z" />
<glyph unicode="&#x175;" horiz-adv-x="1511" d="M27 1139h344l106 -703h8l133 703h275l133 -703h8l107 703h346l-285 -1139h-325l-117 504h-8l-121 -504h-322zM399 1262l248 391h219l248 -391h-209l-147 163l-148 -163h-211z" />
<glyph unicode="&#x176;" horiz-adv-x="1306" d="M39 1434h379l229 -551h12l232 551h377l-443 -875v-559h-344v559zM297 1569l248 391h219l248 -391h-209l-148 164l-147 -164h-211z" />
<glyph unicode="&#x177;" horiz-adv-x="1073" d="M25 1139h344l141 -733h8l184 733h349l-488 -1553h-313l131 414h-45zM178 1262l248 391h219l248 -391h-209l-147 163l-148 -163h-211z" />
<glyph unicode="&#x178;" horiz-adv-x="1306" d="M39 1434h379l229 -551h12l232 551h377l-443 -875v-559h-344v559zM315 1575v280h275v-280h-275zM721 1575v280h274v-280h-274z" />
<glyph unicode="&#x179;" horiz-adv-x="1153" d="M88 0v227l551 920h-520v287h946v-224l-553 -919h553v-291h-977zM444 1569l109 391h330l-213 -391h-226z" />
<glyph unicode="&#x17a;" horiz-adv-x="1024" d="M66 0v219l452 641h-426v279h840v-209l-451 -643h475v-287h-890zM369 1262l108 391h330l-213 -391h-225z" />
<glyph unicode="&#x17b;" horiz-adv-x="1153" d="M88 0v227l551 920h-520v287h946v-224l-553 -919h553v-291h-977zM449 1550v322h335v-322h-335z" />
<glyph unicode="&#x17c;" horiz-adv-x="1024" d="M66 0v219l452 641h-426v279h840v-209l-451 -643h475v-287h-890zM367 1255v322h335v-322h-335z" />
<glyph unicode="&#x17d;" horiz-adv-x="1153" d="M88 0v227l551 920h-520v287h946v-224l-553 -919h553v-291h-977zM254 1960h211l147 -164l148 164h209l-248 -391h-219z" />
<glyph unicode="&#x17e;" horiz-adv-x="1024" d="M66 0v219l452 641h-426v279h840v-209l-451 -643h475v-287h-890zM154 1653h211l147 -164l147 164h209l-247 -391h-220z" />
<glyph unicode="&#x192;" horiz-adv-x="1105" d="M-240 -350l90 235q70 -30 162 -30q113 0 129 96l127 797h-176l39 245l180 25l25 121q15 75 36 133.5t55.5 111.5t80 88t111 55.5t147.5 20.5q149 0 278 -73l-114 -244q-68 33 -135 33q-53 0 -85 -30.5t-42 -80.5l-29 -135h268l-43 -270h-268l-127 -783 q-64 -395 -438 -395q-75 0 -150 23t-121 57z" />
<glyph unicode="&#x1e2;" horiz-adv-x="1710" d="M16 0l455 1434h1126v-291h-708l78 -266h583v-291h-491l94 -295h444v-291h-702l-82 281h-356l-82 -281h-359zM524 573h221l-106 416h-8zM655 1593v238h609v-238h-609z" />
<glyph unicode="&#x1e3;" horiz-adv-x="1632" d="M68 313q0 108 48.5 189t133.5 127.5t187.5 69t221.5 22.5v49q0 113 -149 113q-140 0 -320 -84l-86 227q212 129 435 129q182 0 292 -72q115 72 287 72q453 0 453 -448v-258h-582v-80q0 -48 39 -81.5t117 -33.5q82 0 148.5 13.5t172.5 56.5l80 -232q-159 -108 -420 -108 q-275 0 -391 157q-35 -64 -116.5 -110.5t-206.5 -46.5q-149 0 -246.5 89.5t-97.5 239.5zM389 344q0 -45 29.5 -72.5t81.5 -27.5q56 0 96.5 26t62.5 64v166q-117 0 -193.5 -40t-76.5 -116zM535 1298v238h608v-238h-608zM989 690h273v37q0 164 -136 164q-137 0 -137 -164v-37z " />
<glyph unicode="&#x1fa;" horiz-adv-x="1269" d="M18 0l426 1352q-55 64 -55 164q0 110 67.5 176.5t178.5 66.5t178.5 -66.5t67.5 -176.5q0 -95 -56 -164l426 -1352h-356l-82 281h-356l-82 -281h-357zM498 1815l108 391h330l-213 -391h-225zM524 573h221l-106 416h-8zM551 1516q0 -36 22.5 -59t61.5 -23t61.5 23t22.5 59 t-22.5 59.5t-61.5 23.5q-40 0 -62 -23t-22 -60z" />
<glyph unicode="&#x1fb;" horiz-adv-x="1091" d="M68 313q0 108 48.5 189t133.5 127.5t187.5 69t221.5 22.5v49q0 113 -149 113q-140 0 -320 -84l-86 227q212 129 435 129q225 0 337.5 -106.5t112.5 -305.5v-743h-270l-23 113q-108 -129 -284 -129q-149 0 -246.5 89.5t-97.5 239.5zM299 1468q0 100 55.5 164.5t149.5 75.5 l67 242h330l-170 -314q60 -66 60 -168q0 -109 -68 -175t-178 -66t-178 66t-68 175zM389 344q0 -45 29.5 -72.5t81.5 -27.5q56 0 96.5 26t62.5 64v166q-117 0 -193.5 -40t-76.5 -116zM461 1468q0 -36 22.5 -59t61.5 -23t61.5 23t22.5 59t-22.5 60t-61.5 24q-40 0 -62 -23.5 t-22 -60.5z" />
<glyph unicode="&#x1fc;" horiz-adv-x="1708" d="M16 0l455 1434h1126v-291h-708l78 -266h583v-291h-491l94 -295h444v-291h-702l-82 281h-356l-82 -281h-359zM524 573h221l-106 416h-8zM717 1569l108 391h330l-213 -391h-225z" />
<glyph unicode="&#x1fd;" horiz-adv-x="1632" d="M68 313q0 108 48.5 189t133.5 127.5t187.5 69t221.5 22.5v49q0 113 -149 113q-140 0 -320 -84l-86 227q212 129 435 129q182 0 292 -72q115 72 287 72q453 0 453 -448v-258h-582v-80q0 -48 39 -81.5t117 -33.5q82 0 148.5 13.5t172.5 56.5l80 -232q-159 -108 -420 -108 q-275 0 -391 157q-35 -64 -116.5 -110.5t-206.5 -46.5q-149 0 -246.5 89.5t-97.5 239.5zM389 344q0 -45 29.5 -72.5t81.5 -27.5q56 0 96.5 26t62.5 64v166q-117 0 -193.5 -40t-76.5 -116zM651 1262l109 391h330l-213 -391h-226zM989 690h273v37q0 164 -136 164 q-137 0 -137 -164v-37z" />
<glyph unicode="&#x1fe;" d="M84 508v416q0 244 138.5 385t406.5 141q91 0 168 -18l51 129h229l-86 -218q178 -138 178 -419v-416q0 -245 -136.5 -384.5t-403.5 -139.5q-97 0 -174 18l-52 -129h-229l86 215q-176 136 -176 420zM426 504l254 639q-32 4 -51 4q-109 0 -156 -59.5t-47 -182.5v-401z M467 1569l108 391h330l-213 -391h-225zM569 291q27 -6 60 -6q109 0 153.5 59.5t44.5 185.5v404z" />
<glyph unicode="&#x1ff;" horiz-adv-x="1085" d="M72 432v266q0 216 119 336.5t352 120.5q71 0 133 -12l35 90h180l-60 -150q183 -116 183 -385v-266q0 -212 -119 -330t-352 -118q-75 0 -137 12l-31 -80h-180l53 139q-176 109 -176 377zM383 1262l109 391h329l-213 -391h-225zM393 422l178 455q-8 2 -28 2 q-81 0 -115.5 -43t-34.5 -138v-276zM510 262q8 -2 33 -2q81 0 115 42.5t34 135.5v293z" />
<glyph unicode="&#x218;" horiz-adv-x="1120" d="M35 139l117 256q241 -112 399 -112q94 0 141 39t47 98q0 46 -28.5 80t-75 53.5t-106 40.5t-121 39t-121 51t-106 75t-75 112t-28.5 161q0 202 123 310t356 108q249 0 477 -152l-141 -245q-173 102 -322 102q-81 0 -121 -29t-40 -82q0 -33 22.5 -58.5t61 -43t88.5 -33.5 t105 -35t110.5 -41.5t105.5 -58t88.5 -80t61 -112t22.5 -150.5q0 -214 -131.5 -331t-402.5 -117q-251 0 -506 155zM391 -557q52 32 83 75t34 79h-107v303h304v-226q0 -33 -3.5 -65t-16 -75.5t-33 -80t-57.5 -74t-87 -63.5z" />
<glyph unicode="&#x219;" horiz-adv-x="954" d="M47 106l70 238q224 -90 352 -90q70 0 98.5 24t28.5 70q0 34 -29 58t-75 39.5t-101.5 30.5t-111 39t-101.5 57.5t-75 93t-29 139.5q0 175 114 262.5t306 87.5q99 0 203 -31t184 -82l-78 -231q-174 82 -307 82q-107 0 -107 -68q0 -32 29 -54t75 -36.5t101.5 -29t111 -38.5 t101.5 -57.5t75 -94t29 -140.5q0 -197 -109.5 -294t-332.5 -97q-100 0 -211 31t-211 91zM328 -557q52 32 82.5 74.5t33.5 79.5h-106v303h303v-226q0 -33 -3.5 -65t-16 -75.5t-33 -80t-57.5 -74t-87 -63.5z" />
<glyph unicode="&#x21a;" horiz-adv-x="1220" d="M63 1122v312h1084v-312h-371v-1122h-340v1122h-373zM446 -557q52 32 83 75t34 79h-106v303h303v-226q0 -33 -3.5 -65t-16 -75.5t-33 -80t-57.5 -74t-87 -63.5z" />
<glyph unicode="&#x21b;" horiz-adv-x="905" d="M37 877v247l186 15v209l320 32v-241h286v-262h-286v-519q0 -40 28.5 -63t75.5 -23q66 0 152 27l73 -233q-128 -82 -282 -82q-103 0 -177.5 28.5t-117 83t-61.5 124t-19 159.5v498h-178zM360 -557q52 32 83 75t34 79h-106v303h303v-226q0 -33 -3.5 -65t-16 -75.5t-33 -80 t-57.5 -74t-87 -63.5z" />
<glyph unicode="&#x237;" horiz-adv-x="552" d="M-199 -358l78 241q68 -20 152 -20q44 0 68 25t24 71v1180h328v-1166q0 -90 -19 -159.5t-61.5 -124t-117 -83t-177.5 -28.5q-159 0 -275 64z" />
<glyph unicode="&#x2c6;" horiz-adv-x="999" d="M141 1262l248 391h219l248 -391h-209l-147 163l-148 -163h-211z" />
<glyph unicode="&#x2c7;" horiz-adv-x="999" d="M141 1653h211l148 -164l147 164h209l-248 -391h-219z" />
<glyph unicode="&#x2d8;" horiz-adv-x="833" d="M70 1563v32h270v-36q0 -99 76 -99t76 99v36h270v-32q0 -86 -27 -149t-75.5 -99.5t-109 -54t-134.5 -17.5t-134.5 17.5t-109 54t-75.5 99.5t-27 149z" />
<glyph unicode="&#x2d9;" horiz-adv-x="471" d="M68 1255v322h335v-322h-335z" />
<glyph unicode="&#x2da;" horiz-adv-x="974" d="M233 1468q0 109 71.5 176.5t182.5 67.5t182.5 -67.5t71.5 -176.5q0 -108 -71.5 -174.5t-182.5 -66.5t-182.5 66.5t-71.5 174.5zM403 1468q0 -36 22.5 -59t61.5 -23t61.5 23t22.5 59t-22.5 60t-61.5 24q-40 0 -62 -23.5t-22 -60.5z" />
<glyph unicode="&#x2db;" horiz-adv-x="849" d="M190 -270q0 89 68.5 161t177.5 109h223q-96 -29 -152 -75t-56 -105q0 -35 22 -54.5t59 -19.5q18 0 38 4t31 8l11 4l47 -174q-82 -59 -221 -59q-108 0 -178 50.5t-70 150.5z" />
<glyph unicode="&#x2dc;" horiz-adv-x="876" d="M51 1321q86 252 246 252q48 0 98.5 -24.5t95 -49t76.5 -24.5q45 0 80 57l21 35l157 -72q-53 -141 -109 -196.5t-136 -55.5q-48 0 -98.5 24.5t-95 49t-77.5 24.5q-56 0 -100 -94z" />
<glyph unicode="&#x2dd;" horiz-adv-x="894" d="M55 1262l109 391h305l-201 -391h-213zM436 1262l109 391h305l-201 -391h-213z" />
<glyph unicode="&#x1e80;" horiz-adv-x="1820" d="M41 1434h369l149 -910h8l205 910h275l204 -910h9l149 910h371l-340 -1434h-340l-187 780h-8l-188 -780h-336zM625 1960h329l109 -391h-225z" />
<glyph unicode="&#x1e81;" horiz-adv-x="1511" d="M27 1139h344l106 -703h8l133 703h275l133 -703h8l107 703h346l-285 -1139h-325l-117 504h-8l-121 -504h-322zM461 1653h330l108 -391h-225z" />
<glyph unicode="&#x1e82;" horiz-adv-x="1820" d="M41 1434h369l149 -910h8l205 910h275l204 -910h9l149 910h371l-340 -1434h-340l-187 780h-8l-188 -780h-336zM768 1569l109 391h329l-213 -391h-225z" />
<glyph unicode="&#x1e83;" horiz-adv-x="1511" d="M27 1139h344l106 -703h8l133 703h275l133 -703h8l107 703h346l-285 -1139h-325l-117 504h-8l-121 -504h-322zM618 1262l109 391h330l-213 -391h-226z" />
<glyph unicode="&#x1e84;" horiz-adv-x="1820" d="M41 1434h369l149 -910h8l205 910h275l204 -910h9l149 910h371l-340 -1434h-340l-187 780h-8l-188 -780h-336zM571 1575v280h275v-280h-275zM977 1575v280h274v-280h-274z" />
<glyph unicode="&#x1e85;" horiz-adv-x="1511" d="M27 1139h344l106 -703h8l133 703h275l133 -703h8l107 703h346l-285 -1139h-325l-117 504h-8l-121 -504h-322zM420 1268v280h274v-280h-274zM825 1268v280h275v-280h-275z" />
<glyph unicode="&#x1ef2;" horiz-adv-x="1306" d="M39 1434h379l229 -551h12l232 551h377l-443 -875v-559h-344v559zM354 1960h330l109 -391h-226z" />
<glyph unicode="&#x1ef3;" horiz-adv-x="1073" d="M25 1139h344l141 -733h8l184 733h349l-488 -1553h-313l131 414h-45zM240 1653h329l109 -391h-225z" />
<glyph unicode="&#x2000;" horiz-adv-x="1103" />
<glyph unicode="&#x2001;" horiz-adv-x="2206" />
<glyph unicode="&#x2002;" horiz-adv-x="1103" />
<glyph unicode="&#x2003;" horiz-adv-x="2206" />
<glyph unicode="&#x2004;" horiz-adv-x="735" />
<glyph unicode="&#x2005;" horiz-adv-x="551" />
<glyph unicode="&#x2006;" horiz-adv-x="367" />
<glyph unicode="&#x2007;" horiz-adv-x="367" />
<glyph unicode="&#x2008;" horiz-adv-x="275" />
<glyph unicode="&#x2009;" horiz-adv-x="441" />
<glyph unicode="&#x200a;" horiz-adv-x="122" />
<glyph unicode="&#x2010;" horiz-adv-x="765" d="M72 481v279h622v-279h-622z" />
<glyph unicode="&#x2011;" horiz-adv-x="765" d="M72 481v279h622v-279h-622z" />
<glyph unicode="&#x2012;" horiz-adv-x="765" d="M72 481v279h622v-279h-622z" />
<glyph unicode="&#x2013;" horiz-adv-x="1052" d="M51 481v279h950v-279h-950z" />
<glyph unicode="&#x2014;" horiz-adv-x="1734" d="M88 481v279h1557v-279h-1557z" />
<glyph unicode="&#x2018;" horiz-adv-x="675" d="M129 958v228q0 154 63.5 263.5t208.5 219.5l144 -151q-67 -44 -110 -98t-50 -109h113v-353h-369z" />
<glyph unicode="&#x2019;" horiz-adv-x="675" d="M129 1098q67 44 110 98t50 109h-113v352h369v-227q0 -154 -64 -264t-209 -220z" />
<glyph unicode="&#x201a;" horiz-adv-x="567" d="M53 -207q67 44 110 98t50 109h-113v352h369v-227q0 -154 -63.5 -263.5t-208.5 -219.5z" />
<glyph unicode="&#x201c;" horiz-adv-x="1187" d="M127 958v228q0 154 63.5 263.5t208.5 219.5l144 -151q-67 -44 -110 -98t-50 -109h113v-353h-369zM643 958v228q0 154 63.5 263.5t208.5 219.5l144 -151q-67 -44 -110 -98t-50 -109h113v-353h-369z" />
<glyph unicode="&#x201d;" horiz-adv-x="1187" d="M129 1098q67 44 110 98t50 109h-113v352h369v-227q0 -154 -64 -264t-209 -220zM645 1098q67 44 110 98t50 109h-113v352h369v-227q0 -154 -64 -264t-209 -220z" />
<glyph unicode="&#x201e;" horiz-adv-x="1079" d="M53 -207q67 44 110 98t50 109h-113v352h369v-227q0 -154 -63.5 -263.5t-208.5 -219.5zM569 -207q67 44 110 98t50 109h-113v352h369v-227q0 -154 -63.5 -263.5t-208.5 -219.5z" />
<glyph unicode="&#x2020;" horiz-adv-x="1036" d="M88 844v289l270 -7l-10 383h340l-8 -383l268 7v-289l-270 8l-14 -936h-291l-15 936z" />
<glyph unicode="&#x2021;" horiz-adv-x="1036" d="M88 293v289l270 -9v279l-270 -8v289l270 -7l-10 383h340l-8 -383l268 7v-289l-270 8v-279l270 9v-289l-268 6l8 -383h-340l10 383z" />
<glyph unicode="&#x2022;" horiz-adv-x="835" d="M143 625q0 123 76 198.5t199 75.5t198.5 -75.5t75.5 -198.5t-75.5 -199t-198.5 -76t-199 76t-76 199z" />
<glyph unicode="&#x202f;" horiz-adv-x="441" />
<glyph unicode="&#x2030;" horiz-adv-x="2707" d="M94 954v181q0 153 88.5 234t243.5 81q154 0 240 -81t86 -234v-181q0 -153 -85.5 -233t-240.5 -80t-243.5 81t-88.5 232zM365 938q0 -28 18 -43.5t43 -15.5q24 0 41.5 15.5t17.5 43.5v217q0 28 -17.5 43.5t-41.5 15.5q-25 0 -43 -15.5t-18 -43.5v-217zM582 -59l501 1552 h289l-502 -1552h-288zM1200 297v180q0 153 88.5 234.5t243.5 81.5q154 0 240 -81.5t86 -234.5v-180q0 -153 -85.5 -233t-240.5 -80t-243.5 81t-88.5 232zM1470 281q0 -28 18.5 -44t43.5 -16q23 0 41 16t18 44v217q0 28 -17.5 43.5t-41.5 15.5q-25 0 -43.5 -15.5t-18.5 -43.5 v-217zM1956 297v180q0 153 88.5 234.5t243.5 81.5q154 0 239.5 -81t85.5 -235v-180q0 -153 -85.5 -233t-239.5 -80q-155 0 -243.5 81t-88.5 232zM2226 281q0 -28 18.5 -44t43.5 -16q23 0 41 16t18 44v217q0 28 -17.5 43.5t-41.5 15.5q-25 0 -43.5 -15.5t-18.5 -43.5v-217z " />
<glyph unicode="&#x2039;" horiz-adv-x="804" d="M92 532v160l621 400v-236l-269 -244l269 -243v-236z" />
<glyph unicode="&#x203a;" horiz-adv-x="804" d="M92 133v236l268 243l-268 244v236l621 -400v-160z" />
<glyph unicode="&#x2044;" horiz-adv-x="815" d="M-8 -51l516 1536h315l-516 -1536h-315z" />
<glyph unicode="&#x205f;" horiz-adv-x="551" />
<glyph unicode="&#x20ac;" horiz-adv-x="1294" d="M92 471v205h111v78h-111v204h111v15q0 221 137 349t389 128q247 0 459 -150l-127 -225q-100 47 -171.5 66.5t-154.5 19.5q-94 0 -147 -50t-53 -138v-15h329v-204h-329v-78h329v-205h-329v-8q0 -88 53 -138.5t147 -50.5q84 0 155.5 19t174.5 67l129 -221 q-120 -78 -229.5 -115.5t-235.5 -37.5q-256 0 -391 123t-135 354v8h-111z" />
<glyph unicode="&#x2122;" horiz-adv-x="1546" d="M61 1253v181h588v-181h-188v-581h-207v581h-193zM754 672v762h178l180 -381h12l183 381h176v-762h-189v348h-8l-100 -232h-133l-103 232h-8v-348h-188z" />
<glyph unicode="&#x2190;" horiz-adv-x="1765" d="M88 707l696 669l183 -188l-371 -346h1055v-271h-1055l373 -344l-185 -190z" />
<glyph unicode="&#x2191;" horiz-adv-x="1499" d="M80 817l670 696l669 -696l-190 -184l-344 373v-1055h-271v1055l-346 -371z" />
<glyph unicode="&#x2192;" horiz-adv-x="1765" d="M115 571v271h1054l-370 346l182 188l696 -669l-696 -670l-184 190l372 344h-1054z" />
<glyph unicode="&#x2193;" horiz-adv-x="1499" d="M80 623l188 182l346 -371v1055h271v-1055l344 373l190 -184l-669 -697z" />
<glyph unicode="&#x2212;" horiz-adv-x="1046" d="M33 485v271h981v-271h-981z" />
<glyph unicode="&#x2260;" horiz-adv-x="1042" d="M33 254v270h327l62 193h-389v270h473l47 150h260l-47 -150h248v-270h-332l-61 -193h393v-270h-477l-48 -150h-260l47 150h-243z" />
<glyph unicode="&#x25fc;" horiz-adv-x="1136" d="M0 0v1137h1137v-1137h-1137z" />
<glyph unicode="&#xf6c3;" horiz-adv-x="516" d="M100 -557q52 32 83 75t34 79h-106v303h303v-226q0 -33 -3.5 -65t-16 -75.5t-33 -80t-57.5 -74t-87 -63.5z" />
<glyph horiz-adv-x="1220" d="M104 524v385q0 117 30 213.5t90.5 171t158.5 115.5t227 41t227 -41t158.5 -115.5t90.5 -171t30 -213.5v-385q0 -117 -30 -213.5t-90.5 -170.5t-158.5 -115t-227 -41t-227 41t-158.5 115t-90.5 170.5t-30 213.5zM422 561l186 608q-93 -1 -139.5 -71t-46.5 -189v-348z M543 268q24 -6 67 -6q94 0 141.5 71t47.5 189v387q0 86 -17 125z" />
<glyph horiz-adv-x="1230" d="M109 524v385q0 117 30 213.5t90 171t158 115.5t227 41t227 -41t158.5 -115.5t90.5 -171t30 -213.5v-385q0 -117 -30 -213.5t-90.5 -170.5t-158.5 -115t-227 -41t-227 41t-158 115t-90 170.5t-30 213.5zM446 543q0 -122 37.5 -187t130.5 -65t130.5 65t37.5 187v348 q0 123 -37.5 187.5t-130.5 64.5t-130.5 -64.5t-37.5 -187.5v-348z" />
<glyph horiz-adv-x="1230" d="M115 1237l508 197h233v-1149h242v-285h-905v285h327v811l-301 -115q-8 18 -104 256z" />
<glyph horiz-adv-x="1230" d="M106 1282q106 78 234 123t256 45q226 0 356.5 -108t130.5 -298q0 -78 -33.5 -151.5t-86.5 -131.5t-117.5 -111.5t-129 -100t-117.5 -88.5t-86.5 -84.5t-33.5 -81.5h627v-295h-977v217q0 79 34 155.5t88.5 139t120.5 122t132.5 112t121 100t88.5 96t34 90.5 q0 60 -47.5 93.5t-127.5 33.5q-151 0 -327 -110z" />
<glyph horiz-adv-x="1230" d="M98 147l129 238q213 -109 357 -109q60 0 101.5 14t61 39.5t27.5 52t8 60.5q0 78 -46.5 121t-137.5 43h-268v264h241q77 0 124.5 36.5t47.5 105.5q0 67 -38.5 106t-120.5 39q-85 0 -172.5 -30t-153.5 -74l-131 235q110 81 239 121.5t248 40.5q225 0 345 -112t120 -302 q0 -75 -29.5 -148t-88.5 -124q80 -57 116.5 -135.5t36.5 -194.5q0 -72 -17 -136t-56.5 -122t-98.5 -100t-150.5 -67t-205.5 -25q-239 0 -488 163z" />
<glyph horiz-adv-x="1230" d="M59 258v217l398 959h338l-375 -891h256v340h323v-340h170v-285h-170v-258h-323v258h-617z" />
<glyph horiz-adv-x="1232" d="M102 150l127 233q212 -107 357 -107q196 0 196 195q0 87 -53 143t-149 56q-106 0 -236 -72l-174 109l43 727h813v-289h-537l-14 -219q62 24 150 24q123 0 218 -37t153 -103t87 -151.5t29 -187.5q0 -78 -16 -146.5t-55 -132t-97.5 -109t-149.5 -72.5t-206 -27 q-128 0 -258 44t-228 122z" />
<glyph horiz-adv-x="1230" d="M96 487v367q0 102 21 191t65 163.5t108.5 127.5t156 82.5t202.5 29.5q246 0 447 -141l-125 -238q-78 47 -145 68.5t-148 21.5q-112 0 -179 -60t-67 -179v-46q97 93 240 93q217 0 339 -128.5t122 -355.5q0 -225 -134 -363t-387 -138q-233 0 -374.5 140.5t-141.5 364.5z M432 487q0 -105 47.5 -160t132.5 -55t135 53.5t50 157.5q0 203 -185 203q-101 0 -180 -92v-107z" />
<glyph horiz-adv-x="1230" d="M115 1141v293h1001v-222l-536 -1212h-359l522 1141h-628z" />
<glyph horiz-adv-x="1230" d="M96 424q0 108 58.5 193.5t154.5 138.5q-80 52 -130 128t-50 169q0 177 130 287t355 110t355.5 -110t130.5 -287q0 -93 -50 -169t-130 -128q96 -53 154.5 -138.5t58.5 -193.5q0 -203 -138 -321.5t-381 -118.5t-380.5 118.5t-137.5 321.5zM424 432q0 -74 52 -118t138 -44 t138.5 44t52.5 118q0 131 -191 180q-190 -49 -190 -180zM459 1044q0 -109 155 -174q156 66 156 174q0 56 -40 89.5t-116 33.5t-115.5 -33.5t-39.5 -89.5z" />
<glyph horiz-adv-x="1230" d="M96 946q0 226 134 364t386 138q233 0 375 -141t142 -365v-367q0 -128 -33.5 -234.5t-100 -187.5t-173.5 -126t-246 -45q-246 0 -447 141l125 237q78 -47 145 -68.5t148 -21.5q112 0 179 60.5t67 179.5v45q-96 -92 -240 -92q-217 0 -339 128t-122 355zM432 946 q0 -203 184 -203q102 0 181 93v106q0 105 -48 160t-133 55t-134.5 -53.5t-49.5 -157.5z" />
<glyph horiz-adv-x="1230" d="M109 524v385q0 117 30 213.5t90 171t158 115.5t227 41t227 -41t158.5 -115.5t90.5 -171t30 -213.5v-385q0 -117 -30 -213.5t-90.5 -170.5t-158.5 -115t-227 -41t-227 41t-158 115t-90 170.5t-30 213.5zM426 561l186 608q-93 -1 -139.5 -71t-46.5 -189v-348zM547 268 q24 -6 67 -6q94 0 141.5 71t47.5 189v387q0 86 -17 125z" />
<glyph horiz-adv-x="1230" d="M88 139l117 256q241 -112 399 -112q94 0 141.5 39t47.5 98q0 52 -36.5 88t-95 58t-129 43t-141 51.5t-129 73.5t-95 119t-36.5 179q0 169 88 273t256 133v153h273v-153q166 -29 339 -140l-141 -245q-172 102 -321 102q-81 0 -121.5 -29t-40.5 -82q0 -33 22.5 -58.5 t61 -43t88.5 -33.5t105 -35t110.5 -41.5t105.5 -58t88.5 -80t61 -112t22.5 -150.5q0 -182 -94 -294t-286 -142v-191h-273v187q-194 27 -387 147z" />
<glyph horiz-adv-x="1230" d="M82 594v244l158 26q-33 101 -33 160q0 90 28.5 163t76.5 121.5t114 81t138 46.5t151 14q228 0 442 -133l-123 -238q-177 82 -307 82q-26 0 -49.5 -3.5t-50 -13.5t-45.5 -27t-32 -47t-13 -69q0 -55 28 -137h453v-270h-391q20 -72 20 -127q0 -106 -76 -176l2 -6h576v-285 h-1030v242q38 17 63 29t57.5 33.5t51 43t32 53t13.5 68.5q0 62 -23 125h-231z" />
<glyph horiz-adv-x="1306" d="M39 1434h379l229 -551h12l232 551h377l-334 -660h156v-244h-265v-96h265v-244h-265v-190h-344v190h-264v244h264v96h-264v244h156z" />
<glyph horiz-adv-x="1230" d="M74 471v205h110v78h-110v204h110v15q0 221 137.5 349t389.5 128q246 0 458 -150l-127 -225q-101 47 -171.5 66.5t-153.5 19.5q-94 0 -147.5 -50t-53.5 -138v-15h330v-204h-330v-78h330v-205h-330v-8q0 -88 53.5 -138.5t147.5 -50.5q84 0 155.5 19t174.5 67l129 -221 q-120 -78 -229.5 -115.5t-235.5 -37.5q-256 0 -391.5 123t-135.5 354v8h-110z" />
<glyph horiz-adv-x="681" d="M160 1092l39 444h321l-137 -444h-223z" />
</font>
</defs>
</svg>
